osu file format v14

[General]
AudioFilename: audio.mp3
AudioLeadIn: 0
PreviewTime: 98025
Countdown: 1
SampleSet: None
StackLeniency: 0.5
Mode: 0
LetterboxInBreaks: 0
WidescreenStoryboard: 0

[Editor]
Bookmarks: 183024
DistanceSpacing: 1.5
BeatDivisor: 4
GridSize: 8
TimelineZoom: 2

[Metadata]
Title:Shigen no Beat ~ Pristine Beat
TitleUnicode:始原のビート ~ Pristine Beat
Artist:ZUN
ArtistUnicode:ZUN
Creator:WitherStar123
Version:Lunatic: Primordial
Source:東方輝針城 ~ Double Dealing Character.
Tags:touhou project raiko horikawa th14 kishinjou primordial
BeatmapID:1745291
BeatmapSetID:739353

[Difficulty]
HPDrainRate:7
CircleSize:5
OverallDifficulty:8
ApproachRate:9.3
SliderMultiplier:2.4
SliderTickRate:1

[Events]
//Background and Video events
0,0,"boomboom.jpeg",0,0
//Break Periods
2,13151,23594
2,158774,170167
//Storyboard Layer 0 (Background)
//Storyboard Layer 1 (Fail)
//Storyboard Layer 2 (Pass)
//Storyboard Layer 3 (Foreground)
//Storyboard Sound Samples

[TimingPoints]
800,759.493670886076,4,3,1,100,1,0
6116,-79.6812749003984,4,3,1,100,0,0
25103,-111.111111111111,4,3,1,100,0,0
37255,-76.9230769230769,4,3,1,100,0,0
49407,-100,4,3,1,100,0,0
128394,-80,4,3,1,100,0,0
134281,-66.6666666666667,4,3,1,100,0,1
146622,-66.6666666666667,4,1,0,60,0,0
158584,-100,4,3,1,100,0,0
163236,-66.6666666666667,4,3,1,50,0,0
163616,-66.6666666666667,4,3,1,100,0,0
169312,-66.6666666666667,4,3,1,50,0,0
169692,-66.6666666666667,4,3,1,100,0,0
170926,-100,4,3,1,100,0,0
182793,-100,4,1,0,50,0,0
187540,-66.6666666666667,4,3,1,50,0,0
187920,-66.6666666666667,4,3,1,100,0,0
188300,-100,4,1,0,50,0,0
193616,-66.6666666666667,4,3,1,50,0,0
193996,-66.6666666666667,4,3,1,100,0,0
194375,-100,4,1,0,50,0,0
195135,-100,4,3,1,100,0,0

[Colours]
Combo1 : 0,255,255
Combo2 : 255,0,0

[HitObjects]
138,113,800,6,0,P|256:95|374:114,1,240
373,270,2318,2,0,P|255:289|138:270,1,240
100,192,3837,5,0,0:0:0:0:
100,192,3932,1,0,0:0:0:0:
100,192,4027,1,0,0:0:0:0:
224,192,4217,1,0,0:0:0:0:
412,192,4597,5,0,0:0:0:0:
412,192,4692,1,0,0:0:0:0:
412,192,4787,1,0,0:0:0:0:
288,192,4977,1,0,0:0:0:0:
256,16,5356,5,0,0:0:0:0:
256,16,5451,1,0,0:0:0:0:
256,16,5546,1,0,0:0:0:0:
256,140,5736,1,0,0:0:0:0:
256,140,5926,1,0,0:0:0:0:
200,276,6116,2,0,L|156:276,2,37.6500002297974
312,276,6496,2,0,L|356:276,2,37.6500002297974
200,136,6875,6,0,L|112:8,1,150.600000919189
312,136,7635,2,0,L|400:8,1,150.600000919189
200,248,8394,2,0,L|112:376,1,150.600000919189
312,248,9154,2,0,L|400:376,1,150.600000919189
400,192,9913,5,0,0:0:0:0:
384,192,10008,1,0,0:0:0:0:
368,192,10103,1,0,0:0:0:0:
256,192,10293,1,0,0:0:0:0:
112,192,10673,5,0,0:0:0:0:
128,192,10768,1,0,0:0:0:0:
144,192,10863,1,0,0:0:0:0:
256,192,11053,1,0,0:0:0:0:
256,48,11432,5,0,0:0:0:0:
256,64,11527,1,0,0:0:0:0:
256,80,11622,1,0,0:0:0:0:
256,192,11812,1,0,0:0:0:0:
291,202,11906,1,0,0:0:0:0:
314,231,12001,1,0,0:0:0:0:
318,268,12096,1,0,0:0:0:0:
301,301,12191,1,0,0:0:0:0:
268,318,12286,1,0,0:0:0:0:
231,315,12381,1,0,0:0:0:0:
202,291,12476,1,0,0:0:0:0:
192,256,12571,1,0,0:0:0:0:
202,220,12666,1,0,0:0:0:0:
231,196,12761,1,0,0:0:0:0:
256,256,12951,5,0,0:0:0:0:
96,192,24344,5,0,0:0:0:0:
96,192,24534,1,0,0:0:0:0:
256,96,24724,1,0,0:0:0:0:
416,200,24913,1,0,0:0:0:0:
256,192,25103,6,0,L|256:312,1,107.999996704102
184,192,25863,2,0,L|184:312,1,107.999996704102
328,192,26622,2,0,L|328:312,1,107.999996704102
256,192,27382,2,0,L|256:120,1,53.9999983520508
256,16,27762,2,0,L|256:80,1,53.9999983520508
306,174,28141,6,0,P|256:191|206:174,1,107.999996704102
305,174,28901,2,0,L|359:174,1,53.9999983520508
207,174,29281,2,0,L|153:174,1,53.9999983520508
305,79,29660,6,0,P|255:62|205:79,1,107.999996704102
256,192,30420,1,0,0:0:0:0:
122,134,31179,2,0,L|162:334,1,188.999994232178
160,320,31939,2,0,P|256:304|352:320,1,188.999994232178
345,317,32698,2,0,L|382:131,1,188.999994232178
390,98,33458,5,0,0:0:0:0:
122,98,33837,1,0,0:0:0:0:
256,331,34217,1,0,0:0:0:0:
390,337,34977,5,0,0:0:0:0:
122,337,35356,1,0,0:0:0:0:
256,104,35736,1,0,0:0:0:0:
312,168,35926,2,0,L|344:200,2,26.9999991760254
200,168,36306,2,0,L|168:200,1,26.9999991760254
128,240,36496,5,0,0:0:0:0:
368,104,36686,1,0,0:0:0:0:
144,104,36875,1,0,0:0:0:0:
384,240,37065,1,0,0:0:0:0:
218,274,37255,6,0,P|207:310|218:348,1,77.9999964294435
294,110,37635,2,0,P|304:73|294:36,1,77.9999964294435
184,35,38015,1,0,0:0:0:0:
328,192,38204,1,0,0:0:0:0:
184,349,38394,1,0,0:0:0:0:
174,230,38774,6,0,P|137:240|100:230,1,77.9999964294435
338,154,39154,2,0,P|374:143|412:154,1,77.9999964294435
413,264,39534,1,0,0:0:0:0:
256,120,39724,1,0,0:0:0:0:
99,264,39913,1,0,0:0:0:0:
334,192,40293,6,0,L|426:192,1,77.9999964294435
178,192,40673,2,0,L|83:192,1,77.9999964294435
256,192,41053,1,0,0:0:0:0:
256,192,41243,1,0,0:0:0:0:
256,304,41432,5,0,0:0:0:0:
256,80,41622,1,0,0:0:0:0:
112,55,41812,5,0,0:0:0:0:
400,55,42002,1,0,0:0:0:0:
256,304,42192,1,0,0:0:0:0:
184,256,42572,1,0,0:0:0:0:
215,233,42666,1,0,0:0:0:0:
252,224,42761,1,0,0:0:0:0:
291,230,42856,1,0,0:0:0:0:
323,251,42951,1,0,0:0:0:0:
377,304,43141,1,0,0:0:0:0:
428,238,43331,6,0,L|427:157,1,77.9999964294435
354,70,43711,1,0,0:0:0:0:
356,231,43901,1,0,0:0:0:0:
356,231,44091,2,0,L|355:150,1,77.9999964294435
282,64,44471,1,0,0:0:0:0:
84,238,44850,6,0,L|84:157,1,77.9999964294435
158,70,45230,1,0,0:0:0:0:
156,231,45420,1,0,0:0:0:0:
156,231,45610,2,0,L|156:150,1,77.9999964294435
228,275,45990,1,0,0:0:0:0:
352,192,46369,5,0,0:0:0:0:
160,192,46559,1,0,0:0:0:0:
256,192,46749,1,0,0:0:0:0:
256,192,46939,1,0,0:0:0:0:
352,192,47129,1,0,0:0:0:0:
160,192,47318,1,0,0:0:0:0:
256,272,47508,1,0,0:0:0:0:
256,64,47698,1,0,0:0:0:0:
160,128,47888,5,0,0:0:0:0:
352,192,48078,1,0,0:0:0:0:
160,256,48268,1,0,0:0:0:0:
160,192,48648,1,0,0:0:0:0:
240,192,48837,1,0,0:0:0:0:
256,192,48932,1,0,0:0:0:0:
272,192,49027,1,0,0:0:0:0:
352,192,49217,1,0,0:0:0:0:
432,192,49407,6,0,L|456:328,1,120
452,310,49977,1,0,0:0:0:0:
320,288,50167,2,0,L|184:312,1,120
201,308,50736,1,0,0:0:0:0:
224,176,50926,2,0,L|200:40,1,120
203,57,51496,1,0,0:0:0:0:
336,80,51686,2,0,L|472:56,1,120
454,59,52255,1,0,0:0:0:0:
255,86,52445,6,0,P|186:83|135:110,1,120
141,104,53015,1,0,0:0:0:0:
197,206,53205,2,0,P|194:275|221:326,1,120
215,320,53775,1,0,0:0:0:0:
317,264,53964,2,0,P|386:267|437:240,1,120
431,246,54534,1,0,0:0:0:0:
375,144,54724,2,0,P|378:75|351:24,1,120
357,30,55294,1,0,0:0:0:0:
200,112,55483,6,0,L|78:129,1,120
81,128,56053,1,0,0:0:0:0:
200,184,56243,2,0,L|78:201,1,120
81,200,56813,1,0,0:0:0:0:
200,256,57002,2,0,L|78:273,1,120
81,272,57572,1,0,0:0:0:0:
200,328,57762,2,0,L|78:345,1,120
81,344,58332,1,0,0:0:0:0:
312,328,58521,6,0,P|368:328|430:344,1,120
429,344,59091,1,0,0:0:0:0:
312,256,59281,2,0,P|368:256|430:272,1,120
429,272,59851,1,0,0:0:0:0:
312,184,60040,2,0,P|368:184|430:200,1,120
429,200,60610,1,0,0:0:0:0:
312,112,60800,2,0,P|368:112|430:128,1,120
429,128,61370,1,0,0:0:0:0:
216,104,61559,5,0,0:0:0:0:
216,104,61939,1,0,0:0:0:0:
72,40,62318,5,0,0:0:0:0:
72,40,62698,1,0,0:0:0:0:
384,152,63078,5,0,0:0:0:0:
384,152,63458,1,0,0:0:0:0:
256,192,63837,5,0,0:0:0:0:
256,192,64217,1,0,0:0:0:0:
104,176,64597,5,0,0:0:0:0:
104,176,64977,1,0,0:0:0:0:
256,264,65356,5,0,0:0:0:0:
256,264,65736,1,0,0:0:0:0:
456,192,66116,6,0,L|336:192,1,120
56,192,66875,6,0,L|160:192,1,90
176,192,67255,1,0,0:0:0:0:
256,192,67445,1,0,0:0:0:0:
368,250,67635,6,0,P|383:192|368:134,1,120
144,250,68394,2,0,P|128:192|144:134,1,120
312,79,69154,2,0,P|255:64|198:80,1,120
312,304,69913,2,0,P|255:319|198:304,1,120
136,224,70673,6,0,L|88:224,2,30
200,176,71053,1,0,0:0:0:0:
376,224,71432,2,0,L|424:224,2,30
312,176,71812,1,0,0:0:0:0:
256,344,72192,2,0,L|256:376,2,30
256,248,72572,1,0,0:0:0:0:
256,152,72762,1,0,0:0:0:0:
200,72,72951,5,0,0:0:0:0:
176,72,73046,1,0,0:0:0:0:
144,72,73141,1,0,0:0:0:0:
312,72,73331,1,0,0:0:0:0:
336,72,73426,1,0,0:0:0:0:
368,72,73521,1,0,0:0:0:0:
372,197,73711,6,0,P|255:221|138:197,1,240
256,104,74850,1,0,0:0:0:0:
256,104,75230,6,0,L|256:240,1,120
195,379,75989,1,0,0:0:0:0:
157,263,76178,1,0,0:0:0:0:
352,264,76368,1,0,0:0:0:0:
314,378,76558,1,0,0:0:0:0:
256,192,76749,1,0,0:0:0:0:
256,192,77318,5,0,0:0:0:0:
256,192,77508,12,0,78648,0:0:0:0:
160,96,79027,5,0,0:0:0:0:
352,96,79217,1,0,0:0:0:0:
352,288,79407,1,0,0:0:0:0:
160,288,79597,1,0,0:0:0:0:
256,192,79787,5,0,0:0:0:0:
256,192,79882,12,0,81306,0:0:0:0:
286,68,82065,5,0,0:0:0:0:
144,123,82255,1,0,0:0:0:0:
154,276,82445,1,0,0:0:0:0:
302,315,82635,1,0,0:0:0:0:
385,185,82825,5,0,0:0:0:0:
256,192,82920,12,0,84344,0:0:0:0:
256,96,84724,5,0,0:0:0:0:
256,112,84818,1,0,0:0:0:0:
256,128,84913,1,0,0:0:0:0:
256,144,85008,1,0,0:0:0:0:
256,160,85103,1,0,0:0:0:0:
184,160,85483,5,0,0:0:0:0:
320,160,85673,1,0,0:0:0:0:
252,277,85863,1,0,0:0:0:0:
192,98,86243,2,0,P|256:88|320:98,1,120
392,112,87002,1,0,0:0:0:0:
320,286,87382,6,0,P|256:296|192:286,1,120
136,232,88141,1,0,0:0:0:0:
376,232,88331,1,0,0:0:0:0:
336,120,88521,1,0,0:0:0:0:
168,120,88711,1,0,0:0:0:0:
256,192,88901,6,0,L|256:312,3,120
256,128,90420,6,0,L|256:0,1,120
256,8,91179,1,0,0:0:0:0:
184,144,91369,1,0,0:0:0:0:
256,280,91559,1,0,0:0:0:0:
328,144,91749,1,0,0:0:0:0:
64,144,91939,6,0,L|192:144,1,120
448,144,92698,2,0,L|320:144,1,120
256,304,93458,1,0,0:0:0:0:
256,48,94217,5,0,0:0:0:0:
256,136,94407,1,0,0:0:0:0:
184,224,94597,1,0,0:0:0:0:
215,247,94691,1,0,0:0:0:0:
252,256,94786,1,0,0:0:0:0:
291,250,94881,1,0,0:0:0:0:
323,229,94977,6,0,P|382:141|382:104,1,120
384,48,95546,2,0,L|448:48,2,60
256,48,96116,1,0,0:0:0:0:
256,320,96496,5,0,0:0:0:0:
200,240,96875,1,0,0:0:0:0:
192,216,96970,1,0,0:0:0:0:
184,192,97065,1,0,0:0:0:0:
312,240,97255,1,0,0:0:0:0:
320,216,97350,1,0,0:0:0:0:
328,192,97445,1,0,0:0:0:0:
256,112,97635,1,0,0:0:0:0:
256,40,98015,5,0,0:0:0:0:
256,240,98205,2,0,L|256:304,1,60
256,112,98584,2,0,L|256:176,1,60
256,288,99154,1,0,0:0:0:0:
352,224,99534,6,0,L|352:352,1,120
160,224,100293,2,0,L|160:350,1,120
192,160,101053,2,0,L|312:160,2,120
78,138,102192,1,0,0:0:0:0:
78,138,102572,2,0,P|55:192|79:246,1,120
129,296,103141,2,0,L|198:325,1,60
256,344,103711,1,0,0:0:0:0:
256,256,103901,1,0,0:0:0:0:
256,68,104091,5,0,0:0:0:0:
256,196,104281,2,0,L|256:260,1,60
256,128,104660,2,0,L|256:61,1,60
256,196,105230,1,0,0:0:0:0:
176,192,105610,2,0,P|104:152|72:64,2,180
336,192,107129,2,0,P|400:216|432:272,2,120
256,192,108268,1,0,0:0:0:0:
256,192,108648,5,0,0:0:0:0:
176,254,109027,1,0,0:0:0:0:
176,254,109122,1,0,0:0:0:0:
176,254,109217,1,0,0:0:0:0:
176,254,109312,1,0,0:0:0:0:
176,254,109407,1,0,0:0:0:0:
198,273,109501,1,0,0:0:0:0:
226,285,109596,1,0,0:0:0:0:
255,289,109691,1,0,0:0:0:0:
285,285,109786,1,0,0:0:0:0:
312,273,109881,1,0,0:0:0:0:
335,254,109976,1,0,0:0:0:0:
256,216,110167,5,0,0:0:0:0:
315,140,110356,2,0,L|315:76,1,60
197,77,110736,2,0,L|197:13,1,60
256,192,111306,1,0,0:0:0:0:
134,192,111686,5,0,0:0:0:0:
151,134,111875,1,0,0:0:0:0:
196,90,112065,1,0,0:0:0:0:
256,81,112255,1,0,0:0:0:0:
256,303,112445,5,0,0:0:0:0:
316,294,112635,1,0,0:0:0:0:
361,250,112825,1,0,0:0:0:0:
378,192,113014,1,0,0:0:0:0:
136,192,113205,6,0,P|154:254|252:296,2,120
256,192,114344,1,0,0:0:0:0:
376,192,114724,6,0,P|358:130|260:88,1,120
256,88,115293,1,0,0:0:0:0:
256,88,115863,1,0,0:0:0:0:
160,192,116053,1,0,0:0:0:0:
256,192,116243,5,0,0:0:0:0:
352,192,116432,1,0,0:0:0:0:
167,283,116812,2,0,P|256:302|345:283,1,180
256,368,117762,1,0,0:0:0:0:
256,192,118331,1,0,0:0:0:0:
256,16,118901,1,0,0:0:0:0:
168,136,119281,6,0,P|144:192|168:248,1,120
256,304,120040,1,0,0:0:0:0:
256,192,120420,1,0,0:0:0:0:
328,192,120800,5,0,0:0:0:0:
352,192,120894,1,0,0:0:0:0:
376,192,120989,1,0,0:0:0:0:
256,192,121179,1,0,0:0:0:0:
184,192,121369,1,0,0:0:0:0:
160,192,121463,1,0,0:0:0:0:
128,192,121559,2,0,L|88:192,2,30
256,192,121939,1,0,0:0:0:0:
256,332,122318,6,0,L|256:272,3,60
256,120,123078,6,0,L|256:192,3,60
392,224,123837,6,0,L|328:224,3,60
128,224,124597,6,0,L|188:224,1,60
128,296,124977,2,0,L|208:296,1,60
256,304,125356,6,0,L|256:368,3,60
328,368,126116,2,0,L|328:280,1,60
400,368,126496,2,0,L|400:304,1,60
400,232,126875,2,0,L|472:232,3,60
460,125,127635,1,0,0:0:0:0:
296,104,128394,6,0,P|256:96|216:104,1,75
159,229,128774,2,0,P|199:237|239:229,1,75
369,106,129154,2,0,P|329:98|289:106,1,75
159,229,129534,1,0,0:0:0:0:
159,229,129913,6,0,P|151:269|159:309,1,75,0|0,0:3|0:3,0:3:0:0:
300,368,130293,2,0,P|308:328|300:288,1,75,0|0,0:3|0:3,0:3:0:0:
161,156,130673,2,0,P|153:196|161:236,1,75,0|0,0:3|0:3,0:3:0:0:
300,368,131053,1,0,0:3:0:0:
300,368,131432,6,0,L|300:269,1,75
397,94,131812,2,0,L|397:193,1,75
470,373,132192,2,0,L|470:274,1,75
475,160,132572,1,0,0:0:0:0:
398,294,132762,1,0,0:0:0:0:
303,95,132951,1,0,0:0:0:0:
300,293,133141,1,0,0:0:0:0:
397,94,133331,1,0,0:0:0:0:
256,352,133711,5,0,0:0:0:0:
256,32,134091,1,0,0:0:0:0:
169,224,134470,6,0,P|179:288|230:318,1,90.0000034332277
224,105,134850,2,0,P|160:115|130:166,1,90.0000034332277
343,160,135230,2,0,P|333:96|282:66,1,90.0000034332277
308,303,135610,1,0,0:0:0:0:
308,303,135989,6,0,P|259:307|217:283,1,90.0000034332277
354,110,136369,2,0,P|358:158|334:200,1,90.0000034332277
161,63,136749,2,0,P|209:58|251:82,1,90.0000034332277
140,202,137129,1,0,0:0:0:0:
140,202,137508,6,0,P|147:254|188:293,1,90.0000034332277
368,128,137888,2,0,P|360:180|319:219,1,90.0000034332277
147,15,138268,2,0,P|154:67|195:106,1,90.0000034332277
177,95,138648,1,0,0:0:0:0:
320,207,138837,1,0,0:0:0:0:
170,282,139027,1,0,0:0:0:0:
351,127,139217,1,0,0:0:0:0:
140,202,139407,1,0,0:0:0:0:
448,192,139787,5,0,0:0:0:0:
400,272,139977,2,0,L|400:321,2,45.0000017166138
344,192,140356,1,0,0:0:0:0:
256,96,140546,6,0,L|256:-16,1,90.0000034332277
256,288,140926,2,0,L|256:400,1,90.0000034332277
160,192,141306,2,0,L|48:192,1,90.0000034332277
352,192,141686,1,0,0:0:0:0:
442,192,142065,6,0,L|314:192,1,90.0000034332277
70,192,142445,2,0,L|198:192,1,90.0000034332277
256,6,142825,2,0,L|256:134,1,90.0000034332277
256,378,143205,1,0,0:0:0:0:
128,312,143584,6,0,L|21:312,1,90.0000034332277
384,192,143964,2,0,L|496:192,1,90.0000034332277
128,72,144344,2,0,L|21:72,1,90.0000034332277
216,72,144724,1,0,0:0:0:0:
352,112,144913,1,0,0:0:0:0:
472,192,145103,1,0,0:0:0:0:
352,272,145293,1,0,0:0:0:0:
216,312,145483,1,0,0:0:0:0:
72,192,145863,5,0,0:0:0:0:
96,192,145958,1,0,0:0:0:0:
128,192,146053,1,0,0:0:0:0:
152,192,146148,1,0,0:0:0:0:
184,192,146243,1,0,0:0:0:0:
256,192,146432,1,0,0:0:0:0:
368,192,146622,5,0,0:0:0:0:
368,48,146812,1,0,0:0:0:0:
512,48,147002,1,0,0:0:0:0:
512,192,147192,1,0,0:0:0:0:
368,192,147382,1,0,0:0:0:0:
368,48,147572,1,0,0:0:0:0:
512,48,147762,1,0,0:0:0:0:
512,336,148141,5,0,0:0:0:0:
512,192,148331,1,0,0:0:0:0:
368,192,148521,1,0,0:0:0:0:
368,336,148711,1,0,0:0:0:0:
512,336,148901,1,0,0:0:0:0:
512,192,149091,1,0,0:0:0:0:
368,192,149281,1,0,0:0:0:0:
144,192,149660,5,0,0:0:0:0:
144,48,149850,1,0,0:0:0:0:
0,48,150040,1,0,0:0:0:0:
0,192,150230,1,0,0:0:0:0:
0,336,150420,1,0,0:0:0:0:
144,336,150610,1,0,0:0:0:0:
144,192,150800,1,0,0:0:0:0:
256,80,150989,1,0,0:0:0:0:
368,192,151179,5,0,0:0:0:0:
256,304,151369,1,0,0:0:0:0:
256,192,151559,1,0,0:0:0:0:
256,192,151939,1,0,0:0:0:0:
256,27,152698,5,0,0:0:0:0:
372,75,152888,1,0,0:0:0:0:
420,192,153078,1,0,0:0:0:0:
372,308,153268,1,0,0:0:0:0:
255,356,153458,1,0,0:0:0:0:
139,308,153648,1,0,0:0:0:0:
91,191,153837,1,0,0:0:0:0:
256,27,154217,5,0,0:0:0:0:
139,75,154407,1,0,0:0:0:0:
91,191,154596,1,0,0:0:0:0:
139,308,154786,1,0,0:0:0:0:
256,356,154976,1,0,0:0:0:0:
372,308,155166,1,0,0:0:0:0:
420,192,155356,1,0,0:0:0:0:
256,40,155736,5,0,0:0:0:0:
256,192,155926,1,0,0:0:0:0:
104,192,156116,5,0,0:0:0:0:
256,192,156306,1,0,0:0:0:0:
256,344,156496,5,0,0:0:0:0:
256,192,156686,1,0,0:0:0:0:
408,192,156875,5,0,0:0:0:0:
256,40,157065,1,0,0:0:0:0:
256,192,157255,1,0,0:0:0:0:
256,344,157445,1,0,0:0:0:0:
104,192,157635,1,0,0:0:0:0:
256,192,158015,5,0,0:0:0:0:
136,224,170926,6,0,L|136:296,3,60
216,344,171686,2,0,L|216:272,3,60
296,216,172445,6,0,L|296:288,3,60
376,336,173205,2,0,L|376:264,3,60
296,192,173964,6,0,L|368:192,3,60
424,112,174724,2,0,L|352:112,3,60
