osu file format v14

[General]
AudioFilename: audio.mp3
AudioLeadIn: 0
PreviewTime: 20555
Countdown: 3
SampleSet: Soft
StackLeniency: 0.7
Mode: 0
LetterboxInBreaks: 0
WidescreenStoryboard: 1

[Editor]
Bookmarks: 43929
DistanceSpacing: 1
BeatDivisor: 2
GridSize: 4
TimelineZoom: 1.3

[Metadata]
Title:Sekai no Hate ~ World's End
TitleUnicode:世界の果て ~ World's End
Artist:ZUN
ArtistUnicode:ZUN
Creator:Nyanaro
Version:Parachute's Lunatic
Source:東方怪綺談 ~ Mystic Square
Tags:end of the world parachute touhou project 5 th05 ms kaikidan 稗田の阿求 hieda no akyuu akyu's untouched score vol. volume 2 stage 6 theme final stage shinki 神綺 makai 魔界 soft amusement makers tsa bizarre romantic story c55 comiket doujin video game instrumental 幺樂団の歴史2 c71 上海アリス幻樂団 楽 gengakudan nyanaro124 siskfh zkffltmeh pc98 pc-98
BeatmapID:4209473
BeatmapSetID:2020776

[Difficulty]
HPDrainRate:3.5
CircleSize:2
OverallDifficulty:5
ApproachRate:6.5
SliderMultiplier:2.5
SliderTickRate:1

[Events]
//Background and Video events
0,0,"world's end 34259459_p2.png",0,0
//Break Periods
//Storyboard Layer 0 (Background)
//Storyboard Layer 1 (Fail)
//Storyboard Layer 2 (Pass)
//Storyboard Layer 3 (Foreground)
//Storyboard Layer 4 (Overlay)
//Storyboard Sound Samples

[TimingPoints]
131,664.206887161213,4,2,0,50,1,0
20721,332.104546511242,4,2,0,50,1,0
21385,352.251178573735,4,2,0,50,1,0
21385,-100,4,2,0,60,0,1
43224,-100,4,2,0,55,0,0

[Colours]
Combo1 : 255,241,198
Combo2 : 198,255,198
Combo3 : 198,222,255
Combo4 : 252,201,209

[HitObjects]
76,192,131,5,2,0:2:0:0:
76,192,297,1,0,0:0:0:0:
176,324,629,1,2,0:2:0:0:
176,324,795,1,0,0:0:0:0:
336,324,1127,1,2,0:2:0:0:
336,324,1293,1,0,0:0:0:0:
436,192,1625,1,2,0:2:0:0:
436,192,1791,1,0,0:0:0:0:
367,24,2123,6,0,L|291:24,1,62.5,2|0,0:2|0:0,0:0:0:0:
208,24,2455,2,0,L|146:24,1,62.5,2|0,0:2|0:0,0:0:0:0:
56,88,2787,5,2,0:2:0:0:
56,88,2953,1,0,0:0:0:0:
184,192,3285,1,2,0:2:0:0:
184,192,3452,1,0,0:0:0:0:
456,88,3784,1,2,0:2:0:0:
456,88,3950,1,0,0:0:0:0:
328,192,4282,1,2,0:2:0:0:
328,192,4448,1,0,0:0:0:0:
132,304,4780,5,2,0:2:0:0:
304,364,4946,1,0,0:0:0:0:
208,364,5112,1,2,0:2:0:0:
380,304,5278,1,2,0:2:0:0:
256,284,5444,5,2,0:2:0:0:
256,284,5610,1,0,0:0:0:0:
392,124,5942,1,2,0:2:0:0:
392,124,6108,1,0,0:0:0:0:
256,192,6440,1,2,0:2:0:0:
256,192,6607,1,0,0:0:0:0:
120,124,6939,1,2,0:2:0:0:
120,124,7105,1,0,0:0:0:0:
192,364,7437,6,0,L|120:364,1,62.5,2|0,0:2|0:0,0:0:0:0:
320,364,7769,2,0,L|392:364,1,62.5,2|0,0:2|0:0,0:0:0:0:
176,268,8101,5,2,0:2:0:0:
176,268,8267,1,0,0:0:0:0:
336,268,8599,1,2,0:2:0:0:
336,268,8765,1,0,0:0:0:0:
124,168,9097,1,2,0:2:0:0:
124,168,9263,1,0,0:0:0:0:
388,168,9595,1,2,0:2:0:0:
388,168,9761,1,0,0:0:0:0:
192,40,10094,5,2,0:2:0:0:
300,124,10260,1,0,0:0:0:0:
212,124,10426,1,2,1:2:0:0:
320,40,10592,1,2,0:2:0:0:
404,104,10758,5,2,1:2:0:0:
472,64,10924,1,0,0:0:0:0:
256,208,11256,1,2,1:2:0:0:
328,236,11422,1,0,0:0:0:0:
108,104,11754,1,2,1:2:0:0:
40,64,11920,1,0,0:0:0:0:
184,236,12252,1,2,1:2:0:0:
256,208,12418,1,0,0:0:0:0:
184,364,12750,6,0,L|132:316,1,62.5,2|0,1:2|0:0,0:0:0:0:
328,364,13083,2,0,L|373:321,1,62.5,2|0,1:2|0:0,0:0:0:0:
512,236,13415,5,2,1:2:0:0:
432,248,13580,1,0,0:0:0:0:
320,124,13912,1,2,1:2:0:0:
316,204,14079,1,0,0:0:0:0:
80,248,14411,1,2,1:2:0:0:
0,236,14577,1,0,0:0:0:0:
196,204,14909,1,2,1:2:0:0:
192,124,15075,1,0,0:0:0:0:
384,44,15407,5,2,1:2:0:0:
208,0,15573,1,0,0:0:0:0:
304,0,15739,1,2,1:2:0:0:
128,44,15905,1,2,0:2:0:0:
32,4,16071,5,2,1:2:0:0:
16,80,16237,1,0,0:0:0:0:
152,196,16569,1,2,1:2:0:0:
136,272,16735,1,0,0:0:0:0:
376,272,17067,1,2,1:2:0:0:
360,196,17234,1,0,0:0:0:0:
496,80,17566,1,2,1:2:0:0:
480,4,17732,1,0,0:0:0:0:
324,20,18064,6,0,L|344:104,1,62.5,2|0,1:2|0:0,0:0:0:0:
188,20,18396,2,0,L|168:104,1,62.5,2|0,1:2|0:0,0:0:0:0:
88,196,18728,5,2,1:2:0:0:
32,164,18894,1,0,0:0:0:0:
184,364,19226,1,2,1:2:0:0:
128,332,19392,1,0,0:0:0:0:
384,332,19724,1,2,1:2:0:0:
328,364,19890,1,0,0:0:0:0:
480,164,20222,1,2,1:2:0:0:
424,196,20388,1,0,0:0:0:0:
256,184,20721,6,0,L|256:260,3,62.5,2|0|2|0,1:2|1:2|1:2|1:2,1:2:0:0:
256,168,21053,1,2,3:2:0:0:
256,156,21136,1,0,3:2:0:0:
256,144,21219,1,2,3:2:0:0:
256,132,21302,1,0,3:2:0:0:
232,116,21385,6,0,P|242:51|280:116,2,187.5,4|10|2,1:2|0:0|0:0,0:0:0:0:
200,220,22089,2,0,P|148:188|124:124,1,125,2|0,1:2|0:0,0:0:0:0:
312,220,22441,2,0,P|364:188|388:124,1,125,8|0,0:2|0:0,0:0:0:0:
348,324,22794,6,0,B|256:364|256:284|164:324,2,187.5,4|10|2,1:2|0:0|0:0,0:0:0:0:
420,184,23498,2,0,L|352:72,1,125,2|0,1:2|0:0,0:0:0:0:
156,77,23850,2,0,L|92:184,1,125,8|0,0:2|0:0,0:0:0:0:
80,300,24203,5,6,1:2:0:0:
167,322,24379,1,0,0:0:0:0:
252,296,24555,1,8,0:0:0:0:
378,215,24731,2,0,L|256:192,2,125,2|0|0,0:0|1:0|0:0,0:0:0:0:
252,88,25259,1,10,0:0:0:0:
345,62,25435,1,0,0:0:0:0:
432,84,25611,1,0,1:0:0:0:
256,192,25788,2,0,L|133:168,2,125,2|8|0,0:0|0:0|0:0,0:0:0:0:
128,304,26316,5,0,1:2:0:0:
308,360,26492,1,2,0:0:0:0:
204,360,26668,1,8,1:2:0:0:
384,304,26844,1,2,0:0:0:0:
257,233,27021,6,0,L|257:46,2,187.5,4|10|2,0:0|0:0|0:0,0:0:0:0:
204,360,27725,2,0,B|144:344|144:380|80:360,1,125,2|0,1:2|0:0,0:0:0:0:
308,360,28077,2,0,B|368:344|368:380|432:360,1,125,8|0,0:0|0:0,0:0:0:0:
332,200,28430,6,0,P|360:172|396:260,2,187.5,4|10|2,1:2|0:0|0:0,0:0:0:0:
180,200,29134,2,0,P|152:172|116:260,2,187.5,0|10|2,1:2|0:0|0:0,0:0:0:0:
304,96,29839,6,0,P|364:120|432:188,2,125,6|0|8,1:2|0:0|0:0,0:0:0:0:
352,240,30367,2,0,P|328:300|260:368,2,125,2|0|0,0:0|1:0|0:0,0:0:0:0:
208,288,30895,2,0,P|148:264|80:196,2,125,10|0|0,0:0|0:0|1:0,0:0:0:0:
160,144,31423,2,0,P|184:84|252:16,2,125,2|8|0,0:0|0:0|0:0,0:0:0:0:
352,144,31952,5,0,1:0:0:0:
208,288,32128,1,2,0:0:0:0:
160,144,32304,1,8,1:2:0:0:
304,288,32480,1,2,0:0:0:0:
440,212,32657,6,0,P|472:132|464:28,2,187.5,0|10|2,1:2|0:2|0:0,0:0:0:0:
344,68,33361,2,0,L|192:20,1,125,2|0,1:2|0:0,0:0:0:0:
24,48,33713,2,0,L|176:96,1,125,8|0,0:0|0:0,0:0:0:0:
72,172,34066,6,0,P|40:252|48:356,2,187.5,0|10|2,1:0|0:0|0:0,0:0:0:0:
168,316,34770,2,0,L|320:364,1,125,2|0,1:2|0:0,0:0:0:0:
488,336,35122,2,0,L|336:288,1,125,8|0,0:0|0:0,0:0:0:0:
416,192,35475,5,2,1:2:0:0:
336,160,35651,1,0,0:0:0:0:
256,192,35827,1,8,0:0:0:0:
196,64,36003,2,0,P|256:48|316:64,2,125,2|0|0,0:0|1:0|0:0,0:0:0:0:
96,192,36531,1,10,0:0:0:0:
176,224,36707,1,0,0:0:0:0:
256,192,36883,1,0,1:0:0:0:
316,320,37059,2,0,P|256:336|196:320,2,125,2|8|0,0:0|0:0|0:0,0:0:0:0:
384,192,37588,5,0,1:0:0:0:
336,120,37764,1,2,0:0:0:0:
176,120,37940,1,8,1:2:0:0:
128,192,38116,1,2,0:0:0:0:
24,108,38293,6,0,L|28:304,2,187.5,0|10|2,1:0|0:0|0:0,0:0:0:0:
225,20,38997,2,0,L|100:20,1,125,2|0,1:2|0:0,0:0:0:0:
320,128,39349,2,0,L|195:128,1,125,8|0,0:0|0:0,0:0:0:0:
488,108,39702,6,0,L|484:304,2,187.5,0|10|2,1:0|0:0|0:0,0:0:0:0:
287,364,40406,2,0,L|412:364,1,125,2|0,1:2|0:0,0:0:0:0:
192,256,40758,2,0,L|317:256,1,125,8|0,0:0|0:0,0:0:0:0:
84,192,41111,5,2,1:2:0:0:
136,120,41287,1,0,0:0:0:0:
160,36,41463,1,8,0:0:0:0:
256,164,41639,1,2,0:0:0:0:
256,164,41815,1,0,1:0:0:0:
256,164,41991,1,0,0:0:0:0:
352,36,42167,1,10,0:0:0:0:
376,120,42343,1,0,0:0:0:0:
428,192,42519,1,0,1:0:0:0:
256,164,42695,1,2,0:0:0:0:
256,164,42871,1,8,0:0:0:0:
256,164,43047,1,0,0:0:0:0:
381,352,43224,6,0,L|131:352,2,250,4|12|2,1:0|1:2|1:2,0:0:0:0:
