osu file format v14

[General]
AudioFilename: audio.mp3
AudioLeadIn: 0
PreviewTime: 20555
Countdown: 3
SampleSet: Soft
StackLeniency: 0.7
Mode: 0
LetterboxInBreaks: 0
WidescreenStoryboard: 1

[Editor]
Bookmarks: 39349,43929
DistanceSpacing: 1
BeatDivisor: 4
GridSize: 4
TimelineZoom: 1.3

[Metadata]
Title:Sekai no Hate ~ World's End
TitleUnicode:世界の果て ~ World's End
Artist:ZUN
ArtistUnicode:ZUN
Creator:Nyanaro
Version:Parachute's Extra
Source:東方怪綺談 ~ Mystic Square
Tags:end of the world parachute touhou project 5 th05 ms kaikidan 稗田の阿求 hieda no akyuu akyu's untouched score vol. volume 2 stage 6 theme final stage shinki 神綺 makai 魔界 soft amusement makers tsa bizarre romantic story c55 comiket doujin video game instrumental 幺樂団の歴史2 c71 上海アリス幻樂団 楽 gengakudan nyanaro124 siskfh zkffltmeh pc98 pc-98
BeatmapID:4209546
BeatmapSetID:2020776

[Difficulty]
HPDrainRate:5
CircleSize:5
OverallDifficulty:7
ApproachRate:7
SliderMultiplier:1.5
SliderTickRate:1

[Events]
//Background and Video events
0,0,"world's end 34259459_p2.png",0,0
//Break Periods
//Storyboard Layer 0 (Background)
//Storyboard Layer 1 (Fail)
//Storyboard Layer 2 (Pass)
//Storyboard Layer 3 (Foreground)
//Storyboard Layer 4 (Overlay)
//Storyboard Sound Samples

[TimingPoints]
131,664.206887161213,4,2,0,50,1,0
131,-100,4,2,0,50,0,0
20721,332.104546511242,4,2,0,50,1,0
20721,-100,4,2,0,50,0,0
21385,352.251178573735,4,2,0,60,1,1
21385,-66.6666666666667,4,2,0,60,0,1
43224,-66.6666666666667,4,2,0,55,0,0

[Colours]
Combo1 : 255,241,198
Combo2 : 198,255,198
Combo3 : 198,222,255
Combo4 : 252,201,209

[HitObjects]
184,120,131,5,2,0:2:0:0:
184,120,297,1,0,0:0:0:0:
328,120,629,1,2,0:2:0:0:
328,120,795,1,0,0:0:0:0:
328,264,1127,1,2,0:2:0:0:
328,264,1293,1,0,0:0:0:0:
184,264,1625,1,2,0:2:0:0:
184,264,1791,1,0,0:0:0:0:
256,52,2123,6,0,L|256:108,1,37.5,2|0,0:2|0:0,0:0:0:0:
256,332,2455,2,0,L|256:276,1,37.5,2|0,0:2|0:0,0:0:0:0:
153,192,2787,5,2,0:2:0:0:
153,192,2953,1,0,0:0:0:0:
196,28,3285,1,2,0:2:0:0:
196,28,3451,1,0,0:0:0:0:
358,192,3783,1,2,0:2:0:0:
358,192,3949,1,0,0:0:0:0:
316,28,4281,1,2,0:2:0:0:
316,28,4447,1,0,0:0:0:0:
316,356,4780,5,2,0:2:0:0:
152,280,4946,1,0,0:0:0:0:
196,356,5112,1,2,0:2:0:0:
360,280,5278,1,2,0:2:0:0:
256,295,5444,5,2,0:2:0:0:
256,295,5610,1,0,0:0:0:0:
88,236,5942,1,2,0:2:0:0:
88,236,6108,1,0,0:0:0:0:
256,89,6440,1,2,0:2:0:0:
256,89,6606,1,0,0:0:0:0:
424,236,6939,1,2,0:2:0:0:
424,236,7105,1,0,0:0:0:0:
152,72,7437,6,0,L|152:16,1,37.5,2|0,0:2|0:0,0:0:0:0:
360,34,7769,2,0,L|360:72,1,37.5,2|0,0:2|0:0,0:0:0:0:
424,236,8101,5,2,0:2:0:0:
424,236,8267,1,0,0:0:0:0:
344,356,8599,1,2,0:2:0:0:
344,356,8765,1,0,0:0:0:0:
168,356,9097,1,2,0:2:0:0:
168,356,9263,1,0,0:0:0:0:
88,236,9595,1,2,0:2:0:0:
88,236,9761,1,0,0:0:0:0:
256,104,10094,5,2,0:2:0:0:
256,280,10260,1,0,0:0:0:0:
344,192,10426,1,2,1:2:0:0:
168,192,10592,1,2,0:2:0:0:
116,52,10758,5,2,1:2:0:0:
172,108,10924,1,0,0:0:0:0:
396,52,11256,1,2,1:2:0:0:
340,108,11422,1,0,0:0:0:0:
396,332,11754,1,2,1:2:0:0:
340,276,11920,1,0,0:0:0:0:
116,332,12252,1,2,1:2:0:0:
172,276,12418,1,0,0:0:0:0:
388,192,12750,5,2,1:2:0:0:
212,152,12916,1,0,0:0:0:0:
300,152,13082,1,2,1:2:0:0:
124,192,13248,1,0,0:0:0:0:
116,332,13414,5,2,1:2:0:0:
60,276,13580,1,0,0:0:0:0:
116,52,13912,1,2,1:2:0:0:
60,108,14079,1,0,0:0:0:0:
396,52,14411,1,2,1:2:0:0:
452,108,14577,1,0,0:0:0:0:
396,332,14909,1,2,1:2:0:0:
452,276,15075,1,0,0:0:0:0:
256,60,15407,5,2,1:2:0:0:
256,148,15573,1,0,0:0:0:0:
256,236,15739,1,2,1:2:0:0:
256,324,15905,1,2,0:2:0:0:
60,192,16071,5,2,1:2:0:0:
140,192,16237,1,0,0:0:0:0:
256,324,16569,1,2,1:2:0:0:
336,324,16735,1,0,0:0:0:0:
452,192,17067,1,2,1:2:0:0:
372,192,17234,1,0,0:0:0:0:
176,60,17566,1,2,1:2:0:0:
256,60,17732,1,0,0:0:0:0:
140,192,18064,5,2,1:2:0:0:
196,248,18230,1,0,0:0:0:0:
372,192,18396,1,2,1:2:0:0:
316,136,18562,1,0,0:0:0:0:
304,348,18728,5,2,1:2:0:0:
304,268,18894,1,0,0:0:0:0:
444,112,19226,1,2,1:2:0:0:
444,192,19392,1,0,0:0:0:0:
208,36,19724,1,2,1:2:0:0:
208,116,19891,1,0,0:0:0:0:
68,272,20223,1,2,1:2:0:0:
68,192,20389,1,0,0:0:0:0:
256,352,20721,5,2,1:2:0:0:
256,352,20804,1,0,1:0:0:0:
256,352,20887,1,2,1:2:0:0:
256,352,20970,1,0,1:0:0:0:
300,352,21053,1,2,3:2:0:0:
280,308,21136,1,0,3:0:0:0:
232,308,21219,1,2,3:2:0:0:
212,352,21302,1,0,3:0:0:0:
212,352,21385,6,0,L|8:352,2,168.750006437302,4|10|2,1:2|0:0|0:0,0:0:0:0:
56,252,22089,2,0,L|96:136,1,112.500004291535,2|0,1:2|0:0,0:0:0:0:
256,56,22441,2,0,L|216:172,1,112.500004291535,8|0,0:2|0:0,0:0:0:0:
300,352,22794,6,0,L|480:352,2,168.750006437302,4|10|2,1:2|0:0|0:0,0:0:0:0:
456,252,23498,2,0,L|416:136,1,112.500004291535,2|0,1:2|0:0,0:0:0:0:
256,56,23850,2,0,L|296:172,1,112.500004291535,8|0,0:2|0:0,0:0:0:0:
32,192,24203,5,6,1:2:0:0:
156,192,24379,1,0,0:0:0:0:
32,192,24555,1,8,0:0:0:0:
256,272,24731,2,0,L|256:392,2,112.500004291535,2|0|0,0:0|1:0|0:0,0:0:0:0:
480,192,25259,1,10,0:0:0:0:
356,192,25435,1,0,0:0:0:0:
480,192,25611,1,0,1:0:0:0:
256,112,25788,2,0,L|256:-8,2,112.500004291535,2|8|0,0:0|0:0|0:0,0:0:0:0:
112,136,26316,5,0,1:0:0:0:
112,136,26492,1,2,0:0:0:0:
400,248,26668,1,8,1:2:0:0:
400,248,26844,1,2,0:0:0:0:
256,192,27021,6,0,L|256:368,2,168.750006437302,4|10|2,0:0|0:0|0:0,0:0:0:0:
172,324,27725,2,0,P|100:348|60:376,1,112.500004291535,2|0,1:2|0:0,0:0:0:0:
340,324,28077,2,0,P|412:348|452:376,1,112.500004291535,8|0,0:0|0:0,0:0:0:0:
376,144,28430,6,0,B|448:192|411:223|483:272,2,168.750006437302,4|10|2,1:2|0:0|0:0,0:0:0:0:
136,144,29134,2,0,B|63:192|100:223|28:272,2,168.750006437302,0|10|2,1:0|0:0|0:0,0:0:0:0:
256,128,29839,5,6,1:2:0:0:
328,16,30015,1,0,0:0:0:0:
184,16,30191,1,8,0:0:0:0:
364,192,30367,2,0,L|476:192,2,112.500004291535,2|0|0,0:0|1:0|0:0,0:0:0:0:
256,256,30895,1,10,0:0:0:0:
184,368,31071,1,0,0:0:0:0:
328,368,31248,1,0,1:0:0:0:
148,192,31424,2,0,L|35:192,2,112.500004291535,2|8|0,0:0|0:0|0:0,0:0:0:0:
256,336,31952,5,0,1:0:0:0:
256,336,32128,1,2,0:0:0:0:
256,48,32304,1,8,1:2:0:0:
256,48,32480,1,2,0:0:0:0:
192,312,32657,6,0,P|297:280|320:312,2,168.750006437302,0|10|2,1:2|0:2|0:0,0:0:0:0:
344,192,33361,2,0,L|456:192,1,112.500004291535,2|0,1:2|0:0,0:0:0:0:
368,48,33713,2,0,L|256:48,1,112.500004291535,8|0,0:0|0:0,0:0:0:0:
256,192,34066,5,0,1:0:0:0:
152,384,34330,1,10,0:0:0:0:
360,384,34594,1,2,0:0:0:0:
168,192,34770,2,0,L|56:192,1,112.500004291535,2|0,1:2|0:0,0:0:0:0:
144,48,35122,2,0,L|256:48,1,112.500004291535,8|0,0:0|0:0,0:0:0:0:
384,80,35475,6,0,L|384:192,2,112.500004291535,2|0|8,1:2|0:0|0:0,0:0:0:100:
368,320,36003,2,0,L|255:320,2,112.500004291535,2|0|0,0:0|1:0|0:0,0:0:0:0:
128,304,36531,2,0,L|128:191,2,112.500004291535,10|0|0,0:0|0:0|1:0,0:0:0:100:
144,64,37059,2,0,L|256:64,2,112.500004291535,2|8|0,0:0|0:0|0:0,0:0:0:0:
200,152,37588,5,0,1:0:0:0:
312,232,37764,1,2,0:0:0:0:
312,152,37940,1,8,1:2:0:0:
200,232,38116,1,2,0:0:0:0:
256,192,38293,5,0,1:0:0:0:
256,364,38557,1,10,0:0:0:0:
256,280,38821,1,2,0:0:0:0:
172,144,38997,2,0,P|144:96|164:28,1,112.500004291535,2|0,1:2|0:0,0:0:0:0:
340,240,39349,2,0,P|368:288|348:356,1,112.500004291535,8|0,0:0|0:0,0:0:0:0:
256,192,39702,5,0,1:0:0:0:
256,20,39966,1,10,0:0:0:0:
256,104,40230,1,2,0:0:0:0:
172,240,40406,2,0,P|144:288|164:356,1,112.500004291535,2|0,1:2|0:0,0:0:0:0:
340,144,40758,2,0,P|368:96|348:28,1,112.500004291535,8|0,0:0|0:0,0:0:0:0:
416,192,41111,5,2,1:2:0:0:
411,274,41287,1,0,0:0:0:0:
483,240,41463,1,8,0:0:0:0:
256,192,41639,1,2,0:0:0:0:
216,264,41815,1,0,1:0:0:0:
296,264,41991,1,0,0:0:0:0:
96,192,42167,1,10,0:0:0:0:
29,240,42343,1,0,0:0:0:0:
101,274,42520,1,0,1:0:0:0:
216,120,42696,1,2,0:0:0:0:
256,192,42872,1,8,0:0:0:0:
296,120,43048,1,0,0:0:0:0:
252,356,43224,5,4,1:1:0:0:
252,356,43576,1,12,1:2:0:0:
256,192,43929,5,2,1:2:0:0:
