osu file format v14

[General]
AudioFilename: audio.mp3
AudioLeadIn: 0
PreviewTime: 53886
Countdown: 0
SampleSet: Normal
StackLeniency: 0.2
Mode: 0
LetterboxInBreaks: 0
EpilepsyWarning: 1
WidescreenStoryboard: 1
SamplesMatchPlaybackRate: 1

[Editor]
Bookmarks: 9166,18110,27054,35998,40470,44942,49414,55004,55377,55749,56122,57240,57985,58358,59476,60221,60594,61712,62458,62830,63576,63948,64274,64321,64367,64694,65020,65066,65113,65812,66184,66557,66930,67302,68420,68793,69166,69538,69911,70097,70284,70656,71774,72892,73265,73638,74010,75128,75874,76246,77364,78110,78482,79600,80346,80718,81464,81836,82209,82582,82954,83700,84072,84445,84818,85190,86308,86681,87054,87426,87799,88172,88544,88638,88731,88824,88917,89010,89662,98607,107551
DistanceSpacing: 0.8
BeatDivisor: 8
GridSize: 32
TimelineZoom: 2.699999

[Metadata]
Title:Ryokugan no Jealousy
TitleUnicode:緑眼のジェラシー
Artist:ZUN
ArtistUnicode:ZUN
Creator:Net0
Version:Lunatic Oni
Source:東方地霊殿 ~ Subterranean Animism.
Tags:Green-Eyed Jealousy 東方Project SA TH11 Instrumental Video Game 水橋パルスィ taikosu Tarrasky Shanghai Alice Gengakudan Team Shanghai Alice Project Parsee Mizuhashi theme stage 2 boss C52 Reitaisai 5 Comiket 74 2008 doujin JhowM Touhou Chireiden とうほうちれいでん 東方地霊殿
BeatmapID:2090723
BeatmapSetID:999586

[Difficulty]
HPDrainRate:5
CircleSize:5
OverallDifficulty:8
ApproachRate:8
SliderMultiplier:1.4
SliderTickRate:1

[Events]
//Background and Video events
0,0,"jealousy.png",0,0
//Break Periods
//Storyboard Layer 0 (Background)
//Storyboard Layer 1 (Fail)
//Storyboard Layer 2 (Pass)
//Storyboard Layer 3 (Foreground)
//Storyboard Layer 4 (Overlay)
//Storyboard Sound Samples
Sample,53886,0,"SVL_B4s",85
Sample,53886,0,"SVF_B4s",85
Sample,53886,0,"SVS_B4s",85
Sample,55004,0,"SVL_B4ss",85
Sample,55004,0,"SVS_B4ss",85
Sample,55004,0,"SVF_B4ss",85
Sample,55377,0,"SVL_F#5ss",85
Sample,55377,0,"SVF_F#5ss",85
Sample,55377,0,"SVS_F#5ss",85
Sample,55749,0,"SVL_G5ss",85
Sample,55749,0,"SVS_G5ss",85
Sample,55749,0,"SVF_G5ss",85
Sample,56122,0,"SVL_A5s",85
Sample,56122,0,"SVF_A5s",85
Sample,56122,0,"SVS_A5s",85
Sample,57240,0,"SVL_B5ss",85
Sample,57240,0,"SVS_B5ss",85
Sample,57240,0,"SVF_B5ss",85
Sample,57985,0,"SVL_F#5ss",85
Sample,57985,0,"SVF_F#5ss",85
Sample,57985,0,"SVS_F#5ss",85
Sample,58358,0,"SVL_G5s",85
Sample,58358,0,"SVS_G5s",85
Sample,58358,0,"SVF_G5s",85
Sample,59476,0,"SVL_B5ss",85
Sample,59476,0,"SVF_B5ss",85
Sample,59476,0,"SVS_B5ss",85
Sample,60221,0,"SVL_F#5ss",85
Sample,60221,0,"SVS_F#5ss",85
Sample,60221,0,"SVF_F#5ss",85
Sample,60594,0,"SVL_G5s",85
Sample,60594,0,"SVF_G5s",85
Sample,60594,0,"SVS_G5s",85
Sample,61712,0,"SVL_B5ss",85
Sample,61712,0,"SVS_B5ss",85
Sample,61712,0,"SVF_B5ss",85
Sample,62458,0,"LR_NBell_E6",85
Sample,62458,0,"SVF_E6ss",85
Sample,62458,0,"SVS_E6ss",85
Sample,62458,0,"SVL_E6ss",85
Sample,62830,0,"LR_NBell_E6",85
Sample,62830,0,"SVF_E6s",85
Sample,62830,0,"SVS_E6s",85
Sample,62830,0,"SVL_E6s",85
Sample,63576,0,"SVL_C6sss",85
Sample,63576,0,"SVF_C6sss",85
Sample,63576,0,"SVS_C6sss",85
Sample,63762,0,"SVL_D6ss",85
Sample,63762,0,"SVS_D6ss",85
Sample,63762,0,"SVF_D6ss",85
Sample,63948,0,"SVL_E6ss",85
Sample,63948,0,"SVF_E6ss",85
Sample,63948,0,"SVS_E6ss",85
Sample,64321,0,"SVL_F#6ss",85
Sample,64321,0,"SVS_F#6ss",85
Sample,64321,0,"SVF_F#6ss",85
Sample,64694,0,"SVL_G6ss",85
Sample,64694,0,"SVF_G6ss",85
Sample,64694,0,"SVS_G6ss",85
Sample,65066,0,"SVS_G6ss",85
Sample,65066,0,"SVF_G6ss",85
Sample,65066,0,"SVL_G6ss",85
Sample,65812,0,"SVL_B5sss",85
Sample,65812,0,"SVF_B5sss",85
Sample,65812,0,"SVS_B5sss",85
Sample,65998,0,"SVL_F#6ss",85
Sample,65998,0,"SVS_F#6ss",85
Sample,65998,0,"SVF_F#6ss",85
Sample,66184,0,"SVF_G6ss",85
Sample,66184,0,"SVS_G6ss",85
Sample,66184,0,"SVL_G6ss",85
Sample,66557,0,"SVL_A6ss",85
Sample,66557,0,"SVS_A6ss",85
Sample,66557,0,"SVF_A6ss",85
Sample,66930,0,"SVL_B6ss",85
Sample,66930,0,"SVF_B6ss",85
Sample,66930,0,"SVS_B6ss",85
Sample,67302,0,"SVL_B6s",85
Sample,67302,0,"SVS_B6s",85
Sample,67302,0,"SVF_B6s",85
Sample,68420,0,"SVL_A6ss",85
Sample,68420,0,"SVF_A6ss",85
Sample,68420,0,"SVS_A6ss",85
Sample,68793,0,"SVS_G6ss",85
Sample,68793,0,"SVF_G6ss",85
Sample,68793,0,"SVL_G6ss",85
Sample,69166,0,"SVL_F#6ss",85
Sample,69166,0,"SVF_F#6ss",85
Sample,69166,0,"SVS_F#6ss",85
Sample,69538,0,"SVL_E6ss",85
Sample,69538,0,"SVS_E6ss",85
Sample,69538,0,"SVF_E6ss",85
Sample,69911,0,"SVL_D#6ss",85
Sample,69911,0,"SVF_D#6ss",85
Sample,69911,0,"SVS_D#6ss",85
Sample,70284,0,"SVL_E6ss",85
Sample,70284,0,"SVS_E6ss",85
Sample,70284,0,"SVF_E6ss",85
Sample,70656,0,"LR_NBell_D#6sss",85
Sample,70656,0,"SVF_D#6sss",85
Sample,70656,0,"SVS_D#6sss",85
Sample,70656,0,"SVL_D#6sss",85
Sample,70843,0,"LR_NBell_B5sss",85
Sample,70843,0,"SVF_B5sss",85
Sample,70843,0,"SVS_B5sss",85
Sample,70843,0,"SVL_B5sss",85
Sample,71029,0,"LR_NBell_A5sss",85
Sample,71029,0,"SVF_A5sss",85
Sample,71029,0,"SVS_A5sss",85
Sample,71029,0,"SVL_A5sss",85
Sample,71215,0,"LR_NBell_G5sss",85
Sample,71215,0,"SVF_G5sss",85
Sample,71215,0,"SVS_G5sss",85
Sample,71215,0,"SVL_G5sss",85
Sample,71402,0,"LR_NBell_F#5sss",85
Sample,71402,0,"SVF_F#5sss",85
Sample,71402,0,"SVS_F#5sss",85
Sample,71402,0,"SVL_F#5sss",85
Sample,71588,0,"LR_NBell_D#5sss",85
Sample,71588,0,"SVF_D#5sss",85
Sample,71588,0,"SVS_D#5sss",85
Sample,71588,0,"SVL_D#5sss",85
Sample,71774,0,"SVL_B4s",85
Sample,71774,0,"SVF_B4s",85
Sample,71774,0,"SVS_B4s",85
Sample,72892,0,"SVL_B4ss",85
Sample,72892,0,"SVS_B4ss",85
Sample,72892,0,"SVF_B4ss",85
Sample,73265,0,"SVL_F#5ss",85
Sample,73265,0,"SVF_F#5ss",85
Sample,73265,0,"SVS_F#5ss",85
Sample,73638,0,"SVL_G5ss",85
Sample,73638,0,"SVS_G5ss",85
Sample,73638,0,"SVF_G5ss",85
Sample,74010,0,"SVL_A5s",85
Sample,74010,0,"SVF_A5s",85
Sample,74010,0,"SVS_A5s",85
Sample,75128,0,"SVL_B5ss",85
Sample,75128,0,"SVS_B5ss",85
Sample,75128,0,"SVF_B5ss",85
Sample,75874,0,"SVL_F#5ss",85
Sample,75874,0,"SVF_F#5ss",85
Sample,75874,0,"SVS_F#5ss",85
Sample,76246,0,"SVL_G5s",85
Sample,76246,0,"SVS_G5s",85
Sample,76246,0,"SVF_G5s",85
Sample,77364,0,"SVL_B5ss",85
Sample,77364,0,"SVF_B5ss",85
Sample,77364,0,"SVS_B5ss",85
Sample,78110,0,"SVL_F#5ss",85
Sample,78110,0,"SVS_F#5ss",85
Sample,78110,0,"SVF_F#5ss",85
Sample,78482,0,"SVL_G5s",85
Sample,78482,0,"SVF_G5s",85
Sample,78482,0,"SVS_G5s",85
Sample,79600,0,"SVL_B5ss",85
Sample,79600,0,"SVS_B5ss",85
Sample,79600,0,"SVF_B5ss",85
Sample,80346,0,"LR_NBell_E6",85
Sample,80346,0,"SVF_E6ss",85
Sample,80346,0,"SVS_E6ss",85
Sample,80346,0,"SVL_E6ss",85
Sample,80718,0,"LR_NBell_E6",85
Sample,80718,0,"SVF_E6s",85
Sample,80718,0,"SVS_E6s",85
Sample,80718,0,"SVL_E6s",85
Sample,81464,0,"SVL_B4sss",85
Sample,81464,0,"SVF_B4sss",85
Sample,81464,0,"SVS_B4sss",85
Sample,81650,0,"SVL_E5ss",85
Sample,81650,0,"SVS_E5ss",85
Sample,81650,0,"SVF_E5ss",85
Sample,81836,0,"SVL_F#5ss",85
Sample,81836,0,"SVF_F#5ss",85
Sample,81836,0,"SVS_F#5ss",85
Sample,82209,0,"SVL_G5ss",85
Sample,82209,0,"SVS_G5ss",85
Sample,82209,0,"SVF_G5ss",85
Sample,82582,0,"SVL_B5ss",85
Sample,82582,0,"SVF_B5ss",85
Sample,82582,0,"SVS_B5ss",85
Sample,82954,0,"SVL_E6s",85
Sample,82954,0,"SVS_E6s",85
Sample,82954,0,"SVF_E6s",85
Sample,83700,0,"SVL_B4ss",85
Sample,83700,0,"SVF_B4ss",85
Sample,83700,0,"SVS_B4ss",85
Sample,84072,0,"SVL_E5ss",85
Sample,84072,0,"SVL_E5ss",85
Sample,84072,0,"SVL_E5ss",85
Sample,84445,0,"SVL_F#5ss",85
Sample,84445,0,"SVF_F#5ss",85
Sample,84445,0,"SVS_F#5ss",85
Sample,84818,0,"SVL_G5ss",85
Sample,84818,0,"SVS_G5ss",85
Sample,84818,0,"SVF_G5ss",85
Sample,85190,0,"SVL_A5ss",85
Sample,85190,0,"SVF_A5ss",85
Sample,85190,0,"SVS_A5ss",85
Sample,86308,0,"SVL_G5ss",85
Sample,86308,0,"SVS_G5ss",85
Sample,86308,0,"SVF_G5ss",85
Sample,86681,0,"SVL_F#5ss",85
Sample,86681,0,"SVF_F#5ss",85
Sample,86681,0,"SVS_F#5ss",85
Sample,87054,0,"SVL_E5ss",85
Sample,87054,0,"SVS_E5ss",85
Sample,87054,0,"SVF_E5ss",85
Sample,87426,0,"SVL_D#5ss",85
Sample,87426,0,"SVF_D#5ss",85
Sample,87426,0,"SVS_D#5ss",85
Sample,87799,0,"SVL_B4sss",85
Sample,87799,0,"SVS_B4sss",85
Sample,87799,0,"SVF_B4sss",85
Sample,87799,0,"LR_NBell_B4sss",85
Sample,87985,0,"SVL_A4sss",85
Sample,87985,0,"SVS_A4sss",85
Sample,87985,0,"SVF_A4sss",85
Sample,87985,0,"LR_NBell_A4sss",85
Sample,88172,0,"SVL_G4sss",85
Sample,88172,0,"SVS_G4sss",85
Sample,88172,0,"SVF_G4sss",85
Sample,88172,0,"LR_NBell_G4sss",85
Sample,88544,0,"SVL_F#4ss",85
Sample,88544,0,"SVS_F#4ss",85
Sample,88544,0,"SVF_F#4ss",85
Sample,88544,0,"LR_NBell_F#4sss",85
Sample,89662,0,"SVL_E5s",85
Sample,89662,0,"SVS_E5s",85
Sample,89662,0,"SVF_E5s",85

[TimingPoints]
222,372.670807453416,3,1,15,60,1,0
1712,-100,3,1,2,70,0,0
2085,-100,3,1,3,70,0,0
2458,-100,3,1,4,70,0,0
3576,-100,3,1,5,70,0,0
4321,-100,3,1,2,70,0,0
4694,-100,3,1,3,70,0,0
5812,-100,3,1,5,70,0,0
6557,-100,3,1,2,70,0,0
6930,-100,3,1,3,70,0,0
8048,-100,3,1,5,70,0,0
8793,-100,3,1,6,70,0,0
9911,-100,3,1,7,70,0,0
10097,-100,3,1,8,70,0,0
10284,-100,3,1,6,70,0,0
10656,-100,3,1,9,70,0,0
11029,-100,3,1,10,70,0,0
12147,-100,3,1,5,70,0,0
12333,-100,3,1,9,70,0,0
12520,-100,3,1,10,70,0,0
12892,-100,3,1,11,70,0,0
13265,-100,3,1,12,70,0,0
14756,-100,3,1,11,70,0,0
15128,-100,3,1,10,70,0,0
15501,-100,3,1,9,70,0,0
15874,-100,3,1,6,70,0,0
16246,-100,3,1,13,70,0,0
16619,-100,3,1,6,70,0,0
16992,-100,3,1,13,70,0,0
17178,-100,3,1,5,70,0,0
17364,-100,3,1,4,70,0,0
17551,-100,3,1,3,70,0,0
17737,-100,3,1,2,70,0,0
17830,-100,3,1,1,70,0,0
17923,-100,3,1,14,70,0,0
18017,-100,3,1,2,70,0,0
18110,-100,3,1,15,70,0,0
18296,-100,3,1,1,70,0,0
19228,-100,3,1,15,70,0,0
19414,-100,3,1,1,70,0,0
19600,-100,3,1,2,70,0,0
19787,-100,3,1,1,70,0,0
19973,-100,3,1,3,70,0,0
20159,-100,3,1,1,70,0,0
20346,-100,3,1,4,70,0,0
20532,-100,3,1,1,70,0,0
21464,-100,3,1,5,70,0,0
21650,-100,3,1,1,70,0,0
22209,-100,3,1,2,70,0,0
22395,-100,3,1,1,70,0,0
22582,-100,3,1,3,70,0,0
22768,-100,3,1,1,70,0,0
23700,-100,3,1,5,70,0,0
23886,-100,3,1,1,70,0,0
24445,-100,3,1,2,70,0,0
24631,-100,3,1,1,70,0,0
24818,-100,3,1,3,70,0,0
25004,-100,3,1,1,70,0,0
25936,-100,3,1,5,70,0,0
26122,-100,3,1,1,70,0,0
26681,-100,3,1,6,70,0,0
26867,-100,3,1,1,70,0,0
27054,-100,3,1,6,70,0,0
27240,-100,3,1,1,70,0,0
27799,-100,3,1,15,70,0,0
27985,-100,3,1,16,70,0,0
28171,-100,3,1,2,70,0,0
28358,-100,3,1,1,70,0,0
28544,-100,3,1,3,70,0,0
28731,-100,3,1,1,70,0,0
28917,-100,3,1,5,70,0,0
29103,-100,3,1,1,70,0,0
29289,-100,3,1,6,70,0,0
29476,-100,3,1,1,70,0,0
30035,-100,3,1,15,70,0,0
30221,-100,3,1,1,70,0,0
30407,-100,3,1,16,70,0,0
30594,-100,3,1,1,70,0,0
30780,-100,3,1,2,70,0,0
30967,-100,3,1,1,70,0,0
31153,-100,3,1,3,70,0,0
31340,-100,3,1,1,70,0,0
31525,-100,3,1,4,70,0,0
31712,-100,3,1,1,70,0,0
32643,-100,3,1,3,70,0,0
32830,-100,3,1,1,70,0,0
33016,-100,3,1,2,70,0,0
33203,-100,3,1,1,70,0,0
33389,-100,3,1,16,70,0,0
33576,-100,3,1,1,70,0,0
33762,-100,3,1,14,70,0,0
33855,-100,3,1,1,70,0,0
34134,-100,3,1,15,70,0,0
34320,-100,3,1,20,70,0,0
34507,-100,3,1,17,70,0,0
34694,-100,3,1,1,70,0,0
34879,-100,3,1,19,70,0,0
35066,-100,3,1,1,70,0,0
35997,-100,3,1,21,70,0,0
37116,-100,3,1,22,70,0,0
37488,-100,3,1,23,70,0,0
37861,-100,3,1,24,70,0,0
38234,-100,3,1,25,70,0,0
38606,-100,3,1,28,70,0,0
38979,-100,3,1,27,70,0,0
39352,-100,3,1,26,70,0,0
40097,-100,3,1,30,70,0,0
40470,-100,3,1,21,70,0,0
41588,-100,3,1,22,70,0,0
41960,-100,3,1,31,70,0,0
42333,-100,3,1,32,70,0,0
42706,-100,3,1,29,70,0,0
43824,-100,3,1,1,70,0,0
44942,-100,3,1,33,70,0,0
45315,-100,3,1,1,70,0,0
46060,-100,3,1,34,70,0,0
46432,-100,3,1,35,70,0,0
46619,-100,3,1,1,70,0,0
46805,-100,3,1,31,70,0,0
47178,-100,3,1,32,70,0,0
47550,-100,3,1,38,70,0,0
47923,-100,3,1,37,70,0,0
48110,-100,3,1,1,70,0,0
48296,-100,3,1,36,70,0,0
48669,-100,3,1,1,70,0,0
49041,-100,3,1,40,70,0,0
49228,-100,3,1,1,70,0,0
49414,-100,3,1,33,70,0,0
49787,-100,3,1,1,70,0,0
50532,-100,3,1,34,70,0,0
50904,-100,3,1,41,70,0,0
51277,-100,3,1,42,70,0,0
51464,-100,3,1,1,70,0,0
51650,-100,3,1,39,70,0,0
52023,-100,3,1,1,70,0,0
53141,-100,3,1,43,70,0,0
53234,-100,3,1,44,70,0,0
53327,-100,3,1,45,70,0,0
53420,-100,3,1,46,70,0,0
53513,-100,3,1,47,70,0,0
53607,-100,3,1,48,70,0,0
53700,-100,3,1,49,70,0,0
53793,-100,3,1,50,70,0,0
53886,-100,3,1,47,80,0,1
53979,-100,3,1,46,80,0,1
54072,-100,3,1,45,80,0,1
54166,-100,3,1,46,80,0,1
54259,-100,3,1,44,80,0,1
54352,-100,3,1,46,80,0,1
54445,-100,3,1,43,80,0,1
54538,-100,3,1,51,80,0,1
54631,-100,3,1,52,80,0,1
54725,-100,3,1,51,80,0,1
54818,-100,3,1,53,80,0,1
54911,-100,3,1,51,80,0,1
55004,-100,3,1,54,80,0,1
55097,-100,3,1,53,80,0,1
55190,-100,3,1,51,80,0,1
55284,-100,3,1,52,80,0,1
55377,-100,3,1,53,80,0,1
55470,-100,3,1,43,80,0,1
55563,-100,3,1,51,80,0,1
55656,-100,3,1,43,80,0,1
55749,-100,3,1,44,80,0,1
55843,-100,3,1,45,80,0,1
55936,-100,3,1,46,80,0,1
56029,-100,3,1,45,80,0,1
56122,-100,3,1,55,80,0,1
56215,-100,3,1,46,80,0,1
56308,-100,3,1,45,80,0,1
56402,-100,3,1,44,80,0,1
56495,-100,3,1,55,80,0,1
56588,-100,3,1,44,80,0,1
56681,-100,3,1,56,80,0,1
56774,-100,3,1,51,80,0,1
56867,-100,3,1,52,80,0,1
56961,-100,3,1,53,80,0,1
57054,-100,3,1,56,80,0,1
57147,-100,3,1,55,80,0,1
57240,-100,3,1,57,80,0,1
57333,-100,3,1,52,80,0,1
57426,-100,3,1,51,80,0,1
57520,-100,3,1,52,80,0,1
57613,-100,3,1,51,80,0,1
57706,-100,3,1,56,80,0,1
57799,-100,3,1,55,80,0,1
57892,-100,3,1,45,80,0,1
57985,-100,3,1,46,80,0,1
58079,-100,3,1,58,80,0,1
58172,-100,3,1,59,80,0,1
58265,-100,3,1,58,80,0,1
58358,-100,3,1,60,80,0,1
58451,-100,3,1,58,80,0,1
58544,-100,3,1,46,80,0,1
58638,-100,3,1,45,80,0,1
58731,-100,3,1,61,80,0,1
58824,-100,3,1,56,80,0,1
58917,-100,3,1,51,80,0,1
59010,-100,3,1,52,80,0,1
59103,-100,3,1,51,80,0,1
59197,-100,3,1,52,80,0,1
59290,-100,3,1,62,80,0,1
59383,-100,3,1,56,80,0,1
59476,-100,3,1,52,80,0,1
59569,-100,3,1,51,80,0,1
59662,-100,3,1,56,80,0,1
59756,-100,3,1,61,80,0,1
59849,-100,3,1,56,80,0,1
59942,-100,3,1,61,80,0,1
60035,-100,3,1,45,80,0,1
60128,-100,3,1,46,80,0,1
60221,-100,3,1,58,80,0,1
60315,-100,3,1,60,80,0,1
60408,-100,3,1,46,80,0,1
60501,-100,3,1,60,80,0,1
60594,-100,3,1,65,80,0,1
60687,-100,3,1,58,80,0,1
60781,-100,3,1,46,80,0,1
60874,-100,3,1,45,80,0,1
60967,-100,3,1,44,80,0,1
61060,-100,3,1,56,80,0,1
61153,-100,3,1,51,80,0,1
61246,-100,3,1,52,80,0,1
61340,-100,3,1,64,80,0,1
61433,-100,3,1,56,80,0,1
61526,-100,3,1,51,80,0,1
61619,-100,3,1,56,80,0,1
61712,-100,3,1,63,80,0,1
61805,-100,3,1,51,80,0,1
61899,-100,3,1,56,80,0,1
61992,-100,3,1,63,80,0,1
62085,-100,3,1,45,80,0,1
62178,-100,3,1,46,80,0,1
62271,-100,3,1,58,80,0,1
62364,-100,3,1,45,80,0,1
62458,-100,3,1,46,80,0,1
62551,-100,3,1,58,80,0,1
62644,-100,3,1,65,80,0,1
62737,-100,3,1,58,80,0,1
62830,-100,3,1,66,80,0,1
62923,-100,3,1,47,80,0,1
63017,-100,3,1,58,80,0,1
63110,-100,3,1,46,80,0,1
63203,-100,3,1,47,80,0,1
63296,-100,3,1,58,80,0,1
63389,-100,3,1,46,80,0,1
63482,-100,3,1,67,80,0,1
63576,-100,3,1,58,80,0,1
63669,-100,3,1,46,80,0,1
63762,-100,3,1,67,80,0,1
63855,-100,3,1,43,80,0,1
63948,-100,3,1,67,80,0,1
64041,-100,3,1,43,80,0,1
64135,-100,3,1,56,80,0,1
64228,-100,3,1,51,80,0,1
64321,-100,3,1,43,80,0,1
64414,-100,3,1,56,80,0,1
64507,-100,3,1,51,80,0,1
64600,-100,3,1,68,80,0,1
64694,-100,3,1,56,80,0,1
64787,-100,3,1,51,80,0,1
64880,-100,3,1,68,80,0,1
64973,-100,3,1,54,80,0,1
65066,-100,3,1,51,80,0,1
65159,-100,3,1,53,80,0,1
65253,-100,3,1,54,80,0,1
65346,-100,3,1,51,80,0,1
65439,-100,3,1,53,80,0,1
65532,-100,3,1,54,80,0,1
65625,-100,3,1,51,80,0,1
65718,-100,3,1,53,80,0,1
65812,-100,3,1,54,80,0,1
65905,-100,3,1,51,80,0,1
65998,-100,3,1,54,80,0,1
66091,-100,3,1,51,80,0,1
66184,-100,3,1,53,80,0,1
66277,-100,3,1,56,80,0,1
66371,-100,3,1,52,80,0,1
66464,-100,3,1,43,80,0,1
66557,-100,3,1,51,80,0,1
66650,-100,3,1,44,80,0,1
66743,-100,3,1,46,80,0,1
66836,-100,3,1,44,80,0,1
66930,-100,3,1,56,80,0,1
67023,-100,3,1,44,80,0,1
67116,-100,3,1,43,80,0,1
67209,-100,3,1,46,80,0,1
67302,-100,3,1,43,80,0,1
67395,-100,3,1,67,80,0,1
67489,-100,3,1,43,80,0,1
67582,-100,3,1,44,80,0,1
67675,-100,3,1,43,80,0,1
67768,-100,3,1,45,80,0,1
67861,-100,3,1,60,80,0,1
67954,-100,3,1,47,80,0,1
68048,-100,3,1,66,80,0,1
68141,-100,3,1,47,80,0,1
68234,-100,3,1,48,80,0,1
68327,-100,3,1,47,80,0,1
68420,-100,3,1,49,80,0,1
68513,-100,3,1,47,80,0,1
68607,-100,3,1,66,80,0,1
68700,-100,3,1,47,80,0,1
68793,-100,3,1,66,80,0,1
68886,-100,3,1,44,80,0,1
68979,-100,3,1,43,80,0,1
69166,-100,3,1,52,80,0,1
69259,-100,3,1,53,80,0,1
69352,-100,3,1,68,80,0,1
69445,-100,3,1,54,80,0,1
69538,-100,3,1,57,80,0,1
69631,-100,3,1,53,80,0,1
69725,-100,3,1,56,80,0,1
69818,-100,3,1,57,80,0,1
69911,-100,3,1,53,80,0,1
70004,-100,3,1,56,80,0,1
70097,-100,3,1,57,80,0,1
70190,-100,3,1,53,80,0,1
70284,-100,3,1,56,80,0,1
70377,-100,3,1,55,80,0,1
70470,-100,3,1,45,80,0,1
70563,-100,3,1,56,80,0,1
70656,-100,3,1,55,80,0,1
70749,-100,3,1,45,80,0,1
70843,-100,3,1,56,80,0,1
70936,-100,3,1,55,80,0,1
71029,-100,3,1,45,80,0,1
71122,-100,3,1,58,80,0,1
71215,-100,3,1,59,80,0,1
71308,-100,3,1,48,80,0,1
71402,-100,3,1,58,80,0,1
71495,-100,3,1,59,80,0,1
71588,-100,3,1,48,80,0,1
71681,-100,3,1,59,80,0,1
71774,-100,3,1,47,80,0,1
71867,-100,3,1,46,80,0,1
71960,-100,3,1,45,80,0,1
72054,-100,3,1,46,80,0,1
72147,-100,3,1,44,80,0,1
72240,-100,3,1,46,80,0,1
72333,-100,3,1,43,80,0,1
72426,-100,3,1,51,80,0,1
72519,-100,3,1,52,80,0,1
72613,-100,3,1,51,80,0,1
72706,-100,3,1,53,80,0,1
72799,-100,3,1,51,80,0,1
72892,-100,3,1,54,80,0,1
72985,-100,3,1,53,80,0,1
73078,-100,3,1,51,80,0,1
73172,-100,3,1,52,80,0,1
73265,-100,3,1,53,80,0,1
73358,-100,3,1,43,80,0,1
73451,-100,3,1,51,80,0,1
73544,-100,3,1,43,80,0,1
73637,-100,3,1,44,80,0,1
73731,-100,3,1,45,80,0,1
73824,-100,3,1,46,80,0,1
73917,-100,3,1,45,80,0,1
74010,-100,3,1,55,80,0,1
74103,-100,3,1,46,80,0,1
74196,-100,3,1,45,80,0,1
74290,-100,3,1,44,80,0,1
74383,-100,3,1,55,80,0,1
74476,-100,3,1,44,80,0,1
74569,-100,3,1,56,80,0,1
74662,-100,3,1,51,80,0,1
74755,-100,3,1,52,80,0,1
74849,-100,3,1,53,80,0,1
74942,-100,3,1,56,80,0,1
75035,-100,3,1,55,80,0,1
75128,-100,3,1,57,80,0,1
75221,-100,3,1,52,80,0,1
75314,-100,3,1,51,80,0,1
75408,-100,3,1,52,80,0,1
75501,-100,3,1,51,80,0,1
75594,-100,3,1,56,80,0,1
75687,-100,3,1,55,80,0,1
75780,-100,3,1,45,80,0,1
75873,-100,3,1,46,80,0,1
75967,-100,3,1,58,80,0,1
76060,-100,3,1,59,80,0,1
76153,-100,3,1,58,80,0,1
76246,-100,3,1,60,80,0,1
76339,-100,3,1,58,80,0,1
76432,-100,3,1,46,80,0,1
76526,-100,3,1,45,80,0,1
76619,-100,3,1,61,80,0,1
76712,-100,3,1,56,80,0,1
76805,-100,3,1,51,80,0,1
76898,-100,3,1,52,80,0,1
76991,-100,3,1,51,80,0,1
77085,-100,3,1,52,80,0,1
77178,-100,3,1,62,80,0,1
77271,-100,3,1,56,80,0,1
77364,-100,3,1,52,80,0,1
77457,-100,3,1,51,80,0,1
77550,-100,3,1,56,80,0,1
77644,-100,3,1,61,80,0,1
77737,-100,3,1,56,80,0,1
77830,-100,3,1,61,80,0,1
77923,-100,3,1,45,80,0,1
78016,-100,3,1,46,80,0,1
78109,-100,3,1,58,80,0,1
78203,-100,3,1,60,80,0,1
78296,-100,3,1,46,80,0,1
78389,-100,3,1,60,80,0,1
78482,-100,3,1,65,80,0,1
78575,-100,3,1,58,80,0,1
78669,-100,3,1,46,80,0,1
78762,-100,3,1,45,80,0,1
78855,-100,3,1,44,80,0,1
78948,-100,3,1,56,80,0,1
79041,-100,3,1,51,80,0,1
79134,-100,3,1,52,80,0,1
79228,-100,3,1,64,80,0,1
79321,-100,3,1,56,80,0,1
79414,-100,3,1,51,80,0,1
79507,-100,3,1,56,80,0,1
79600,-100,3,1,63,80,0,1
79693,-100,3,1,51,80,0,1
79787,-100,3,1,56,80,0,1
79880,-100,3,1,63,80,0,1
79973,-100,3,1,45,80,0,1
80066,-100,3,1,46,80,0,1
80159,-100,3,1,58,80,0,1
80252,-100,3,1,45,80,0,1
80346,-100,3,1,46,80,0,1
80439,-100,3,1,58,80,0,1
80532,-100,3,1,65,80,0,1
80625,-100,3,1,58,80,0,1
80718,-100,3,1,66,80,0,1
80811,-100,3,1,47,80,0,1
80905,-100,3,1,58,80,0,1
80998,-100,3,1,46,80,0,1
81091,-100,3,1,47,80,0,1
81184,-100,3,1,58,80,0,1
81277,-100,3,1,46,80,0,1
81370,-100,3,1,67,80,0,1
81464,-100,3,1,58,80,0,1
81557,-100,3,1,46,80,0,1
81650,-100,3,1,67,80,0,1
81743,-100,3,1,43,80,0,1
81836,-100,3,1,67,80,0,1
81929,-100,3,1,43,80,0,1
82023,-100,3,1,56,80,0,1
82116,-100,3,1,51,80,0,1
82209,-100,3,1,43,80,0,1
82302,-100,3,1,56,80,0,1
82395,-100,3,1,51,80,0,1
82488,-100,3,1,68,80,0,1
82582,-100,3,1,56,80,0,1
82675,-100,3,1,51,80,0,1
82768,-100,3,1,68,80,0,1
82861,-100,3,1,54,80,0,1
82954,-100,3,1,51,80,0,1
83047,-100,3,1,53,80,0,1
83141,-100,3,1,54,80,0,1
83234,-100,3,1,51,80,0,1
83327,-100,3,1,53,80,0,1
83420,-100,3,1,54,80,0,1
83513,-100,3,1,51,80,0,1
83606,-100,3,1,53,80,0,1
83700,-100,3,1,54,80,0,1
83793,-100,3,1,51,80,0,1
83886,-100,3,1,54,80,0,1
83979,-100,3,1,51,80,0,1
84072,-100,3,1,53,80,0,1
84165,-100,3,1,56,80,0,1
84259,-100,3,1,52,80,0,1
84352,-100,3,1,43,80,0,1
84445,-100,3,1,51,80,0,1
84538,-100,3,1,44,80,0,1
84631,-100,3,1,46,80,0,1
84724,-100,3,1,44,80,0,1
84818,-100,3,1,56,80,0,1
84911,-100,3,1,44,80,0,1
85004,-100,3,1,43,80,0,1
85097,-100,3,1,46,80,0,1
85190,-100,3,1,43,80,0,1
85283,-100,3,1,67,80,0,1
85377,-100,3,1,43,80,0,1
85470,-100,3,1,44,80,0,1
85563,-100,3,1,43,80,0,1
85656,-100,3,1,45,80,0,1
85749,-100,3,1,60,80,0,1
85842,-100,3,1,47,80,0,1
85936,-100,3,1,66,80,0,1
86029,-100,3,1,47,80,0,1
86122,-100,3,1,48,80,0,1
86215,-100,3,1,47,80,0,1
86308,-100,3,1,49,80,0,1
86401,-100,3,1,47,80,0,1
86495,-100,3,1,66,80,0,1
86588,-100,3,1,47,80,0,1
86681,-100,3,1,66,80,0,1
86774,-100,3,1,44,80,0,1
86867,-100,3,1,43,80,0,1
87054,-100,3,1,52,80,0,1
87147,-100,3,1,53,80,0,1
87240,-100,3,1,68,80,0,1
87333,-100,3,1,54,80,0,1
87426,-100,3,1,57,80,0,1
87519,-100,3,1,53,80,0,1
87613,-100,3,1,56,80,0,1
87706,-100,3,1,57,80,0,1
87799,-100,3,1,53,80,0,1
87892,-100,3,1,56,80,0,1
87985,-100,3,1,57,80,0,1
88078,-100,3,1,53,80,0,1
88172,-100,3,1,56,80,0,1
88265,-100,3,1,55,80,0,1
88358,-100,3,1,45,80,0,1
88451,-100,3,1,56,80,0,1
88544,-100,3,1,55,80,0,1
88637,-100,3,1,45,80,0,1
88731,-100,3,1,56,80,0,1
88824,-100,3,1,55,80,0,1
88917,-100,3,1,45,80,0,1
89010,-100,3,1,58,80,0,1
89103,-100,3,1,59,80,0,1
89166,-100,3,1,48,80,0,1
89228,-100,3,1,49,80,0,1
89290,-100,3,1,48,80,0,1
89352,-100,3,1,49,80,0,1
89414,-100,3,1,69,80,0,1
89476,-100,3,1,70,80,0,1
89569,-100,3,1,59,80,0,1
89662,-100,3,1,1,70,0,0
90781,-100,3,1,22,70,0,0
91153,-100,3,1,23,70,0,0
91433,-100,3,1,1,70,0,0
91526,-100,3,1,24,70,0,0
91712,-100,3,1,1,70,0,0
91899,-100,3,1,25,70,0,0
92271,-100,3,1,28,70,0,0
92644,-100,3,1,27,70,0,0
92830,-100,3,1,1,70,0,0
93017,-100,3,1,26,70,0,0
93389,-100,3,1,1,70,0,0
93762,-100,3,1,30,70,0,0
93948,-100,3,1,1,70,0,0
94135,-100,3,1,21,70,0,0
94507,-100,3,1,1,70,0,0
95253,-100,3,1,22,70,0,0
95625,-100,3,1,31,70,0,0
95905,-100,3,1,1,70,0,0
95998,-100,3,1,32,70,0,0
96184,-100,3,1,1,70,0,0
96371,-100,3,1,29,70,0,0
96743,-100,3,1,1,70,0,0
98607,-100,3,1,33,70,0,0
98793,-100,3,1,1,70,0,0
99725,-100,3,1,34,70,0,0
99911,-100,3,1,1,70,0,0
100097,-100,3,1,35,70,0,0
100284,-100,3,1,1,70,0,0
100470,-100,3,1,31,70,0,0
100656,-100,3,1,1,70,0,0
100843,-100,3,1,32,70,0,0
101029,-100,3,1,1,70,0,0
101215,-100,3,1,38,70,0,0
101402,-100,3,1,1,70,0,0
101588,-100,3,1,37,70,0,0
101774,-100,3,1,1,70,0,0
101961,-100,3,1,36,70,0,0
102147,-100,3,1,1,70,0,0
102706,-100,3,1,40,70,0,0
102892,-100,3,1,1,70,0,0
103079,-100,3,1,33,70,0,0
103265,-100,3,1,1,70,0,0
104197,-100,3,1,34,70,0,0
104383,-100,3,1,1,70,0,0
104569,-100,3,1,41,70,0,0
104756,-100,3,1,1,70,0,0
104942,-100,3,1,42,70,0,0
105128,-100,3,1,1,70,0,0
105315,-100,3,1,39,70,0,0
105501,-100,3,1,1,70,0,0
106805,-100,3,1,43,70,0,0
106899,-100,3,1,44,70,0,0
106992,-100,3,1,45,70,0,0
107085,-100,3,1,46,70,0,0
107178,-100,3,1,47,70,0,0
107364,-100,3,1,49,70,0,0
107551,-100,3,1,15,70,0,0

[Colours]
Combo1 : 34,255,34
Combo2 : 255,86,21
Combo3 : 53,140,250
Combo4 : 255,0,1
Combo5 : 0,213,106

[HitObjects]
256,192,222,5,12,0:0:0:0:
256,96,1340,1,0,0:0:0:0:
160,192,1712,1,8,0:0:0:0:
256,288,2085,1,0,0:0:0:0:
352,192,2458,1,8,0:0:0:0:
256,192,3576,1,8,0:0:0:0:
352,192,4321,1,0,0:0:0:0:
160,192,4694,1,8,0:0:0:0:
256,192,5812,1,8,0:0:0:0:
256,288,6557,1,0,0:0:0:0:
256,96,6930,1,8,0:0:0:0:
256,192,8048,1,8,0:0:0:0:
352,288,8793,1,8,0:0:0:0:
160,96,9166,5,12,0:0:0:0:
160,96,9911,1,0,0:0:0:0:
256,192,10097,1,8,0:0:0:0:
352,288,10284,1,8,0:0:0:0:
352,96,10656,1,8,0:0:0:0:
160,288,11029,1,0,0:0:0:0:
352,96,11402,1,8,0:0:0:0:
352,96,12147,1,0,0:0:0:0:
256,192,12333,1,8,0:0:0:0:
160,288,12520,1,8,0:0:0:0:
160,96,12892,1,8,0:0:0:0:
352,288,13265,1,0,0:0:0:0:
160,96,13638,1,8,0:0:0:0:
256,0,14756,1,8,0:0:0:0:
256,192,15128,1,8,0:0:0:0:
256,384,15501,1,0,0:0:0:0:
64,192,15874,1,8,0:0:0:0:
448,192,16246,1,0,0:0:0:0:
256,0,16619,1,8,0:0:0:0:
256,0,16992,1,8,0:0:0:0:
256,96,17178,1,0,0:0:0:0:
256,192,17364,1,8,0:0:0:0:
256,288,17551,1,0,0:0:0:0:
256,384,17737,1,8,0:0:0:0:
224,384,17830,1,0,0:0:0:0:
192,384,17923,1,8,0:0:0:0:
160,384,18017,1,0,0:0:0:0:
128,384,18110,53,8,0:0:0:0:
32,288,18296,1,0,0:0:0:0:
32,288,18669,1,0,0:0:0:0:
32,288,19041,1,0,0:0:0:0:
128,288,19228,1,8,0:0:0:0:
32,384,19414,1,0,0:0:0:0:
32,192,19600,1,8,0:0:0:0:
128,288,19787,1,0,0:0:0:0:
128,192,19973,1,8,0:0:0:0:
32,288,20159,1,0,0:0:0:0:
32,96,20346,5,8,0:0:0:0:
128,192,20532,1,0,0:0:0:0:
128,192,20905,1,0,0:0:0:0:
128,192,21277,1,0,0:0:0:0:
128,0,21464,1,8,0:0:0:0:
128,96,21650,1,0,0:0:0:0:
128,96,22023,1,0,0:0:0:0:
224,0,22209,1,8,0:0:0:0:
320,96,22395,1,0,0:0:0:0:
224,0,22582,53,8,0:0:0:0:
416,0,22768,1,0,0:0:0:0:
416,0,23141,1,0,0:0:0:0:
416,0,23513,1,0,0:0:0:0:
416,192,23700,1,8,0:0:0:0:
416,96,23886,1,0,0:0:0:0:
416,96,24259,1,0,0:0:0:0:
512,192,24445,1,8,0:0:0:0:
416,288,24631,1,0,0:0:0:0:
320,192,24818,5,8,0:0:0:0:
416,192,25004,1,0,0:0:0:0:
416,192,25377,1,0,0:0:0:0:
416,192,25749,1,0,0:0:0:0:
320,288,25936,1,8,0:0:0:0:
320,96,26122,1,0,0:0:0:0:
320,96,26495,1,0,0:0:0:0:
320,192,26681,1,8,0:0:0:0:
416,96,26867,1,0,0:0:0:0:
416,288,27054,53,8,0:0:0:0:
320,192,27240,1,0,0:0:0:0:
320,192,27613,1,0,0:0:0:0:
416,288,27799,1,8,0:0:0:0:
320,384,27985,1,8,0:0:0:0:
320,288,28172,1,8,0:0:0:0:
224,192,28358,1,0,0:0:0:0:
224,288,28544,1,8,0:0:0:0:
128,384,28731,1,0,0:0:0:0:
128,288,28917,1,8,0:0:0:0:
32,192,29103,1,0,0:0:0:0:
32,288,29290,5,8,0:0:0:0:
128,96,29476,1,0,0:0:0:0:
128,96,29849,1,0,0:0:0:0:
224,96,30035,1,8,0:0:0:0:
128,192,30221,1,0,0:0:0:0:
320,192,30408,1,8,0:0:0:0:
224,192,30594,1,0,0:0:0:0:
320,192,30780,1,8,0:0:0:0:
224,96,30966,1,0,0:0:0:0:
416,96,31153,1,8,0:0:0:0:
320,96,31340,1,0,0:0:0:0:
416,96,31526,53,8,0:0:0:0:
320,192,31712,1,0,0:0:0:0:
320,192,32085,1,0,0:0:0:0:
320,192,32458,1,0,0:0:0:0:
320,96,32644,1,8,0:0:0:0:
256,32,32830,1,0,0:0:0:0:
192,96,33017,1,8,0:0:0:0:
320,192,33203,1,0,0:0:0:0:
192,288,33389,1,8,0:0:0:0:
128,192,33576,1,0,0:0:0:0:
256,384,33762,5,8,0:0:0:0:
288,384,33855,1,0,0:0:0:0:
320,384,33949,1,0,0:0:0:0:
352,384,34041,1,0,0:0:0:0:
384,384,34135,1,8,0:0:0:0:
384,256,34321,1,8,0:0:0:0:
512,256,34507,1,8,0:0:0:0:
384,128,34694,1,0,0:0:0:0:
512,128,34880,1,8,0:0:0:0:
384,256,35066,1,0,0:0:0:0:
256,256,35253,1,0,0:0:0:0:
256,224,35346,1,0,0:0:0:0:
256,192,35439,1,0,0:0:0:0:
256,160,35532,1,0,0:0:0:0:
256,128,35625,1,0,0:0:0:0:
256,96,35718,1,0,0:0:0:0:
256,64,35812,1,0,0:0:0:0:
256,32,35905,1,0,0:0:0:0:
256,0,35998,53,12,0:0:0:0:
256,0,37116,1,8,0:0:0:0:
256,192,37489,1,8,0:0:0:0:
256,384,37861,1,0,0:0:0:0:
64,192,38234,1,8,0:0:0:0:
256,192,38607,1,0,0:0:0:0:
448,192,38979,1,8,0:0:0:0:
256,0,39352,1,0,0:0:0:0:
256,192,40097,1,8,0:0:0:0:
256,192,40470,5,12,0:0:0:0:
64,0,41588,1,12,0:0:0:0:
448,384,41961,1,8,0:0:0:0:
448,0,42333,1,0,0:0:0:0:
64,384,42706,1,12,0:0:0:0:
256,192,43824,1,8,0:0:0:0:
256,192,44197,1,8,0:0:0:0:
256,160,44290,1,8,0:0:0:0:
256,128,44383,1,8,0:0:0:0:
256,96,44476,1,8,0:0:0:0:
256,64,44569,1,8,0:0:0:0:
352,0,44756,1,8,0:0:0:0:
160,0,44942,53,12,0:0:0:0:
160,0,45315,1,0,0:0:0:0:
160,0,45687,1,0,0:0:0:0:
64,0,45874,1,0,0:0:0:0:
160,96,46060,1,8,0:0:0:0:
160,96,46433,1,8,0:0:0:0:
160,224,46619,1,0,0:0:0:0:
160,256,46712,1,0,0:0:0:0:
160,288,46805,1,0,0:0:0:0:
256,160,46992,1,0,0:0:0:0:
64,160,47178,5,8,0:0:0:0:
64,160,47551,1,8,0:0:0:0:
64,160,47923,1,0,0:0:0:0:
256,160,48110,1,0,0:0:0:0:
448,160,48296,1,8,0:0:0:0:
448,160,48669,1,0,0:0:0:0:
352,224,48855,1,0,0:0:0:0:
352,256,48948,1,0,0:0:0:0:
352,288,49041,1,8,0:0:0:0:
448,160,49228,1,0,0:0:0:0:
256,160,49414,53,12,0:0:0:0:
256,160,49787,1,0,0:0:0:0:
256,160,50159,1,0,0:0:0:0:
256,288,50346,1,0,0:0:0:0:
256,32,50532,1,12,0:0:0:0:
256,352,50905,1,8,0:0:0:0:
256,32,51277,1,8,0:0:0:0:
256,192,51464,1,0,0:0:0:0:
256,352,51650,5,12,0:0:0:0:
256,352,52023,1,0,0:0:0:0:
256,352,52395,1,0,0:0:0:0:
256,352,52768,1,0,0:0:0:0:
256,352,53141,1,8,0:0:0:0:
288,352,53234,1,0,0:0:0:0:
320,352,53327,1,8,0:0:0:0:
320,320,53420,1,0,0:0:0:0:
320,288,53513,1,8,0:0:0:0:
288,288,53607,1,0,0:0:0:0:
256,288,53700,1,8,0:0:0:0:
256,320,53793,1,0,0:0:0:0:
256,351,53886,21,8,0:0:0:0:
227,333,53979,1,8,0:0:0:0:
204,308,54073,1,0,0:0:0:0:
189,279,54166,1,0,0:0:0:0:
183,246,54259,1,8,0:0:0:0:
186,213,54352,1,0,0:0:0:0:
199,182,54445,1,8,0:0:0:0:
224,159,54538,1,8,0:0:0:0:
256,152,54632,1,8,0:0:0:0:
287,164,54725,1,0,0:0:0:0:
309,189,54818,1,8,0:0:0:0:
308,222,54911,1,0,0:0:0:0:
283,244,55004,5,8,0:0:0:0:
298,248,55097,1,8,0:0:0:0:
313,252,55191,1,0,0:0:0:0:
328,255,55284,1,8,0:0:0:0:
344,283,55377,53,8,0:0:0:0:
359,288,55470,1,0,0:0:0:0:
374,291,55563,1,8,0:0:0:0:
389,295,55656,1,0,0:0:0:0:
409,320,55750,5,8,0:0:0:0:
425,324,55843,1,0,0:0:0:0:
440,328,55936,1,0,0:0:0:0:
455,332,56029,1,0,0:0:0:0:
469,359,56122,53,8,0:0:0:0:
473,329,56215,1,8,0:0:0:0:
473,298,56308,1,0,0:0:0:0:
462,267,56402,1,0,0:0:0:0:
442,244,56495,1,8,0:0:0:0:
416,222,56588,1,0,0:0:0:0:
395,198,56681,1,8,0:0:0:0:
385,167,56774,1,8,0:0:0:0:
385,134,56868,1,8,0:0:0:0:
395,107,56961,1,0,0:0:0:0:
418,86,57054,1,8,0:0:0:0:
449,76,57147,1,0,0:0:0:0:
478,80,57240,5,8,0:0:0:0:
445,62,57333,1,8,0:0:0:0:
409,59,57427,1,0,0:0:0:0:
373,63,57520,1,8,0:0:0:0:
337,73,57613,1,8,0:0:0:0:
301,72,57706,1,0,0:0:0:0:
266,64,57799,1,8,0:0:0:0:
230,58,57893,1,0,0:0:0:0:
200,39,57985,53,8,0:0:0:0:
207,69,58079,1,0,0:0:0:0:
213,99,58172,1,0,0:0:0:0:
218,129,58265,1,0,0:0:0:0:
211,162,58358,5,8,0:0:0:0:
188,135,58451,1,8,0:0:0:0:
154,123,58544,1,0,0:0:0:0:
119,129,58638,1,0,0:0:0:0:
93,152,58731,1,8,0:0:0:0:
91,186,58824,1,0,0:0:0:0:
94,221,58917,1,8,0:0:0:0:
98,255,59010,1,8,0:0:0:0:
117,283,59103,1,8,0:0:0:0:
128,316,59197,1,0,0:0:0:0:
129,350,59290,1,8,0:0:0:0:
118,383,59383,1,0,0:0:0:0:
81,386,59476,53,8,0:0:0:0:
43,365,59570,1,8,0:0:0:0:
15,334,59663,1,0,0:0:0:0:
11,293,59756,1,8,0:0:0:0:
22,253,59849,1,8,0:0:0:0:
54,226,59942,1,0,0:0:0:0:
94,221,60035,1,8,0:0:0:0:
132,235,60129,1,0,0:0:0:0:
174,232,60221,5,8,0:0:0:0:
167,262,60314,1,0,0:0:0:0:
161,292,60407,1,0,0:0:0:0:
156,322,60500,1,0,0:0:0:0:
197,318,60594,53,8,0:0:0:0:
230,334,60688,1,8,0:0:0:0:
266,328,60781,1,0,0:0:0:0:
296,308,60874,1,0,0:0:0:0:
307,274,60967,1,8,0:0:0:0:
304,239,61060,1,0,0:0:0:0:
281,211,61153,1,8,0:0:0:0:
265,180,61247,1,8,0:0:0:0:
261,145,61340,1,8,0:0:0:0:
270,111,61433,1,0,0:0:0:0:
290,82,61526,1,8,0:0:0:0:
320,63,61619,1,0,0:0:0:0:
330,18,61712,5,8,0:0:0:0:
298,35,61806,1,8,0:0:0:0:
262,39,61899,1,0,0:0:0:0:
226,34,61992,1,8,0:0:0:0:
190,25,62085,1,8,0:0:0:0:
153,25,62178,1,0,0:0:0:0:
119,34,62271,1,8,0:0:0:0:
83,39,62365,1,0,0:0:0:0:
48,14,62458,53,8,0:0:0:0:
55,44,62551,1,0,0:0:0:0:
61,74,62644,1,0,0:0:0:0:
66,104,62737,1,0,0:0:0:0:
70,146,62830,5,8,0:0:0:0:
93,124,62924,1,8,0:0:0:0:
123,116,63017,1,0,0:0:0:0:
156,115,63110,1,0,0:0:0:0:
188,122,63203,1,8,0:0:0:0:
217,136,63296,1,0,0:0:0:0:
243,154,63389,1,8,0:0:0:0:
264,179,63483,1,8,0:0:0:0:
305,178,63576,53,8,0:0:0:0:
313,176,63669,1,0,0:0:0:0:
332,146,63762,5,8,0:0:0:0:
340,143,63855,1,0,0:0:0:0:
360,114,63948,53,8,0:0:0:0:
385,125,64042,1,8,0:0:0:0:
411,136,64135,1,0,0:0:0:0:
435,150,64228,1,0,0:0:0:0:
435,184,64321,5,8,0:0:0:0:
410,195,64414,1,0,0:0:0:0:
385,207,64507,1,8,0:0:0:0:
360,218,64601,1,0,0:0:0:0:
360,236,64694,53,8,0:0:0:0:
385,248,64787,1,0,0:0:0:0:
410,259,64880,1,8,0:0:0:0:
434,273,64973,1,0,0:0:0:0:
434,302,65066,5,8,0:0:0:0:
401,320,65159,1,8,0:0:0:0:
365,323,65253,1,8,0:0:0:0:
329,319,65346,1,0,0:0:0:0:
293,309,65439,1,8,0:0:0:0:
257,310,65532,1,8,0:0:0:0:
222,318,65625,1,0,0:0:0:0:
186,324,65719,1,8,0:0:0:0:
154,295,65812,53,8,0:0:0:0:
156,287,65905,1,0,0:0:0:0:
186,268,65998,5,8,0:0:0:0:
189,260,66091,1,0,0:0:0:0:
218,240,66184,53,8,0:0:0:0:
210,223,66278,1,0,0:0:0:0:
202,206,66371,1,8,0:0:0:0:
196,188,66464,1,0,0:0:0:0:
230,177,66557,5,8,0:0:0:0:
223,160,66650,1,0,0:0:0:0:
218,142,66743,1,8,0:0:0:0:
212,125,66837,1,0,0:0:0:0:
246,115,66930,53,8,0:0:0:0:
239,98,67023,1,0,0:0:0:0:
233,80,67116,1,8,0:0:0:0:
227,62,67209,1,0,0:0:0:0:
253,46,67302,5,8,0:0:0:0:
220,30,67396,1,8,0:0:0:0:
184,36,67489,1,8,0:0:0:0:
154,56,67582,1,0,0:0:0:0:
143,90,67675,1,8,0:0:0:0:
146,125,67768,1,0,0:0:0:0:
169,153,67861,1,8,0:0:0:0:
185,184,67955,1,8,0:0:0:0:
189,219,68048,1,0,0:0:0:0:
180,253,68141,1,0,0:0:0:0:
160,282,68234,1,8,0:0:0:0:
130,301,68327,1,0,0:0:0:0:
83,307,68420,53,8,0:0:0:0:
94,272,68514,1,0,0:0:0:0:
88,236,68607,1,8,0:0:0:0:
66,207,68700,1,0,0:0:0:0:
29,205,68793,5,8,0:0:0:0:
47,174,68886,1,0,0:0:0:0:
53,139,68979,1,8,0:0:0:0:
48,103,69073,1,0,0:0:0:0:
37,68,69166,53,8,0:0:0:0:
71,79,69259,1,8,0:0:0:0:
107,77,69352,1,8,0:0:0:0:
141,65,69445,1,0,0:0:0:0:
174,50,69538,5,8,0:0:0:0:
177,93,69632,1,8,0:0:0:0:
195,132,69725,1,0,0:0:0:0:
227,161,69818,1,8,0:0:0:0:
269,172,69911,53,8,0:0:0:0:
274,128,70004,1,0,0:0:0:0:
296,90,70097,1,8,0:0:0:0:
329,61,70191,1,0,0:0:0:0:
371,50,70284,5,8,0:0:0:0:
378,92,70377,1,0,0:0:0:0:
393,132,70470,1,0,0:0:0:0:
425,161,70563,1,8,0:0:0:0:
384,194,70656,53,8,0:0:0:0:
375,196,70750,1,8,0:0:0:0:
358,228,70843,5,0,0:0:0:0:
349,230,70936,1,0,0:0:0:0:
329,260,71029,53,8,0:0:0:0:
320,264,71122,1,0,0:0:0:0:
302,295,71215,5,8,0:0:0:0:
293,297,71309,1,0,0:0:0:0:
266,320,71402,53,0,0:0:0:0:
257,324,71495,1,0,0:0:0:0:
239,355,71588,5,8,0:0:0:0:
230,357,71681,1,0,0:0:0:0:
204,338,71774,53,8,0:0:0:0:
176,330,71867,1,8,0:0:0:0:
147,330,71961,1,0,0:0:0:0:
121,340,72054,1,0,0:0:0:0:
97,355,72147,1,8,0:0:0:0:
74,371,72240,1,0,0:0:0:0:
40,370,72333,1,8,0:0:0:0:
16,354,72426,1,8,0:0:0:0:
0,330,72520,1,8,0:0:0:0:
0,302,72613,1,0,0:0:0:0:
20,282,72706,1,8,0:0:0:0:
48,282,72799,1,0,0:0:0:0:
64,306,72892,5,8,0:0:0:0:
68,291,72985,1,8,0:0:0:0:
72,276,73079,1,0,0:0:0:0:
75,261,73172,1,8,0:0:0:0:
103,245,73265,53,8,0:0:0:0:
98,230,73358,1,0,0:0:0:0:
95,215,73451,1,8,0:0:0:0:
91,200,73544,1,0,0:0:0:0:
66,180,73638,5,8,0:0:0:0:
70,164,73731,1,0,0:0:0:0:
74,149,73824,1,0,0:0:0:0:
78,134,73917,1,0,0:0:0:0:
63,90,74010,53,8,0:0:0:0:
93,86,74103,1,8,0:0:0:0:
124,86,74197,1,0,0:0:0:0:
155,97,74290,1,0,0:0:0:0:
178,117,74383,1,8,0:0:0:0:
200,143,74476,1,0,0:0:0:0:
224,164,74569,1,8,0:0:0:0:
255,174,74662,1,8,0:0:0:0:
288,174,74756,1,8,0:0:0:0:
315,164,74849,1,0,0:0:0:0:
336,141,74942,1,8,0:0:0:0:
346,110,75035,1,0,0:0:0:0:
342,81,75128,5,8,0:0:0:0:
321,118,75221,1,8,0:0:0:0:
315,163,75315,1,0,0:0:0:0:
321,210,75408,1,8,0:0:0:0:
336,254,75501,1,8,0:0:0:0:
359,290,75594,1,0,0:0:0:0:
391,324,75687,1,8,0:0:0:0:
432,337,75781,1,0,0:0:0:0:
473,324,75874,53,8,0:0:0:0:
468,294,75967,1,0,0:0:0:0:
462,264,76060,1,0,0:0:0:0:
455,234,76153,1,0,0:0:0:0:
474,201,76246,5,8,0:0:0:0:
500,178,76340,1,8,0:0:0:0:
512,144,76433,1,0,0:0:0:0:
506,109,76526,1,0,0:0:0:0:
483,84,76619,1,8,0:0:0:0:
450,82,76712,1,0,0:0:0:0:
415,85,76805,1,8,0:0:0:0:
381,89,76899,1,8,0:0:0:0:
354,107,76992,1,8,0:0:0:0:
321,118,77085,1,0,0:0:0:0:
287,119,77178,1,8,0:0:0:0:
255,108,77271,1,0,0:0:0:0:
221,101,77364,53,8,0:0:0:0:
197,137,77458,1,8,0:0:0:0:
164,162,77551,1,0,0:0:0:0:
123,162,77644,1,8,0:0:0:0:
84,148,77737,1,8,0:0:0:0:
60,114,77830,1,0,0:0:0:0:
58,73,77923,1,8,0:0:0:0:
76,37,78017,1,0,0:0:0:0:
103,4,78110,5,8,0:0:0:0:
122,27,78203,1,0,0:0:0:0:
142,50,78296,1,0,0:0:0:0:
163,72,78389,1,0,0:0:0:0:
134,100,78482,53,8,0:0:0:0:
104,119,78576,1,8,0:0:0:0:
84,148,78669,1,0,0:0:0:0:
75,182,78762,1,0,0:0:0:0:
79,217,78855,1,8,0:0:0:0:
95,248,78948,1,0,0:0:0:0:
118,276,79041,1,8,0:0:0:0:
121,311,79135,1,8,0:0:0:0:
110,345,79228,1,8,0:0:0:0:
80,365,79321,1,0,0:0:0:0:
44,371,79414,1,8,0:0:0:0:
11,355,79507,1,0,0:0:0:0:
0,319,79600,5,8,0:0:0:0:
31,291,79694,1,8,0:0:0:0:
73,278,79787,1,0,0:0:0:0:
119,276,79880,1,8,0:0:0:0:
163,282,79973,1,8,0:0:0:0:
202,299,80066,1,0,0:0:0:0:
240,323,80159,1,8,0:0:0:0:
260,360,80253,1,0,0:0:0:0:
299,384,80346,53,8,0:0:0:0:
313,349,80439,1,0,0:0:0:0:
329,316,80532,1,0,0:0:0:0:
343,282,80625,1,0,0:0:0:0:
357,242,80718,5,8,0:0:0:0:
337,205,80812,1,8,0:0:0:0:
299,181,80905,1,0,0:0:0:0:
260,164,80998,1,0,0:0:0:0:
216,158,81091,1,8,0:0:0:0:
170,160,81184,1,0,0:0:0:0:
128,173,81277,1,8,0:0:0:0:
97,201,81371,1,8,0:0:0:0:
66,166,81464,53,8,0:0:0:0:
64,158,81557,1,0,0:0:0:0:
34,139,81650,5,8,0:0:0:0:
31,131,81743,1,0,0:0:0:0:
2,111,81836,53,8,0:0:0:0:
13,86,81930,1,0,0:0:0:0:
24,60,82023,1,8,0:0:0:0:
38,36,82116,1,0,0:0:0:0:
72,36,82209,5,8,0:0:0:0:
83,61,82302,1,0,0:0:0:0:
95,86,82395,1,8,0:0:0:0:
106,111,82489,1,0,0:0:0:0:
124,111,82582,53,8,0:0:0:0:
136,86,82675,1,0,0:0:0:0:
147,61,82768,1,8,0:0:0:0:
161,37,82861,1,0,0:0:0:0:
190,37,82954,5,8,0:0:0:0:
225,48,83048,1,8,0:0:0:0:
260,44,83141,1,8,0:0:0:0:
296,34,83234,1,0,0:0:0:0:
329,18,83327,1,8,0:0:0:0:
365,13,83420,1,8,0:0:0:0:
400,15,83513,1,0,0:0:0:0:
437,15,83607,1,8,0:0:0:0:
463,37,83700,53,8,0:0:0:0:
466,50,83793,1,0,0:0:0:0:
468,63,83886,1,8,0:0:0:0:
471,76,83979,1,0,0:0:0:0:
465,107,84072,5,8,0:0:0:0:
434,122,84166,1,0,0:0:0:0:
402,137,84259,1,8,0:0:0:0:
371,154,84352,1,0,0:0:0:0:
367,193,84445,53,8,0:0:0:0:
403,176,84538,1,0,0:0:0:0:
440,161,84631,1,8,0:0:0:0:
476,143,84725,1,0,0:0:0:0:
490,185,84818,5,8,0:0:0:0:
451,208,84911,1,0,0:0:0:0:
411,229,85004,1,8,0:0:0:0:
370,248,85097,1,0,0:0:0:0:
369,298,85190,53,8,0:0:0:0:
356,332,85284,1,8,0:0:0:0:
327,353,85377,1,8,0:0:0:0:
291,360,85470,1,0,0:0:0:0:
260,344,85563,1,8,0:0:0:0:
237,317,85656,1,0,0:0:0:0:
233,281,85749,1,8,0:0:0:0:
223,248,85843,1,8,0:0:0:0:
201,220,85936,1,0,0:0:0:0:
171,203,86029,1,0,0:0:0:0:
136,196,86122,1,8,0:0:0:0:
101,204,86215,1,0,0:0:0:0:
56,238,86308,5,8,0:0:0:0:
47,207,86402,1,0,0:0:0:0:
48,175,86495,1,8,0:0:0:0:
62,146,86588,1,0,0:0:0:0:
101,119,86681,53,8,0:0:0:0:
110,88,86774,1,0,0:0:0:0:
109,56,86867,1,8,0:0:0:0:
95,27,86961,1,0,0:0:0:0:
134,0,87054,5,8,0:0:0:0:
148,27,87147,1,8,0:0:0:0:
171,49,87240,1,8,0:0:0:0:
202,59,87333,1,0,0:0:0:0:
257,53,87426,53,8,0:0:0:0:
291,60,87520,1,8,0:0:0:0:
318,77,87613,1,0,0:0:0:0:
337,104,87706,1,8,0:0:0:0:
318,131,87799,5,8,0:0:0:0:
317,139,87892,1,0,0:0:0:0:
296,167,87985,53,8,0:0:0:0:
298,176,88079,1,0,0:0:0:0:
279,203,88172,5,8,0:0:0:0:
314,210,88265,1,8,0:0:0:0:
342,234,88358,1,0,0:0:0:0:
357,267,88451,1,0,0:0:0:0:
340,300,88544,53,8,0:0:0:0:
338,308,88638,1,0,0:0:0:0:
308,327,88731,5,8,0:0:0:0:
305,335,88824,1,0,0:0:0:0:
276,355,88917,53,0,0:0:0:0:
274,363,89010,1,8,0:0:0:0:
243,380,89103,53,0,0:0:0:0:
240,377,89166,1,8,0:0:0:0:
237,374,89228,1,8,0:0:0:0:
234,371,89290,1,0,0:0:0:0:
231,368,89352,1,8,0:0:0:0:
228,365,89414,1,8,0:0:0:0:
225,362,89476,1,0,0:0:0:0:
256,192,89662,37,12,0:0:0:0:
256,192,90035,1,0,0:0:0:0:
256,192,90408,1,0,0:0:0:0:
256,96,90781,1,8,0:0:0:0:
256,288,91153,1,8,0:0:0:0:
160,192,91433,1,8,0:0:0:0:
163,195,91526,1,8,0:0:0:0:
256,192,91712,1,0,0:0:0:0:
352,192,91899,5,8,0:0:0:0:
352,192,92271,1,8,0:0:0:0:
352,192,92644,1,0,0:0:0:0:
256,96,92830,1,0,0:0:0:0:
160,192,93017,1,8,0:0:0:0:
352,96,93389,1,8,0:0:0:0:
160,288,93669,1,0,0:0:0:0:
163,291,93762,1,8,0:0:0:0:
160,96,93948,1,0,0:0:0:0:
352,288,94135,53,12,0:0:0:0:
352,288,94507,1,0,0:0:0:0:
352,288,94880,1,0,0:0:0:0:
256,0,95253,1,12,0:0:0:0:
256,384,95625,1,8,0:0:0:0:
256,192,95905,1,0,0:0:0:0:
259,195,95998,1,8,0:0:0:0:
256,96,96184,1,0,0:0:0:0:
256,288,96371,5,12,0:0:0:0:
256,192,96743,1,0,0:0:0:0:
128,192,97116,1,0,0:0:0:0:
256,192,97302,1,0,0:0:0:0:
384,192,97489,1,8,0:0:0:0:
256,0,97861,1,8,0:0:0:0:
288,0,97954,1,8,0:0:0:0:
320,0,98048,1,8,0:0:0:0:
352,0,98141,1,8,0:0:0:0:
384,0,98234,1,8,0:0:0:0:
480,0,98420,1,8,0:0:0:0:
384,96,98607,53,12,0:0:0:0:
480,96,98793,1,8,0:0:0:0:
384,0,98979,1,0,0:0:0:0:
384,192,99166,1,8,0:0:0:0:
480,96,99352,1,0,0:0:0:0:
288,96,99538,1,8,0:0:0:0:
480,288,99725,1,8,0:0:0:0:
480,192,99911,1,0,0:0:0:0:
288,288,100097,1,8,0:0:0:0:
384,192,100284,1,0,0:0:0:0:
384,160,100377,1,8,0:0:0:0:
384,128,100470,1,8,0:0:0:0:
288,192,100656,1,8,0:0:0:0:
384,288,100843,5,8,0:0:0:0:
288,96,101029,1,0,0:0:0:0:
192,288,101215,1,8,0:0:0:0:
288,288,101402,1,0,0:0:0:0:
96,192,101588,1,8,0:0:0:0:
96,288,101774,1,0,0:0:0:0:
192,96,101961,1,8,0:0:0:0:
96,96,102147,1,0,0:0:0:0:
192,192,102333,1,8,0:0:0:0:
192,0,102520,1,0,0:0:0:0:
160,0,102613,1,0,0:0:0:0:
128,0,102706,1,8,0:0:0:0:
0,96,102892,1,0,0:0:0:0:
288,96,103079,53,12,0:0:0:0:
288,192,103265,1,8,0:0:0:0:
288,288,103451,1,0,0:0:0:0:
384,192,103638,1,8,0:0:0:0:
384,96,103824,1,0,0:0:0:0:
384,0,104010,1,8,0:0:0:0:
480,96,104197,1,12,0:0:0:0:
480,192,104383,1,0,0:0:0:0:
288,96,104569,1,8,0:0:0:0:
384,192,104756,1,0,0:0:0:0:
384,224,104849,1,0,0:0:0:0:
384,256,104942,1,8,0:0:0:0:
384,352,105128,1,0,0:0:0:0:
192,256,105315,5,12,0:0:0:0:
288,256,105501,1,8,0:0:0:0:
288,352,105687,1,0,0:0:0:0:
96,160,105874,1,8,0:0:0:0:
192,160,106060,1,0,0:0:0:0:
96,256,106246,1,8,0:0:0:0:
96,64,106433,1,8,0:0:0:0:
288,64,106619,1,0,0:0:0:0:
256,256,106805,53,8,0:0:0:0:
256,288,106899,1,8,0:0:0:0:
256,320,106992,1,0,0:0:0:0:
256,352,107085,1,0,0:0:0:0:
256,384,107178,1,0,0:0:0:0:
352,320,107364,1,8,0:0:0:0:
160,320,107551,1,12,0:0:0:0:
