osu file format v14

[General]
AudioFilename: audio.mp3
AudioLeadIn: 0
PreviewTime: 784
Countdown: 0
SampleSet: Drum
StackLeniency: 0.7
Mode: 0
LetterboxInBreaks: 0
WidescreenStoryboard: 1

[Editor]
Bookmarks: 12784,18784,30784,42784,54784,66784,78784,90784,102780,114784,126780,138784,150780,162780,198780
DistanceSpacing: 1
BeatDivisor: 4
GridSize: 4
TimelineZoom: 3.499999

[Metadata]
Title:Reverse Ideology
TitleUnicode:リバースイデオロギー
Artist:ZUN
ArtistUnicode:ZUN
Creator:Luscent
Version:Normal
Source:東方輝針城 ~ Double Dealing Character.
Tags:Dailycare nanoya Corsace 2023 co23 KO2 DT2 東方project Touhou Project th14 DDC 鬼人正邪 Seija Kijin 旧約酒場 ~ Dateless Bar “Old Adam” Old Testament Tavern ZUN's Music Collection vol.9 instrumental video game electronic
BeatmapID:4294664
BeatmapSetID:2051416

[Difficulty]
HPDrainRate:3
CircleSize:3
OverallDifficulty:4
ApproachRate:5
SliderMultiplier:1
SliderTickRate:1

[Events]
//Background and Video events
0,0,"seija.jpg",0,0
//Break Periods
2,102990,113590
//Storyboard Layer 0 (Background)
//Storyboard Layer 1 (Fail)
//Storyboard Layer 2 (Pass)
//Storyboard Layer 3 (Foreground)
//Storyboard Layer 4 (Overlay)
//Storyboard Sound Samples

[TimingPoints]
790,375,4,2,1,80,1,0
12790,-111.111111111111,4,2,1,80,0,0
18790,-100,4,2,1,80,0,0
42790,-111.111111111111,4,2,1,80,0,0
54790,-100,4,3,1,80,0,0
90790,-90.9090909090909,4,3,1,80,0,1
102790,-100,4,3,1,80,0,0
114790,-111.111111111111,4,3,1,80,0,0
126790,-100,4,3,1,80,0,0
162790,-90.9090909090909,4,3,1,80,0,1
174790,-111.111111111111,4,3,1,80,0,0
176290,-90.9090909090909,4,3,1,80,0,1
186790,-100,4,3,1,80,0,0
188290,-90.9090909090909,4,3,1,80,0,1
198790,-100,4,3,1,80,0,0

[Colours]
Combo1 : 252,102,95
Combo2 : 243,214,122
Combo3 : 249,176,155

[HitObjects]
61,201,790,6,0,B|105:249|184:232,1,100,4|0,3:2|3:0,0:0:0:0:
185,272,1352,2,0,P|224:240|294:235,1,100,4|0,1:2|3:0,0:0:0:0:
320,242,1915,1,0,3:0:0:0:
391,172,2290,2,0,P|379:112|394:57,1,100,4|0,1:2|3:0,0:0:0:0:
344,47,2852,2,0,P|282:57|227:43,1,100,4|0,1:2|1:0,0:0:0:0:
202,75,3415,1,0,1:0:0:0:
108,39,3790,6,0,P|92:87|103:138,1,100,4|0,1:2|3:0,0:0:0:0:
65,169,4352,2,0,P|109:212|119:262,1,100,4|0,1:2|3:0,0:0:0:0:
104,295,4915,1,0,3:0:0:0:
186,352,5290,2,0,P|244:362|304:348,1,100,4|0,1:2|3:0,0:0:0:0:
319,319,5852,2,0,P|366:305|416:310,1,100,4|0,1:2|3:0,0:0:0:0:
460,333,6415,1,0,1:0:0:0:
488,237,6790,6,0,P|475:166|487:112,1,100,4|0,1:2|1:0,0:0:0:0:
443,103,7352,1,4,1:2:0:0:
353,143,7727,1,0,1:0:0:0:
353,143,7915,1,0,1:0:0:0:
260,103,8290,2,0,P|204:114|143:103,1,100,4|0,1:2|1:0,0:0:0:0:
115,90,8852,1,4,1:2:0:0:
57,172,9227,1,0,1:0:0:0:
57,172,9415,1,0,1:0:0:0:
125,244,9790,5,4,1:2:0:0:
87,336,10165,1,0,1:0:0:0:
87,336,10352,2,0,P|147:328|229:339,1,100,4|0,1:2|1:0,0:0:0:0:
231,308,10915,2,0,P|252:251|231:178,1,100,0|4,1:0|1:2,0:0:0:0:
207,121,11665,5,8,1:3:0:0:
262,37,12040,2,0,L|322:49,1,50,8|4,1:3|3:3,0:0:0:0:
347,80,12415,2,0,L|420:61,1,50,6|8,3:3|1:3,0:0:0:0:
438,54,12790,6,0,P|475:114|465:202,1,134.999995880127,4|6,1:2|3:2,0:0:0:0:
454,217,13540,1,0,1:2:0:0:
365,198,13915,1,0,1:0:0:0:
297,257,14290,2,0,P|233:239|138:238,1,134.999995880127,4|6,1:2|1:2,0:0:0:0:
132,203,15040,2,0,P|114:156|115:116,2,89.999997253418,0|0|4,3:0|1:0|1:2,0:0:0:0:
60,288,16165,5,0,0:0:0:0:
60,288,16352,1,4,1:2:0:0:
60,288,16540,2,0,P|123:311|175:303,1,89.999997253418,0|0,1:2|0:0,0:0:0:0:
185,290,17102,1,0,3:0:0:0:
224,268,17290,2,0,P|289:249|365:261,1,134.999995880127,4|0,1:2|1:0,0:0:0:0:
392,232,18040,2,0,P|414:177|402:108,2,89.999997253418,4|4|4,1:2|1:2|1:2,0:0:0:0:
423,270,18977,5,2,1:3:0:0:
455,308,19165,1,0,3:0:0:0:
375,368,19540,2,0,P|319:375|263:363,1,100,0|0,3:0|0:0,0:0:0:0:
234,340,20102,1,2,1:3:0:0:
182,261,20477,1,2,1:3:0:0:
182,261,20665,1,0,3:0:0:0:
254,191,21040,2,0,P|262:119|247:62,1,100,0|0,1:0|0:0,0:0:0:0:
230,50,21602,1,2,1:3:0:0:
137,78,21977,5,2,1:3:0:0:
137,78,22165,1,0,3:0:0:0:
38,58,22540,2,0,P|27:122|44:178,1,100,0|0,3:0|0:0,0:0:0:0:
7,198,23102,1,2,1:3:0:0:
64,286,23477,1,2,1:3:0:0:
64,286,23665,1,0,3:0:0:0:
154,243,24040,2,0,P|208:254|270:239,1,100,8|4,1:3|3:3,0:0:0:0:
297,267,24602,1,6,1:3:0:0:
381,212,24977,6,0,P|393:146|379:92,1,100,0|2,0:0|1:3,0:0:0:0:
374,65,25540,1,0,3:0:0:0:
277,90,25915,1,0,3:0:0:0:
277,90,26102,1,2,1:3:0:0:
208,161,26477,2,0,P|199:211|204:260,1,100,2|2,1:3|1:3,0:0:0:0:
184,306,27040,1,0,3:0:0:0:
252,384,27415,1,0,0:0:0:0:
252,384,27602,1,2,1:3:0:0:
338,332,27977,6,0,P|404:319|445:327,1,100,2|2,1:3|1:3,0:0:0:0:
472,289,28540,2,0,P|496:223|462:158,1,100,0|0,3:0|0:0,0:0:0:0:
418,126,29290,1,0,0:0:0:0:
324,160,29665,1,8,0:3:0:0:
255,86,30040,1,8,1:3:0:0:
188,160,30415,1,8,1:3:0:0:
210,204,30602,1,0,1:0:0:0:
233,248,30790,6,0,P|308:230|381:240,1,150,6|2,1:2|1:3,0:0:0:0:
422,213,31540,2,0,P|438:165|429:126,2,75,2|2|2,1:2|1:2|1:2,0:0:0:0:
349,281,32477,1,2,1:3:0:0:
349,281,32665,1,0,3:0:0:0:
249,271,33040,2,0,P|194:286|157:284,2,75,2|2|2,1:2|1:2|1:2,0:0:0:0:
287,178,33977,6,0,P|302:103|280:43,1,100,2|2,1:3|1:3,0:0:0:0:
265,42,34540,2,0,P|222:45|179:25,2,75,2|2|2,1:2|1:2|1:2,0:0:0:0:
361,7,35477,1,2,1:3:0:0:
361,7,35665,1,0,3:0:0:0:
451,50,36040,2,0,P|463:100|453:155,1,100,4|0,3:2|1:0,0:0:0:0:
401,231,36790,6,0,P|347:212|293:214,1,100,4|0,1:2|3:0,0:0:0:0:
215,167,37540,2,0,P|173:187|125:193,1,75,2|2,1:2|1:2,0:0:0:0:
68,154,38102,1,2,1:2:0:0:
8,235,38477,1,2,1:3:0:0:
8,235,38665,1,0,3:2:0:0:
68,314,39040,2,0,P|125:301|153:303,1,75,2|2,1:2|1:2,0:0:0:0:
220,332,39602,1,2,1:2:0:0:
310,289,39977,6,0,P|321:224|309:172,1,100,2|2,1:3|1:3,0:0:0:0:
285,150,40540,2,0,P|279:99|289:67,2,75,0|2|2,1:0|3:2|1:3,0:0:0:0:
205,210,41477,1,2,1:3:0:0:
205,210,41665,2,0,L|81:222,1,100,8|6,3:0|1:2,0:0:0:0:
49,160,42321,2,0,P|35:125|37:87,1,75,2|0,1:2|1:0,0:0:0:0:
61,49,42790,5,6,1:2:0:0:
192,95,43352,1,2,0:2:0:0:
192,95,43540,1,4,1:2:0:0:
242,225,44102,1,0,1:2:0:0:
242,225,44290,1,6,1:2:0:0:
373,184,44852,1,2,1:2:0:0:
373,184,45040,1,0,1:3:0:0:
455,220,45415,1,0,1:0:0:0:
503,144,45790,5,6,1:2:0:0:
390,81,46352,1,0,1:0:0:0:
390,81,46540,1,4,1:2:0:0:
317,196,47102,1,0,1:0:0:0:
317,196,47290,1,4,1:2:0:0:
196,147,47852,1,4,1:2:0:0:
196,147,48040,1,0,1:0:0:0:
113,183,48415,1,0,1:0:0:0:
27,155,48790,5,6,1:2:0:0:
87,281,49352,1,0,1:0:0:0:
87,281,49540,1,4,1:2:0:0:
220,245,50102,1,0,3:0:0:0:
220,245,50290,1,4,1:2:0:0:
310,352,50852,1,4,1:2:0:0:
310,352,51040,1,0,3:0:0:0:
395,325,51415,1,0,1:0:0:0:
481,299,51790,5,6,1:2:0:0:
394,141,52540,1,4,1:2:0:0:
228,211,53290,1,4,1:2:0:0:
70,123,54040,1,6,1:2:0:0:
118,47,54415,1,6,1:2:0:0:
208,46,54790,6,0,P|230:98|226:151,1,100,6|0,1:2|0:0,0:0:0:0:
151,204,55540,1,0,1:3:0:0:
56,191,55915,1,0,0:0:0:0:
56,190,56102,2,0,P|37:237|47:288,1,100,2|2,1:3|1:3,0:0:0:0:
79,323,56665,1,0,0:0:0:0:
170,283,57040,2,0,P|235:295|290:285,1,100,2|0,1:3|0:0,0:0:0:0:
363,323,57790,5,0,0:0:0:0:
421,241,58165,1,0,0:0:0:0:
347,173,58540,2,0,P|333:114|354:48,1,100,2|0,1:3|0:0,0:0:0:0:
320,30,59102,1,2,1:3:0:0:
225,52,59477,1,2,1:3:0:0:
225,52,59665,1,0,0:0:0:0:
127,28,60040,2,0,P|132:77|127:134,1,100,2|0,1:3|0:0,0:0:0:0:
64,204,60790,5,4,1:2:0:0:
131,277,61165,1,0,0:0:0:0:
224,235,61540,1,2,1:3:0:0:
224,235,61727,2,0,P|284:224|356:234,1,100,0|2,0:0|1:3,0:0:0:0:
363,254,62290,1,0,0:0:0:0:
426,177,62665,1,0,0:0:0:0:
346,115,63040,1,2,1:3:0:0:
346,115,63227,2,0,P|331:53|339:1,1,100,0|2,0:0|1:3,0:0:0:0:
286,32,63790,6,0,P|248:65|191:75,1,100
103,49,64540,2,0,P|84:98|111:163,1,100,2|0,1:3|0:0,0:0:0:0:
137,168,65102,1,2,1:3:0:0:
180,193,65290,1,0,0:2:0:0:
274,158,65665,1,0,0:0:0:0:
371,180,66040,2,0,P|421:185|485:173,1,100,8|0,1:3|1:0,0:0:0:0:
472,331,66977,5,2,1:3:0:0:
472,331,67165,1,0,0:0:0:0:
367,296,67540,2,0,P|320:310|284:307,1,75,2|2,1:2|1:2,0:0:0:0:
216,283,68102,1,2,1:2:0:0:
120,241,68477,1,2,1:3:0:0:
120,241,68665,1,0,0:0:0:0:
66,144,69040,2,0,P|78:89|74:57,1,75,2|2,1:2|1:2,0:0:0:0:
141,19,69602,1,2,1:2:0:0:
245,68,69977,5,2,1:3:0:0:
245,68,70165,1,0,0:0:0:0:
350,99,70540,2,0,P|345:154|351:195,1,75,2|2,0:2|0:2,0:0:0:0:
295,237,71102,1,2,1:2:0:0:
365,328,71477,1,2,1:3:0:0:
365,328,71665,1,0,0:0:0:0:
469,294,72040,2,0,P|477:248|470:198,1,75,2|2,0:2|0:0,0:0:0:0:
432,149,72602,1,2,1:2:0:0:
332,196,72977,5,2,1:3:0:0:
332,196,73165,2,0,P|268:214|223:208,1,100,0|2,0:0|1:2,0:0:0:0:
164,169,73821,1,2,1:2:0:0:
82,181,74102,2,0,P|65:130|67:82,1,100,2|2,1:2|1:3,0:0:0:0:
96,37,74665,1,0,0:0:0:0:
144,10,74852,1,2,1:3:0:0:
198,15,75040,2,0,P|248:35|312:25,1,100,2|0,1:2|0:0,0:0:0:0:
386,90,75790,1,0,0:0:0:0:
403,142,75977,6,0,P|438:146|467:140,2,50,2|0|2,1:3|0:0|1:3,0:0:0:0:
368,185,76540,2,0,P|328:231|314:286,1,100,2|0,1:2|1:0,0:0:0:0:
217,317,77290,2,0,P|176:280|182:221,1,100,0|8,0:0|0:3,0:0:0:0:
195,186,77852,1,0,0:0:0:0:
217,135,78040,2,0,P|223:95|219:62,1,50,0|10,1:0|0:3,0:0:0:0:
182,47,78415,2,0,P|118:55|86:121,1,100,0|4,1:0|1:2,0:0:0:0:
29,232,79352,5,4,1:2:0:0:
29,232,79540,1,0,0:0:0:0:
114,300,79915,1,0,0:0:0:0:
219,269,80290,1,4,1:2:0:0:
381,318,80852,1,4,1:2:0:0:
381,318,81040,1,0,0:0:0:0:
471,255,81415,1,0,0:0:0:0:
437,150,81790,1,4,1:2:0:0:
243,46,82540,5,0,3:2:0:0:
246,155,82915,1,0,0:0:0:0:
249,264,83290,1,4,1:2:0:0:
104,339,83852,1,4,1:2:0:0:
104,339,84040,1,0,1:2:0:0:
38,250,84415,1,4,1:2:0:0:
85,150,84790,5,4,1:2:0:0:
252,175,85352,1,4,1:2:0:0:
252,175,85539,1,0,1:2:0:0:
419,202,86102,1,0,3:2:0:0:
419,202,86289,1,4,1:2:0:0:
412,36,86852,1,4,1:2:0:0:
412,36,87040,1,0,1:2:0:0:
303,50,87415,1,0,1:0:0:0:
194,65,87790,5,4,1:2:0:0:
228,226,88352,1,0,1:2:0:0:
228,226,88540,1,4,1:2:0:0:
320,285,88915,1,0,0:0:0:0:
424,251,89290,1,4,1:2:0:0:
92,63,90790,6,0,P|77:115|96:177,1,110.000003356934,4|0,1:2|0:0,0:0:0:0:
126,208,91352,1,10,1:3:0:0:
162,249,91540,2,0,P|222:234|285:234,1,110.000003356934,6|0,0:3|0:0,0:0:0:0:
377,256,92290,2,0,P|372:206|383:168,2,82.5000025177003,6|2|10,1:3|1:3|1:3,0:0:0:0:
414,296,93040,2,0,P|400:343|397:371,1,55.0000016784668,6|8,0:3|1:3,0:0:0:0:
355,382,93415,1,6,0:3:0:0:
255,335,93790,6,0,P|195:329|140:338,1,110.000003356934,6|4,0:3|0:3,0:0:0:0:
104,300,94352,1,10,1:3:0:0:
73,253,94540,2,0,P|53:203|64:136,1,110.000003356934,6|4,0:3|0:3,0:0:0:0:
166,169,95290,2,0,P|204:176|243:173,2,55.0000016784668,6|10|4,0:3|1:3|0:3,0:0:0:0:
149,59,96040,2,0,P|111:52|72:55,2,55.0000016784668,4|14|4,0:3|1:3|1:3,0:0:0:0:
201,76,96602,1,12,1:3:0:0:
254,62,96790,6,0,P|284:125|283:181,1,110.000003356934,4|0,0:2|0:0,0:0:0:0:
326,201,97352,1,10,1:3:0:0:
365,239,97540,2,0,P|335:298|330:357,1,110.000003356934,6|0,0:3|0:0,0:0:0:0:
224,306,98290,2,0,P|182:293|143:292,1,82.5000025177003,6|10,0:3|1:3,0:0:0:0:
79,231,98852,1,10,1:3:0:0:
79,231,99040,2,0,P|63:176|79:109,1,110.000003356934,6|6,1:3|1:3,0:0:0:0:
124,140,99602,1,14,1:3:0:0:
177,154,99790,6,0,P|219:171|269:169,1,82.5000025177003,4|6,1:2|1:3,0:0:0:0:
343,143,100352,1,6,1:3:0:0:
343,143,100540,2,0,P|332:94|335:46,1,82.5000025177003,4|0,1:1|0:0,0:0:0:0:
421,68,101102,1,14,1:3:0:0:
421,68,101290,2,0,P|448:129|415:299,1,220.000006713867,4|0,1:2|0:0,0:0:0:0:
381,305,102227,1,0,0:0:0:0:
334,334,102415,2,0,P|283:311|212:313,1,110.000003356934,0|4,0:0|0:2,0:0:0:0:
151,271,114790,6,0,B|93:218|134:138,1,134.999995880127,6|2,1:2|0:2,0:0:0:0:
170,166,115540,2,0,B|231:159|243:97,1,89.9999972534181,4|0,1:2|0:0,0:0:0:0:
308,59,116290,2,0,B|362:103|362:143|350:198,1,134.999995880127,6|2,1:2|1:2,0:0:0:0:
319,206,117040,1,0,1:3:0:0:
257,271,117415,1,0,1:0:0:0:
196,337,117790,6,0,B|131:310|58:327,1,134.999995880127,6|0,1:2|1:0,0:0:0:0:
35,290,118540,2,0,B|0:252|20:194,1,89.9999972534181,4|0,1:2|0:0,0:0:0:0:
60,127,119290,2,0,B|146:140|147:220,1,134.999995880127,4|4,1:2|1:2,0:0:0:0:
177,247,120040,2,0,L|230:269,2,44.999998626709,0|0|0,1:0|1:0|1:0,0:0:0:0:
237,180,120790,6,0,B|299:145|284:64,1,134.999995880127,6|0,1:2|1:0,0:0:0:0:
323,84,121540,2,0,L|416:109,1,89.9999972534181,4|0,1:2|3:0,0:0:0:0:
447,189,122290,2,0,B|385:224|400:305,1,134.999995880127,4|4,1:2|1:2,0:0:0:0:
361,285,123040,2,0,L|268:260,1,89.9999972534181,0|0,3:0|1:0,0:0:0:0:
192,299,123790,5,6,1:2:0:0:
89,219,124353,1,0,1:0:0:0:
89,219,124540,1,4,1:2:0:0:
149,100,125102,1,0,1:0:0:0:
149,100,125289,1,4,1:2:0:0:
273,151,125852,1,0,3:0:0:0:
273,151,126040,2,0,B|322:168|379:155,2,89.9999972534181,4|4|4,1:2|1:2|1:2,0:0:0:0:
205,224,127165,5,0,0:0:0:0:
117,175,127540,2,0,B|92:135|104:87,2,75,0|2|2,1:3|1:3|1:3,0:0:0:0:
58,255,128477,1,2,1:3:0:0:
58,255,128665,1,0,0:0:0:0:
120,332,129040,2,0,B|152:317|209:329,1,75,2|2,1:3|1:3,0:0:0:0:
264,350,129602,1,2,1:3:0:0:
323,269,129977,5,2,1:3:0:0:
323,269,130165,2,0,B|296:219|320:156,1,100,0|2,0:0|1:3,0:0:0:0:
357,110,130821,1,2,1:3:0:0:
321,43,131102,2,0,L|200:30,1,100,2|2,1:3|1:3,0:0:0:0:
192,73,131665,2,0,L|121:66,1,50,0|2,0:0|1:3,0:0:0:0:
92,74,132040,2,0,B|141:134|114:224,1,150,2|2,1:3|1:3,0:0:0:0:
214,199,132977,5,2,1:3:0:0:
214,199,133165,2,0,L|273:206,1,50,0|2,0:0|1:3,0:0:0:0:
307,181,133540,2,0,B|336:143|329:91,2,75,2|0|2,1:3|0:0|1:3,0:0:0:0:
356,267,134477,1,2,1:3:0:0:
356,267,134665,2,0,L|385:313,1,50,0|2,0:0|1:3,0:0:0:0:
400,356,135040,2,0,B|424:310|464:282,2,75,2|2|2,1:3|1:3|1:3,0:0:0:0:
302,333,135977,5,2,1:3:0:0:
302,333,136165,1,0,0:0:0:0:
204,354,136540,1,2,1:3:0:0:
108,323,136915,1,0,0:0:0:0:
10,343,137290,2,0,B|36:286|7:232,1,100,0|0,0:2|0:0,0:0:0:0:
1,197,137852,1,2,1:3:0:0:
1,197,138040,2,0,L|65:185,1,50,0|2,1:0|1:3,0:0:0:0:
98,200,138415,2,0,B|135:148|117:83,1,100,0|4,1:0|1:2,0:0:0:0:
205,51,139165,5,0,0:0:0:0:
231,93,139352,1,2,1:3:0:0:
257,135,139540,2,0,B|302:117|348:129,2,75,2|2|2,1:2|1:2|1:2,0:0:0:0:
192,211,140477,1,2,1:3:0:0:
212,256,140665,1,0,0:0:0:0:
219,355,141040,2,0,B|284:324|379:348,1,150,2|2,1:2|1:2,0:0:0:0:
420,261,141977,5,2,1:3:0:0:
391,219,142165,1,0,0:0:0:0:
318,150,142540,2,0,B|298:104|308:55,2,75,2|2|2,0:2|0:2|1:2,0:0:0:0:
227,193,143477,1,2,1:3:0:0:
179,208,143665,1,0,0:0:0:0:
91,159,144040,2,0,B|58:110|81:54,1,100,2|0,0:2|1:0,0:0:0:0:
176,53,144790,5,6,1:2:0:0:
275,46,145165,1,0,0:0:0:0:
313,77,145352,1,2,1:3:0:0:
352,107,145540,2,0,B|383:71|382:23,2,75,2|2|2,1:2|1:2|1:2,0:0:0:0:
279,175,146477,2,0,L|213:166,1,50,2|0,1:3|0:0,0:0:0:0:
186,193,146852,1,2,1:3:0:0:
143,219,147040,2,0,B|114:178|121:144,2,75,2|2|2,1:2|1:2|1:2,0:0:0:0:
182,310,147977,5,2,1:3:0:0:
226,332,148165,2,0,B|276:301|334:318,1,100,0|2,0:0|1:2,0:0:0:0:
378,265,148821,2,0,B|404:222|390:178,1,75,2|2,1:2|1:2,0:0:0:0:
310,137,149477,1,2,1:3:0:0:
269,166,149665,2,0,B|221:136|162:156,1,100,8|0,0:3|1:0,0:0:0:0:
103,123,150321,2,0,B|77:82|97:32,1,75,0|2,0:0|1:2,0:0:0:0:
132,22,150790,5,4,1:2:0:0:
279,49,151352,1,4,1:2:0:0:
279,49,151540,1,0,0:0:0:0:
377,67,151915,1,0,0:0:0:0:
390,114,152102,1,0,0:0:0:0:
403,162,152290,1,4,1:2:0:0:
298,269,152852,1,4,1:2:0:0:
298,269,153039,1,0,0:0:0:0:
217,208,153415,1,0,0:0:0:0:
168,221,153602,1,0,0:0:0:0:
119,234,153790,5,4,1:2:0:0:
207,354,154352,1,4,1:2:0:0:
207,354,154540,1,0,3:2:0:0:
302,324,154915,1,0,0:0:0:0:
398,349,155290,2,0,B|370:276|398:185,1,150,4|4,1:2|1:2,0:0:0:0:
393,201,156415,1,4,1:2:0:0:
331,122,156790,5,4,1:2:0:0:
186,144,157352,1,4,0:2:0:0:
186,144,157539,1,0,1:2:0:0:
86,156,157915,1,0,0:0:0:0:
73,204,158102,1,0,3:2:0:0:
61,252,158290,1,4,1:2:0:0:
163,361,158852,1,4,1:2:0:0:
163,361,159040,1,4,0:2:0:0:
257,328,159415,1,4,1:2:0:0:
198,246,159790,6,0,B|149:170|200:95,1,150,4|4,1:2|1:2,0:0:0:0:
240,123,160540,2,0,B|299:138|346:100,1,100,0|4,1:2|1:2,0:0:0:0:
422,58,161290,1,4,1:2:0:0:
422,58,162415,1,0,1:0:0:0:
392,163,162790,6,0,B|353:147|300:151,1,82.5000025177003,4|2,1:2|1:3,0:0:0:0:
234,181,163352,1,10,1:3:0:0:
234,181,163540,2,0,B|202:143|208:100,1,82.5000025177003,6|8,0:3|1:3,0:0:0:0:
126,118,164102,1,10,1:3:0:0:
126,118,164290,2,0,B|96:72|114:14,2,82.5000025177003,6|2|10,1:3|1:3|1:3,0:0:0:0:
85,155,165040,2,0,B|127:200|113:270,1,110.000003356934,6|6,0:3|0:3,0:0:0:0:
215,301,165790,6,0,L|313:287,1,82.5000025177003,6|2,0:3|1:3,0:0:0:0:
376,308,166352,1,10,1:3:0:0:
376,308,166540,2,0,B|403:266|395:229,1,82.5000025177003,6|6,0:3|1:3,0:0:0:0:
330,179,167102,1,10,1:3:0:0:
330,179,167290,2,0,B|284:126|319:72,1,110.000003356934,6|4,0:3|0:3,0:0:0:0:
357,42,167852,2,0,B|425:43|443:113,1,110.000003356934,6|14,1:3|1:3,0:0:0:0:
439,157,168415,1,4,1:3:0:0:
343,211,168790,6,0,L|256:200,1,82.5000025177003,4|6,0:2|1:3,0:0:0:0:
190,243,169352,1,10,1:3:0:0:
190,243,169540,2,0,B|141:220|138:160,1,82.5000025177003,6|10,0:3|1:3,0:0:0:0:
81,123,170102,1,10,1:3:0:0:
81,123,170290,2,0,B|96:74|148:67,1,82.5000025177003,6|10,0:3|1:3,0:0:0:0:
211,32,170852,1,10,1:3:0:0:
211,32,171040,2,0,B|252:76|322:61,1,110.000003356934,6|6,1:3|1:3,0:0:0:0:
365,53,171602,1,4,1:3:0:0:
418,41,171790,5,4,1:2:0:0:
451,116,172071,2,0,B|472:160|456:212,1,82.5000025177003,6|6,1:3|1:3,0:0:0:0:
424,239,172540,1,4,1:1:0:0:
344,217,172821,2,0,B|296:239|250:220,1,82.5000025177003
219,257,173290,2,0,B|168:214|196:148,1,110.000003356934,4|4,1:2|1:2,0:0:0:0:
126,69,174040,1,4,1:0:0:0:
87,108,174227,1,0,0:0:0:0:
48,147,174415,1,0,0:0:0:0:
78,231,174790,5,4,1:2:0:0:
224,335,175540,1,4,1:2:0:0:
430,258,176290,6,0,B|397:206|421:141,1,110.000003356934,4|0,1:2|0:0,0:0:0:0:
377,113,176852,1,10,1:3:0:0:
329,85,177040,2,0,L|211:98,1,110.000003356934,6|6,0:3|0:3,0:0:0:0:
123,149,177790,2,0,B|96:108|114:53,2,82.5000025177003,6|2|10,0:3|1:3|1:3,0:0:0:0:
174,168,178540,2,0,B|223:210|206:276,1,110.000003356934,6|0,0:3|0:0,0:0:0:0:
182,315,179102,1,10,1:3:0:0:
163,366,179290,6,0,B|240:398|315:331|293:244,1,220.000006713867,6|4,0:3|0:3,0:0:0:0:
403,260,180415,1,4,1:3:0:0:
479,181,180790,5,4,0:2:0:0:
310,39,181540,1,4,0:2:0:0:
157,197,182290,2,0,B|185:239|180:294,2,82.5000025177003,4|10|10,0:2|1:3|1:3,0:0:0:0:
104,213,183040,2,0,B|40:178|68:104,1,110.000003356934,6|6,1:3|1:3,0:0:0:0:
95,77,183602,1,14,1:3:0:0:
134,38,183790,6,0,L|230:51,1,82.5000025177003,4|6,1:2|1:3,0:0:0:0:
247,124,184352,1,6,1:3:0:0:
247,124,184540,2,0,L|343:137,1,82.5000025177003,4|10,1:1|1:3,0:0:0:0:
371,205,185102,1,14,1:3:0:0:
371,205,185290,2,0,B|390:305|269:379|181:311,1,275.000008392334,4|0,1:2|0:0,0:0:0:0:
136,338,186415,2,0,B|99:296|100:264|109:217,1,110.000003356934,0|4,0:0|1:0,0:0:0:0:
296,177,187540,1,4,1:2:0:0:
452,161,188290,6,0,B|475:122|464:74,2,82.5000025177003,4|2|10,1:2|1:3|1:3,0:0:0:0:
409,196,189040,2,0,B|357:169|298:187,1,110.000003356934,6|6,0:3|0:3,0:0:0:0:
257,154,189602,1,10,1:3:0:0:
211,122,189790,2,0,B|192:82|207:35,2,82.5000025177003,4|2|10,0:2|1:3|1:3,0:0:0:0:
155,122,190540,1,6,0:3:0:0:
186,227,190915,1,4,0:3:0:0:
137,325,191290,2,0,B|229:313|203:349|300:333,1,165.000005035401,6|0,0:3|0:0,0:0:0:0:
338,294,192040,2,0,B|304:234|336:182,1,110.000003356934,4|4,0:3|1:3,0:0:0:0:
429,138,192790,5,4,0:2:0:0:
294,43,193352,1,10,1:3:0:0:
294,43,193540,1,4,0:2:0:0:
152,127,194102,1,10,1:3:0:0:
152,127,194290,2,0,B|119:90|137:31,2,82.5000025177003,4|10|10,0:2|1:3|1:3,0:0:0:0:
202,148,195040,2,0,B|150:198|171:259,1,110.000003356934,6|4,1:3|1:2,0:0:0:0:
195,294,195602,1,14,1:3:0:0:
230,335,195790,6,0,L|336:322,1,82.5000025177003,4|6,1:2|1:3,0:0:0:0:
377,274,196352,1,6,1:3:0:0:
377,274,196540,2,0,L|402:192,1,82.5000025177003,4|10,1:1|1:3,0:0:0:0:
357,125,197102,1,14,1:3:0:0:
357,125,197290,1,4,1:2:0:0:
256,192,197383,12,4,198790,1:2:0:0:
