osu file format v14

[General]
AudioFilename: audio.mp3
AudioLeadIn: 0
PreviewTime: 784
Countdown: 0
SampleSet: Soft
StackLeniency: 0.7
Mode: 0
LetterboxInBreaks: 0
WidescreenStoryboard: 0

[Editor]
Bookmarks: 12784,18784,30784,42784,54784,66784,78784,90784,102780,114784,126780,138784,150780,162780,198780
DistanceSpacing: 1
BeatDivisor: 2
GridSize: 4
TimelineZoom: 3.499999

[Metadata]
Title:Reverse Ideology
TitleUnicode:リバースイデオロギー
Artist:ZUN
ArtistUnicode:ZUN
Creator:Luscent
Version:Extra
Source:東方輝針城 ~ Double Dealing Character.
Tags:Dailycare nanoya Corsace 2023 co23 KO2 DT2 東方project Touhou Project th14 DDC 鬼人正邪 Seija Kijin 旧約酒場 ~ Dateless Bar “Old Adam” Old Testament Tavern ZUN's Music Collection vol.9 instrumental video game electronic
BeatmapID:4283937
BeatmapSetID:2051416

[Difficulty]
HPDrainRate:5
CircleSize:4
OverallDifficulty:8
ApproachRate:8
SliderMultiplier:1.7
SliderTickRate:1

[Events]
//Background and Video events
0,0,"seija.jpg",0,0
//Break Periods
2,102990,114040
//Storyboard Layer 0 (Background)
//Storyboard Layer 1 (Fail)
//Storyboard Layer 2 (Pass)
//Storyboard Layer 3 (Foreground)
//Storyboard Layer 4 (Overlay)
//Storyboard Sound Samples

[TimingPoints]
790,375,4,2,1,80,1,0
12790,-125,4,2,1,80,0,0
18790,-100,4,2,1,80,0,0
42790,-133.333333333333,4,2,1,80,0,0
54790,-100,4,3,1,80,0,0
90790,-100,4,3,1,80,0,1
102790,-100,4,3,1,80,0,0
114790,-133.333333333333,4,3,1,80,0,0
126790,-100,4,3,1,80,0,0
162790,-100,4,3,1,80,0,1
174790,-133.333333333333,4,3,1,80,0,0
176290,-100,4,3,1,80,0,1
186790,-100,4,3,1,80,0,0
188290,-100,4,3,1,80,0,1
198790,-100,4,3,1,80,0,0

[Colours]
Combo1 : 252,102,95
Combo2 : 243,214,122
Combo3 : 249,176,155

[HitObjects]
47,81,790,5,4,3:2:0:0:
29,119,883,1,0,3:0:0:0:
33,161,977,1,0,3:0:0:0:
60,193,1071,1,0,3:0:0:0:
99,209,1165,1,0,3:0:0:0:
72,354,1352,5,4,1:2:0:0:
102,323,1446,1,0,3:0:0:0:
140,304,1540,1,0,3:0:0:0:
180,294,1633,1,0,3:0:0:0:
222,295,1727,1,0,3:0:0:0:
296,223,1915,5,0,3:0:0:0:
316,226,2008,1,0,3:0:0:0:
337,229,2102,1,0,1:0:0:0:
443,269,2290,5,4,1:2:0:0:
427,229,2383,1,0,3:0:0:0:
430,186,2477,1,0,3:0:0:0:
447,147,2571,1,0,3:0:0:0:
478,117,2665,1,0,3:0:0:0:
322,12,2852,5,4,1:2:0:0:
281,26,2946,1,0,3:0:0:0:
256,60,3040,1,0,3:0:0:0:
251,101,3133,1,0,1:0:0:0:
270,139,3227,1,0,1:0:0:0:
155,216,3415,5,0,1:0:0:0:
196,223,3508,1,0,1:0:0:0:
236,236,3602,1,0,1:0:0:0:
270,261,3696,1,0,1:0:0:0:
295,295,3790,5,4,1:2:0:0:
334,281,3883,1,0,3:0:0:0:
359,246,3977,1,0,3:0:0:0:
370,204,4071,1,0,3:0:0:0:
355,163,4165,1,0,3:0:0:0:
155,216,4352,5,4,1:2:0:0:
132,251,4445,1,0,3:0:0:0:
134,294,4539,1,0,3:0:0:0:
151,333,4633,1,0,3:0:0:0:
188,356,4727,1,0,3:0:0:0:
270,280,4915,5,0,3:0:0:0:
268,258,5008,1,0,3:0:0:0:
263,237,5102,1,0,1:0:0:0:
227,135,5290,5,4,1:2:0:0:
187,150,5383,1,0,3:0:0:0:
144,156,5477,1,0,3:0:0:0:
101,150,5571,1,0,3:0:0:0:
63,130,5665,1,0,3:0:0:0:
15,284,5852,5,4,1:2:0:0:
55,271,5946,1,0,3:0:0:0:
97,268,6040,1,0,3:0:0:0:
137,279,6133,1,0,1:0:0:0:
174,299,6227,1,0,3:0:0:0:
212,318,6321,1,0,3:0:0:0:
253,325,6415,1,0,1:0:0:0:
294,318,6508,1,0,1:0:0:0:
310,130,6696,1,0,1:0:0:0:
285,108,6790,5,4,1:2:0:0:
247,126,6883,1,0,3:0:0:0:
226,163,6977,1,2,3:0:0:0:
226,205,7071,1,0,3:0:0:0:
246,242,7165,1,0,1:0:0:0:
397,372,7352,5,4,1:2:0:0:
414,332,7446,1,0,3:0:0:0:
407,289,7540,1,2,3:0:0:0:
385,252,7633,1,0,3:0:0:0:
344,239,7727,1,0,1:0:0:0:
245,150,7915,5,0,3:0:0:0:
213,155,8008,1,0,3:0:0:0:
181,161,8102,1,0,3:0:0:0:
150,168,8196,1,0,3:0:0:0:
117,187,8290,5,4,1:2:0:0:
81,164,8383,1,0,3:0:0:0:
62,125,8477,1,2,3:0:0:0:
64,82,8571,1,0,3:0:0:0:
91,49,8665,1,0,1:0:0:0:
20,247,8852,5,4,1:2:0:0:
59,262,8946,1,0,3:0:0:0:
92,288,9040,1,2,3:0:0:0:
116,322,9133,1,0,3:0:0:0:
129,362,9227,1,0,1:0:0:0:
265,310,9415,5,0,1:0:0:0:
297,299,9508,1,0,3:0:0:0:
330,299,9602,1,0,1:0:0:0:
363,307,9696,1,0,3:0:0:0:
401,327,9790,5,4,1:2:0:0:
437,305,9883,1,0,3:0:0:0:
458,268,9977,1,2,3:0:0:0:
455,225,10071,1,0,3:0:0:0:
435,187,10165,1,0,1:0:0:0:
302,73,10352,5,4,1:2:0:0:
274,104,10445,1,0,3:0:0:0:
266,145,10539,1,2,3:0:0:0:
285,182,10633,1,0,3:0:0:0:
321,204,10727,1,0,1:0:0:0:
230,297,10915,5,0,1:0:0:0:
200,280,11008,1,0,3:0:0:0:
166,271,11102,1,0,1:0:0:0:
132,270,11196,1,0,3:0:0:0:
89,283,11290,5,4,1:2:0:0:
44,259,11383,1,2,3:0:0:0:
33,208,11477,1,2,1:3:0:0:
61,165,11571,1,0,3:0:0:0:
110,152,11665,1,8,1:3:0:0:
156,172,11758,1,8,3:3:0:0:
205,182,11852,1,4,1:2:0:0:
249,157,11946,1,4,3:3:0:0:
272,111,12040,1,8,1:3:0:0:
256,63,12133,1,4,3:3:0:0:
216,31,12227,1,4,3:3:0:0:
166,44,12321,1,4,3:3:0:0:
155,76,12415,5,6,3:3:0:0:
163,99,12508,1,6,3:3:0:0:
180,111,12602,1,8,1:3:0:0:
332,240,12790,6,0,P|334:189|345:139,2,102,4|2|6,1:2|3:3|3:2,0:0:0:0:
353,360,13540,2,0,P|293:345|198:347,1,136,0|0,1:2|1:0,0:0:0:0:
191,325,14008,1,0,1:0:0:0:
176,294,14102,1,0,1:0:0:0:
174,259,14196,1,0,1:0:0:0:
184,226,14290,5,4,1:2:0:0:
21,84,14571,2,0,P|34:140|38:202,1,102,2|6,3:0|1:2,0:0:0:0:
85,303,15040,1,0,3:0:0:0:
85,303,15133,1,0,1:0:0:0:
85,303,15227,1,0,3:0:0:0:
216,214,15415,1,0,1:0:0:0:
255,205,15508,1,0,3:0:0:0:
295,203,15602,1,2,3:3:0:0:
335,205,15696,1,0,1:0:0:0:
375,209,15790,6,0,P|415:233|485:257,2,102,4|2|4,1:2|3:0|1:2,0:0:0:0:
262,59,16540,1,0,1:2:0:0:
295,203,16821,1,2,3:0:0:0:
196,329,17102,1,0,3:0:0:0:
0,232,17290,6,0,P|50:247|147:243,1,136,4|0,1:2|0:0,0:0:0:0:
295,203,17852,1,0,1:0:0:0:
302,176,17946,1,0,1:0:0:0:
306,148,18040,1,4,1:2:0:0:
307,121,18133,1,0,3:0:0:0:
304,93,18227,1,0,1:0:0:0:
105,20,18415,1,4,1:2:0:0:
88,52,18508,1,0,1:0:0:0:
84,89,18602,1,0,1:0:0:0:
88,126,18696,1,0,1:0:0:0:
102,160,18790,5,4,1:2:0:0:
144,268,18977,1,2,1:3:0:0:
59,378,19165,1,0,3:0:0:0:
59,378,19258,1,0,3:0:0:0:
59,378,19352,1,2,1:3:0:0:
166,300,19540,1,0,3:0:0:0:
312,341,19727,1,2,1:3:0:0:
312,341,19821,2,0,P|308:275|316:205,1,127.5,0|2,3:0|1:3,0:0:0:0:
175,93,20290,6,0,P|202:106|270:107,1,85,0|2,3:0|1:3,0:0:0:0:
403,156,20665,1,0,3:0:0:0:
436,130,20758,1,0,3:0:0:0:
457,93,20852,1,2,1:3:0:0:
460,50,20946,1,0,3:0:0:0:
449,8,21040,1,0,1:0:0:0:
335,112,21227,1,2,1:3:0:0:
335,112,21321,1,0,3:0:0:0:
458,226,21508,1,0,3:0:0:0:
458,226,21602,1,2,1:3:0:0:
325,194,21790,5,0,3:0:0:0:
224,280,21977,1,2,1:3:0:0:
103,233,22165,1,0,3:0:0:0:
103,233,22258,1,0,3:0:0:0:
103,233,22352,1,2,1:3:0:0:
67,351,22540,1,0,3:0:0:0:
221,311,22727,1,2,1:3:0:0:
221,311,22821,2,0,P|286:301|374:301,1,127.5,0|2,3:0|1:3,0:0:0:0:
483,331,23290,6,0,P|469:288|469:218,1,85,0|2,3:0|1:3,0:0:0:0:
472,139,23665,1,0,3:0:0:0:
433,121,23758,1,0,3:0:0:0:
390,118,23852,1,2,1:3:0:0:
348,128,23946,1,0,3:0:0:0:
310,147,24040,1,8,1:3:0:0:
270,160,24133,1,4,3:0:0:0:
227,158,24227,1,2,3:0:0:0:
190,136,24321,1,4,1:3:0:0:
175,87,24415,5,4,3:3:0:0:
197,41,24508,1,0,1:0:0:0:
243,20,24602,1,6,1:3:0:0:
292,31,24696,1,8,1:3:0:0:
326,68,24790,1,4,1:2:0:0:
191,200,24977,5,2,1:3:0:0:
63,141,25165,1,0,3:0:0:0:
63,141,25258,1,0,3:0:0:0:
63,141,25352,2,0,P|47:86|52:23,1,85,2|0,1:3|3:0,0:0:0:0:
224,112,25727,1,2,1:3:0:0:
227,154,25821,1,0,3:0:0:0:
221,196,25915,1,0,3:0:0:0:
206,235,26008,1,0,3:0:0:0:
176,265,26102,1,2,1:3:0:0:
93,352,26290,5,0,3:0:0:0:
268,289,26477,1,2,1:3:0:0:
131,193,26665,1,0,3:0:0:0:
131,193,26758,1,0,3:0:0:0:
131,193,26852,1,2,1:3:0:0:
246,317,27040,5,0,3:0:0:0:
383,282,27227,1,2,1:3:0:0:
383,282,27321,1,0,3:2:0:0:
354,166,27508,1,0,3:2:0:0:
354,166,27602,2,0,P|349:222|356:267,1,85,2|0,1:3|3:0,0:0:0:0:
482,357,27977,6,0,P|479:314|481:272,1,85,2|0,1:3|3:0,0:0:0:0:
450,153,28352,1,2,1:3:0:0:
311,214,28540,1,0,3:0:0:0:
217,132,28727,1,2,1:3:0:0:
217,132,28821,1,0,3:0:0:0:
260,296,29008,1,0,3:0:0:0:
260,296,29102,1,2,1:3:0:0:
419,229,29290,2,0,P|370:234|321:236,1,85,0|2,0:0|1:3,0:0:0:0:
144,314,29665,5,8,0:3:0:0:
127,279,29758,1,8,0:3:0:0:
123,240,29852,1,6,1:3:0:0:
131,202,29946,1,4,0:3:0:0:
153,170,30040,1,8,1:3:0:0:
167,135,30133,1,4,1:3:0:0:
162,96,30227,1,6,1:3:0:0:
138,65,30321,1,12,0:3:0:0:
101,52,30415,1,8,1:3:0:0:
65,65,30508,1,0,1:0:0:0:
41,95,30602,1,0,1:0:0:0:
39,133,30696,1,4,1:3:0:0:
61,163,30790,5,6,1:2:0:0:
251,266,30977,1,2,1:3:0:0:
279,234,31071,1,0,1:0:0:0:
298,195,31165,1,0,3:0:0:0:
294,152,31258,1,0,3:0:0:0:
281,111,31352,1,2,1:3:0:0:
360,306,31540,5,2,1:2:0:0:
360,306,31633,1,0,3:0:0:0:
189,185,31821,1,2,1:2:0:0:
189,185,31915,1,0,3:0:0:0:
365,83,32102,1,2,1:2:0:0:
365,83,32196,1,0,3:0:0:0:
365,83,32290,1,0,3:0:0:0:
315,198,32477,5,2,1:3:0:0:
230,325,32665,1,0,3:0:0:0:
270,314,32758,1,0,3:0:0:0:
312,317,32852,1,2,1:3:0:0:
351,332,32946,1,0,3:0:0:0:
390,347,33040,5,2,1:2:0:0:
419,317,33133,1,0,3:2:0:0:
433,276,33227,1,2,1:3:0:0:
427,233,33321,1,2,1:2:0:0:
401,198,33415,1,0,3:2:0:0:
381,160,33508,1,0,3:2:0:0:
379,117,33602,1,2,1:2:0:0:
394,77,33696,1,0,3:2:0:0:
428,52,33790,5,0,3:0:0:0:
231,166,33977,1,2,1:3:0:0:
191,150,34071,1,0,3:0:0:0:
163,117,34165,1,0,3:0:0:0:
152,76,34258,1,0,3:0:0:0:
163,34,34352,1,2,1:3:0:0:
197,249,34540,5,2,1:2:0:0:
197,249,34633,1,0,3:0:0:0:
268,75,34821,1,2,1:2:0:0:
268,75,34915,1,0,3:0:0:0:
62,140,35102,1,2,1:2:0:0:
62,140,35196,1,0,3:0:0:0:
62,140,35290,1,0,3:0:0:0:
178,158,35477,5,2,1:3:0:0:
304,223,35665,1,0,3:0:0:0:
293,182,35758,1,0,3:0:0:0:
292,139,35852,1,2,1:3:0:0:
297,96,35946,1,0,3:0:0:0:
310,55,36040,1,4,3:2:0:0:
511,183,36227,5,2,3:3:0:0:
498,223,36321,1,0,1:0:0:0:
469,254,36415,1,0,1:0:0:0:
435,279,36508,1,0,1:0:0:0:
393,288,36602,1,2,1:3:0:0:
350,283,36696,1,0,1:0:0:0:
314,259,36790,1,4,1:2:0:0:
135,343,36977,5,2,1:3:0:0:
284,279,37165,1,0,3:0:0:0:
284,279,37258,1,0,3:0:0:0:
284,279,37352,1,2,1:3:0:0:
206,141,37540,1,2,1:2:0:0:
377,366,37727,1,2,3:3:0:0:
377,366,37821,2,0,P|374:302|382:216,1,127.5,2|2,1:2|1:2,0:0:0:0:
495,109,38290,6,0,P|456:126|414:128,1,85,0|2,3:0|1:3,0:0:0:0:
249,0,38665,1,0,3:2:0:0:
225,34,38758,1,0,3:0:0:0:
217,75,38852,1,2,1:3:0:0:
222,117,38946,1,0,3:0:0:0:
242,154,39040,1,2,1:2:0:0:
169,261,39227,1,2,3:3:0:0:
169,261,39321,2,0,P|229:249|316:253,1,127.5,2|2,1:2|1:2,0:0:0:0:
512,224,39790,5,0,0:0:0:0:
441,377,39977,1,2,1:3:0:0:
287,332,40165,1,0,3:0:0:0:
287,332,40258,1,0,3:0:0:0:
287,332,40352,1,2,1:3:0:0:
371,237,40540,1,0,1:0:0:0:
378,195,40633,1,0,1:0:0:0:
372,152,40727,1,2,1:3:0:0:
354,113,40821,1,2,3:2:0:0:
323,83,40915,5,0,3:2:0:0:
117,220,41102,1,2,1:3:0:0:
117,220,41196,1,0,3:0:0:0:
117,220,41290,2,0,P|171:229|234:224,1,85,0|2,3:0|1:3,0:0:0:0:
306,354,41665,1,8,3:0:0:0:
341,324,41758,1,8,3:0:0:0:
383,304,41852,1,4,1:0:0:0:
428,290,41946,1,4,3:0:0:0:
474,287,42040,5,6,1:2:0:0:
413,50,42321,1,2,1:2:0:0:
81,93,42602,1,0,1:0:0:0:
81,93,42696,1,0,1:0:0:0:
81,93,42790,6,0,B|133:176|256:145,1,191.250007295609,6|2,1:2|0:2,0:0:0:0:
346,186,43540,2,0,P|341:129|351:71,2,95.6250036478044,4|2|0,1:2|0:0|1:2,0:0:0:0:
279,274,44290,2,0,B|399:259|453:361,1,191.250007295609,6|2,1:2|1:2,0:0:0:0:
508,247,45040,1,0,1:3:0:0:
503,212,45133,1,0,1:3:0:0:
505,176,45227,1,0,1:0:0:0:
291,139,45415,5,0,1:0:0:0:
291,139,45508,1,0,1:0:0:0:
291,139,45602,1,0,1:0:0:0:
291,139,45696,1,0,1:0:0:0:
291,139,45790,2,0,P|272:69|277:20,2,95.6250036478044,6|2|0,1:2|0:0|1:0,0:0:0:0:
328,253,46540,2,0,B|301:294|255:313,2,95.6250036478044,4|2|0,1:2|0:0|1:0,0:0:0:0:
405,164,47290,2,0,B|462:169|519:213,2,95.6250036478044,4|2|4,1:2|0:0|1:2,0:0:0:0:
370,67,48040,1,0,1:0:0:0:
370,67,48133,1,0,1:0:0:0:
370,67,48227,1,0,1:0:0:0:
84,168,48415,5,0,1:0:0:0:
84,168,48508,1,0,1:0:0:0:
84,168,48602,1,0,1:0:0:0:
84,168,48696,1,0,1:0:0:0:
84,168,48790,2,0,B|64:113|83:50,1,95.6250036478044,6|0,1:2|0:0,0:0:0:0:
219,243,49258,1,0,3:0:0:0:
219,243,49352,1,0,1:0:0:0:
55,352,49540,6,0,P|104:337|163:334,1,95.6250036478044,4|0,1:2|0:0,0:0:0:0:
239,378,49915,1,0,3:0:0:0:
238,349,50008,1,0,3:0:0:0:
239,320,50102,1,0,3:0:0:0:
241,291,50196,1,0,3:0:0:0:
245,262,50290,5,4,1:2:0:0:
455,322,50571,1,0,3:0:0:0:
298,188,50852,1,4,1:2:0:0:
377,379,51040,5,0,3:0:0:0:
377,379,51133,1,0,3:0:0:0:
377,379,51227,1,0,1:0:0:0:
512,261,51415,5,0,1:0:0:0:
512,261,51508,1,0,1:0:0:0:
512,261,51602,1,0,1:0:0:0:
512,261,51696,1,0,1:0:0:0:
512,261,51790,2,0,P|508:202|512:147,1,95.6250036478044,6|0,1:2|0:0,0:0:0:0:
485,132,52165,1,2,0:0:0:0:
312,240,52352,1,0,1:0:0:0:
312,240,52446,1,0,1:0:0:0:
312,240,52540,2,0,P|260:262|204:260,1,95.6250036478044,4|0,1:2|0:0,0:0:0:0:
195,295,52915,1,2,0:0:0:0:
22,214,53102,5,0,1:0:0:0:
22,214,53196,1,0,1:0:0:0:
22,214,53290,2,0,P|17:143|26:68,1,127.500004863739,4|2,1:2|0:0,0:0:0:0:
201,17,53852,1,0,3:0:0:0:
229,38,53946,1,0,3:0:0:0:
248,68,54040,1,6,1:2:0:0:
258,102,54133,1,0,3:0:0:0:
259,137,54227,1,0,3:0:0:0:
151,286,54415,5,6,1:2:0:0:
187,260,54508,1,0,1:0:0:0:
230,249,54602,1,0,1:0:0:0:
274,247,54696,1,0,1:0:0:0:
318,252,54790,1,6,1:2:0:0:
441,129,54977,5,2,1:3:0:0:
471,158,55071,1,0,1:0:0:0:
485,198,55165,1,0,0:0:0:0:
487,240,55258,1,0,3:0:0:0:
471,279,55352,1,2,1:3:0:0:
360,376,55540,1,0,1:3:0:0:
360,376,55633,1,0,0:0:0:0:
218,308,55821,1,2,1:3:0:0:
218,273,55915,1,0,0:0:0:0:
218,239,56008,1,0,0:0:0:0:
220,205,56102,1,2,1:3:0:0:
73,184,56290,5,0,0:0:0:0:
284,110,56477,1,2,1:3:0:0:
284,110,56571,1,0,0:0:0:0:
284,110,56665,1,0,0:0:0:0:
174,16,56852,1,2,1:3:0:0:
297,190,57040,1,2,1:3:0:0:
297,190,57133,1,0,0:0:0:0:
502,137,57321,1,2,1:3:0:0:
502,137,57415,2,0,P|498:85|501:46,1,85,0|2,0:0|1:3,0:0:0:0:
460,280,57790,5,0,0:0:0:0:
324,214,57977,1,2,1:3:0:0:
281,217,58071,1,0,0:0:0:0:
242,234,58165,1,0,0:0:0:0:
214,265,58258,1,0,0:0:0:0:
197,304,58352,1,2,1:3:0:0:
183,154,58540,1,2,1:3:0:0:
183,154,58633,1,0,0:0:0:0:
6,191,58821,1,2,1:3:0:0:
37,204,58915,1,0,0:0:0:0:
69,213,59008,1,0,0:0:0:0:
102,217,59102,1,2,1:3:0:0:
154,374,59290,5,0,0:0:0:0:
309,330,59477,1,2,1:3:0:0:
309,330,59571,1,0,0:0:0:0:
309,330,59665,1,0,0:0:0:0:
267,186,59852,1,2,1:3:0:0:
435,235,60040,1,2,1:3:0:0:
435,235,60133,1,0,0:0:0:0:
241,217,60321,1,2,1:3:0:0:
241,217,60415,2,0,P|241:156|238:92,1,85,0|2,0:0|1:3,0:0:0:0:
159,19,60790,5,4,1:2:0:0:
9,75,60977,1,2,1:3:0:0:
18,116,61071,1,0,0:0:0:0:
49,144,61165,1,0,0:0:0:0:
88,158,61258,1,0,0:0:0:0:
130,158,61352,1,2,1:3:0:0:
180,272,61540,1,2,1:3:0:0:
180,272,61633,1,0,0:0:0:0:
300,207,61821,1,2,1:3:0:0:
300,241,61915,1,0,0:0:0:0:
301,274,62008,1,0,0:0:0:0:
301,308,62102,1,2,1:3:0:0:
192,365,62290,5,0,0:0:0:0:
389,285,62477,1,2,1:3:0:0:
389,285,62571,1,0,0:0:0:0:
389,285,62665,1,0,0:0:0:0:
230,175,62852,1,2,1:3:0:0:
351,85,63040,1,2,1:3:0:0:
351,85,63133,1,0,0:0:0:0:
245,257,63321,1,2,1:3:0:0:
245,257,63415,1,0,0:0:0:0:
72,197,63602,5,2,1:3:0:0:
72,197,63696,1,0,0:0:0:0:
72,197,63790,1,0,1:2:0:0:
164,341,63977,1,2,1:3:0:0:
166,158,64165,1,0,0:0:0:0:
61,298,64352,1,2,1:3:0:0:
245,257,64540,1,2,1:3:0:0:
245,257,64633,1,0,0:0:0:0:
412,342,64821,1,2,1:3:0:0:
412,342,64914,1,0,0:0:0:0:
349,180,65102,5,2,1:3:0:0:
349,180,65196,1,0,0:0:0:0:
349,180,65290,1,0,0:2:0:0:
210,287,65477,2,0,P|253:281|295:281,1,85,2|0,1:3|0:0,0:0:0:0:
466,209,65852,1,2,1:3:0:0:
350,74,66040,1,8,1:3:0:0:
326,108,66133,1,8,1:3:0:0:
328,150,66227,1,6,1:3:0:0:
186,209,66415,5,0,1:0:0:0:
232,227,66508,1,0,1:0:0:0:
267,263,66602,1,2,1:3:0:0:
292,307,66696,1,0,1:0:0:0:
295,357,66790,1,4,1:2:0:0:
478,264,66977,2,0,P|435:268|393:267,1,85,2|0,1:3|0:0,1:0:0:0:
121,317,67352,5,2,1:3:0:0:
267,263,67540,1,2,1:2:0:0:
290,227,67633,1,0,0:0:0:0:
290,184,67727,1,2,0:3:0:0:
280,139,67821,1,2,1:2:0:0:
251,107,67915,1,0,0:0:0:0:
47,140,68102,5,2,1:2:0:0:
47,140,68196,1,0,0:0:0:0:
47,140,68290,2,0,P|89:147|132:146,1,85,0|2,0:0|1:3,0:0:0:0:
282,222,68665,1,0,0:0:0:0:
402,116,68852,1,2,0:3:0:0:
248,24,69040,5,2,1:2:0:0:
225,59,69133,1,2,0:2:0:0:
216,100,69227,1,2,0:2:0:0:
219,142,69321,1,2,1:2:0:0:
237,180,69415,1,2,0:2:0:0:
262,213,69508,1,2,0:2:0:0:
281,251,69602,1,2,1:2:0:0:
290,292,69696,1,2,0:2:0:0:
286,334,69790,1,2,0:2:0:0:
112,366,69977,6,0,P|109:323|114:281,1,85,2|0,1:3|0:0,0:0:0:0:
202,165,70352,1,2,1:3:0:0:
356,236,70540,1,2,0:2:0:0:
381,202,70633,1,0,0:0:0:0:
392,160,70727,1,2,1:3:0:0:
391,117,70821,1,2,0:2:0:0:
375,77,70915,1,0,0:0:0:0:
191,256,71102,5,2,1:2:0:0:
191,256,71196,1,0,0:0:0:0:
191,256,71290,2,0,P|246:248|301:252,1,85,0|2,0:0|1:3,0:0:0:0:
403,334,71665,1,0,0:0:0:0:
512,186,71852,1,2,1:3:0:0:
373,81,72040,5,2,0:2:0:0:
347,114,72133,1,2,0:2:0:0:
338,155,72227,1,0,1:2:0:0:
340,197,72321,1,2,0:0:0:0:
356,236,72415,1,0,1:0:0:0:
313,218,72508,1,2,1:2:0:0:
266,213,72602,1,2,1:2:0:0:
219,221,72696,1,0,1:0:0:0:
180,247,72790,5,6,1:2:0:0:
59,348,72977,1,2,1:3:0:0:
27,318,73071,1,0,0:0:0:0:
14,277,73165,1,0,0:0:0:0:
18,234,73258,1,0,1:0:0:0:
44,200,73352,1,2,1:3:0:0:
212,360,73540,5,2,1:2:0:0:
212,360,73633,1,2,0:3:0:0:
154,103,73821,1,2,1:2:0:0:
154,103,73915,1,2,0:3:0:0:
426,184,74102,1,2,1:2:0:0:
356,328,74290,5,0,0:0:0:0:
282,256,74477,1,2,1:3:0:0:
333,173,74665,1,0,0:0:0:0:
333,173,74758,1,0,0:0:0:0:
333,173,74852,1,2,1:3:0:0:
438,273,75040,5,2,1:2:0:0:
438,273,75133,1,2,0:3:0:0:
348,57,75321,1,2,1:2:0:0:
348,57,75414,1,2,0:3:0:0:
172,185,75602,1,2,1:2:0:0:
68,161,75790,5,0,0:0:0:0:
93,310,75977,1,2,1:3:0:0:
250,260,76165,1,0,0:0:0:0:
250,260,76258,1,0,0:0:0:0:
250,260,76352,1,2,1:3:0:0:
416,306,76540,5,2,1:2:0:0:
408,264,76633,1,0,1:0:0:0:
406,221,76727,1,2,1:3:0:0:
406,178,76821,1,2,1:2:0:0:
410,135,76915,1,0,1:0:0:0:
319,40,77102,1,2,1:2:0:0:
167,78,77290,6,0,P|163:130|168:183,1,85,0|2,0:0|1:3,0:0:0:0:
110,340,77665,1,8,0:3:0:0:
146,330,77758,1,4,0:3:0:0:
184,327,77852,1,6,0:3:0:0:
222,329,77946,1,0,0:0:0:0:
263,347,78040,5,0,1:0:0:0:
291,315,78133,1,0,1:0:0:0:
299,273,78227,1,10,0:3:0:0:
289,231,78321,1,4,0:3:0:0:
265,195,78415,1,0,1:0:0:0:
245,157,78508,1,0,1:0:0:0:
250,114,78602,1,2,1:2:0:0:
273,78,78696,1,0,1:0:0:0:
313,64,78790,5,4,1:2:0:0:
391,308,79071,1,0,0:0:0:0:
133,200,79352,1,4,1:2:0:0:
250,364,79540,1,0,0:0:0:0:
250,364,79633,1,0,0:0:0:0:
250,364,79727,1,0,0:0:0:0:
418,330,79915,5,0,0:0:0:0:
444,297,80008,1,0,0:0:0:0:
459,257,80102,1,0,0:0:0:0:
463,214,80196,1,0,0:0:0:0:
450,173,80290,1,4,1:2:0:0:
299,205,80477,1,0,1:0:0:0:
299,205,80571,1,0,0:0:0:0:
193,84,80758,1,0,0:0:0:0:
193,84,80852,1,4,1:2:0:0:
175,284,81040,2,0,P|221:280|270:283,1,85
44,162,81415,5,0,0:0:0:0:
22,198,81508,1,0,0:0:0:0:
21,240,81602,1,0,0:0:0:0:
33,280,81696,1,0,0:0:0:0:
62,311,81790,1,4,1:2:0:0:
336,196,82071,1,0,0:0:0:0:
167,61,82352,1,4,1:2:0:0:
194,188,82540,1,0,3:2:0:0:
475,105,82915,5,0,0:0:0:0:
464,145,83008,1,0,0:0:0:0:
460,187,83102,1,0,0:0:0:0:
462,229,83196,1,0,0:0:0:0:
470,270,83290,1,4,1:2:0:0:
282,375,83665,1,0,0:0:0:0:
156,329,83852,5,4,1:2:0:0:
120,305,83945,1,0,1:0:0:0:
98,268,84039,1,0,1:2:0:0:
89,226,84133,1,0,1:0:0:0:
106,187,84227,1,0,1:0:0:0:
344,93,84415,5,4,1:2:0:0:
332,137,84508,1,0,1:0:0:0:
301,172,84602,1,0,1:0:0:0:
258,191,84696,1,0,1:0:0:0:
211,185,84790,1,4,1:2:0:0:
368,234,85071,1,0,0:0:0:0:
486,353,85352,1,4,1:2:0:0:
430,151,85540,5,0,1:2:0:0:
273,281,85727,1,0,0:0:0:0:
235,261,85820,1,0,0:0:0:0:
212,225,85914,1,0,0:0:0:0:
205,182,86008,1,0,0:0:0:0:
221,142,86102,1,0,3:2:0:0:
221,142,86196,1,0,3:2:0:0:
221,142,86290,5,4,1:2:0:0:
368,252,86571,1,0,0:0:0:0:
276,384,86852,1,4,1:2:0:0:
276,384,87040,1,0,1:2:0:0:
221,142,87415,5,0,1:0:0:0:
240,179,87508,1,0,1:0:0:0:
250,220,87602,1,0,1:0:0:0:
251,262,87696,1,0,1:0:0:0:
241,303,87790,1,4,1:2:0:0:
401,157,88071,1,0,0:0:0:0:
152,71,88352,1,0,1:2:0:0:
363,286,88540,5,4,1:2:0:0:
297,72,88821,1,0,0:0:0:0:
141,200,89102,1,0,1:0:0:0:
273,194,89290,5,4,1:2:0:0:
118,295,89852,5,4,1:2:0:0:
158,283,89946,1,0,1:0:0:0:
200,283,90040,1,0,1:0:0:0:
240,293,90133,1,0,1:0:0:0:
282,294,90227,1,0,1:0:0:0:
388,169,90415,5,4,1:2:0:0:
388,169,90508,1,0,1:0:0:0:
388,169,90602,1,0,1:0:0:0:
388,169,90696,1,0,1:0:0:0:
419,187,90790,5,4,1:2:0:0:
436,148,90883,1,0,0:0:0:0:
431,105,90977,1,10,1:3:0:0:
401,74,91071,1,2,1:3:0:0:
359,66,91165,1,4,0:0:0:0:
319,79,91258,1,0,0:0:0:0:
289,109,91352,1,10,1:3:0:0:
281,150,91446,1,0,0:0:0:0:
291,191,91540,1,6,0:3:0:0:
318,223,91633,1,0,0:0:0:0:
333,262,91727,1,10,1:3:0:0:
333,304,91821,1,8,1:3:0:0:
319,344,91915,1,4,0:3:0:0:
287,372,92008,1,0,0:0:0:0:
244,370,92102,1,10,1:3:0:0:
207,348,92196,1,0,1:0:0:0:
164,351,92290,5,6,1:3:0:0:
189,317,92383,1,0,0:0:0:0:
191,274,92477,1,10,1:3:0:0:
171,236,92571,1,2,1:3:0:0:
143,203,92665,1,4,0:0:0:0:
136,161,92758,1,0,0:0:0:0:
147,119,92852,1,10,1:3:0:0:
177,88,92946,1,0,0:0:0:0:
218,77,93040,1,6,0:3:0:0:
257,92,93133,1,8,0:0:0:0:
290,118,93227,1,8,1:3:0:0:
332,123,93321,1,4,0:0:0:0:
370,104,93415,2,0,P|402:106|437:107,3,42.5,6|0|10|4,0:3|0:0|1:3|0:0,0:0:0:0:
446,80,93790,5,6,0:3:0:0:
476,109,93883,1,0,0:0:0:0:
486,150,93977,1,10,1:3:0:0:
477,191,94071,1,2,1:3:0:0:
448,222,94165,1,4,0:3:0:0:
407,232,94258,1,4,0:0:0:0:
367,217,94352,1,10,1:3:0:0:
326,205,94446,1,0,0:0:0:0:
287,222,94540,1,6,0:3:0:0:
264,257,94633,1,8,0:0:0:0:
249,297,94727,1,10,1:3:0:0:
216,324,94821,1,6,1:3:0:0:
173,328,94915,1,4,0:3:0:0:
131,318,95008,1,4,0:3:0:0:
100,288,95102,1,10,1:3:0:0:
98,245,95196,1,0,0:0:0:0:
68,214,95290,5,6,0:3:0:0:
103,191,95383,1,8,0:0:0:0:
132,159,95477,1,10,1:3:0:0:
155,123,95571,1,4,0:0:0:0:
157,80,95665,1,4,0:3:0:0:
142,40,95758,1,0,0:0:0:0:
108,13,95852,1,10,1:3:0:0:
65,10,95946,1,0,0:0:0:0:
32,37,96040,1,4,0:3:0:0:
21,77,96133,1,8,0:0:0:0:
42,113,96227,1,14,1:3:0:0:
67,249,96415,5,4,1:3:0:0:
67,249,96508,1,8,1:3:0:0:
67,249,96602,1,12,1:3:0:0:
67,249,96696,1,12,1:3:0:0:
33,288,96790,5,4,0:2:0:0:
73,275,96883,1,4,0:0:0:0:
115,272,96977,1,10,1:3:0:0:
157,276,97071,1,2,1:3:0:0:
198,285,97165,1,4,0:3:0:0:
239,293,97258,1,4,0:0:0:0:
281,291,97352,1,10,1:3:0:0:
322,280,97446,1,0,0:0:0:0:
364,286,97540,1,6,0:3:0:0:
352,245,97633,1,8,0:0:0:0:
360,203,97727,1,10,1:3:0:0:
383,167,97821,1,10,1:3:0:0:
403,129,97915,1,4,0:3:0:0:
401,86,98008,1,0,0:0:0:0:
377,50,98102,1,10,1:3:0:0:
337,34,98196,1,4,0:0:0:0:
298,15,98290,5,6,0:3:0:0:
271,47,98383,1,0,0:0:0:0:
271,89,98477,1,10,1:3:0:0:
283,129,98571,1,10,1:3:0:0:
314,157,98665,1,4,0:3:0:0:
354,170,98758,1,4,0:0:0:0:
396,174,98852,1,10,1:3:0:0:
432,196,98946,1,0,0:0:0:0:
453,232,99040,1,6,1:3:0:0:
453,274,99133,1,8,1:3:0:0:
443,315,99227,1,14,1:3:0:0:
275,337,99415,5,6,1:3:0:0:
252,301,99508,1,4,1:3:0:0:
243,259,99602,1,14,1:3:0:0:
248,216,99696,1,12,1:3:0:0:
273,181,99790,1,4,1:2:0:0:
130,282,99977,1,8,3:3:0:0:
130,282,100071,1,6,1:3:0:0:
130,282,100165,2,0,P|79:297|32:301,1,85,12|6,3:0|1:3,0:0:0:0:
358,263,100540,5,4,1:1:0:0:
132,161,100727,1,6,1:3:0:0:
132,161,100821,1,10,1:3:0:0:
132,161,100915,2,4,P|117:106|122:47,1,85,12|14,0:3|1:3,0:3:0:0:
244,348,101290,1,4,1:2:0:0:
256,192,101477,12,4,102790,0:2:0:0:
132,178,114790,6,0,P|114:127|119:69,2,95.6250036478044,6|0|2,1:2|0:0|0:2,0:0:0:0:
100,315,115540,2,0,P|135:303|188:298,1,63.7500024318696,4|0,1:2|0:0,0:0:0:0:
302,226,115915,1,0,0:0:0:0:
324,247,116008,1,0,0:0:0:0:
340,274,116102,1,0,1:2:0:0:
349,304,116196,1,0,0:0:0:0:
355,335,116290,6,0,P|372:293|412:241,1,95.6250036478044,6|0,1:2|0:0,0:0:0:0:
498,152,116852,1,2,1:2:0:0:
379,74,117040,1,0,1:3:0:0:
379,74,117133,1,0,1:3:0:0:
379,74,117227,1,0,1:0:0:0:
512,246,117415,5,0,1:0:0:0:
487,56,117602,1,0,1:0:0:0:
345,177,117790,2,0,P|305:188|229:196,1,95.6250036478044,6|2,1:2|0:0,0:0:0:0:
141,97,118352,1,0,1:0:0:0:
59,261,118540,2,0,P|106:264|152:278,1,95.6250036478044,4|2,1:2|0:0,0:0:0:0:
287,351,119102,1,0,1:0:0:0:
398,273,119290,6,0,P|394:225|396:177,2,95.6250036478044,4|2|4,1:2|0:0|1:2,0:0:0:0:
167,198,120040,1,0,1:0:0:0:
150,164,120133,1,0,1:0:0:0:
151,125,120227,1,0,1:0:0:0:
383,79,120415,5,0,1:0:0:0:
379,122,120508,1,0,1:0:0:0:
354,160,120602,1,0,1:0:0:0:
315,184,120696,1,0,1:0:0:0:
269,185,120790,1,6,1:2:0:0:
428,345,121071,2,0,P|419:294|420:244,1,95.6250036478044,0|0,0:0|1:0,0:0:0:0:
268,302,121540,6,0,P|203:308|123:321,1,127.500004863739,4|0,1:2|3:0,0:0:0:0:
0,154,122290,2,0,B|35:213|112:193,1,127.500004863739,4|0,1:2|0:0,0:0:0:0:
306,155,122852,1,4,1:2:0:0:
205,40,123040,1,0,3:0:0:0:
205,40,123133,1,0,3:0:0:0:
205,39,123227,2,0,P|197:69|198:101,1,63.7500024318696,0|0,1:0|1:0,0:0:0:0:
289,266,123602,1,0,1:0:0:0:
466,210,123790,6,0,P|476:155|460:60,1,127.500004863739,6|2,1:2|0:0,0:0:0:0:
413,329,124352,1,0,1:0:0:0:
289,266,124540,2,0,P|225:270|148:310,1,127.500004863739,4|2,1:2|0:0,0:0:0:0:
132,278,125008,1,0,0:0:0:0:
108,247,125102,1,0,1:0:0:0:
98,209,125196,1,0,1:0:0:0:
105,171,125290,1,4,1:2:0:0:
323,31,125852,5,0,3:0:0:0:
365,45,125946,1,0,3:0:0:0:
397,75,126040,1,4,1:2:0:0:
418,113,126133,1,0,3:0:0:0:
424,157,126227,1,0,3:0:0:0:
512,270,126415,5,4,1:2:0:0:
467,268,126508,1,0,1:0:0:0:
422,266,126602,1,0,1:0:0:0:
377,265,126696,1,0,1:0:0:0:
332,264,126790,1,4,1:2:0:0:
166,137,126977,5,2,1:3:0:0:
136,166,127071,1,0,1:0:0:0:
122,206,127165,1,0,0:0:0:0:
120,248,127258,1,0,3:0:0:0:
136,287,127352,1,2,1:3:0:0:
247,384,127540,1,0,1:3:0:0:
247,384,127633,1,0,0:0:0:0:
389,316,127821,1,2,1:3:0:0:
389,281,127915,1,0,0:0:0:0:
389,247,128008,1,0,0:0:0:0:
387,213,128102,1,2,1:3:0:0:
512,187,128290,5,0,0:0:0:0:
301,113,128477,1,2,1:3:0:0:
301,113,128571,1,0,0:0:0:0:
301,113,128665,1,0,0:0:0:0:
411,19,128852,1,2,1:3:0:0:
288,193,129040,1,2,1:3:0:0:
288,193,129133,1,0,0:0:0:0:
83,140,129321,1,2,1:3:0:0:
83,140,129415,2,0,P|87:88|84:49,1,85,0|2,0:0|1:3,0:0:0:0:
28,277,129790,6,0,P|91:264|150:270,1,85,0|2,0:0|1:3,0:0:0:0:
258,320,130165,1,0,0:0:0:0:
258,320,130258,1,0,0:0:0:0:
258,320,130352,1,2,1:3:0:0:
329,175,130540,1,2,1:3:0:0:
329,175,130633,1,0,0:0:0:0:
506,220,130821,1,2,1:3:0:0:
475,233,130915,1,0,0:0:0:0:
443,242,131008,1,0,0:0:0:0:
410,246,131102,1,2,1:3:0:0:
364,374,131290,5,0,0:0:0:0:
209,330,131477,1,2,1:3:0:0:
209,330,131571,1,0,0:0:0:0:
209,330,131665,1,0,0:0:0:0:
251,186,131852,1,2,1:3:0:0:
83,235,132040,1,2,1:3:0:0:
83,235,132133,1,0,0:0:0:0:
277,217,132321,1,2,1:3:0:0:
277,217,132415,2,0,P|277:156|280:92,1,85,0|2,0:0|1:3,0:0:0:0:
359,19,132790,5,4,1:2:0:0:
509,75,132977,1,2,1:3:0:0:
500,116,133071,1,0,0:0:0:0:
469,144,133165,1,0,0:0:0:0:
430,158,133258,1,0,0:0:0:0:
388,158,133352,1,2,1:3:0:0:
338,272,133540,1,2,1:3:0:0:
338,272,133633,1,0,0:0:0:0:
218,207,133821,1,2,1:3:0:0:
218,241,133915,1,0,0:0:0:0:
217,274,134008,1,0,0:0:0:0:
217,308,134102,1,2,1:3:0:0:
326,365,134290,5,0,0:0:0:0:
129,285,134477,1,2,1:3:0:0:
129,285,134571,1,0,0:0:0:0:
129,285,134665,1,0,0:0:0:0:
288,175,134852,1,2,1:3:0:0:
167,85,135040,1,2,1:3:0:0:
167,85,135133,1,0,0:0:0:0:
273,257,135321,1,2,1:3:0:0:
273,257,135415,1,0,0:0:0:0:
446,197,135602,5,2,1:3:0:0:
446,197,135696,1,0,0:0:0:0:
446,197,135790,1,0,1:2:0:0:
354,341,135977,1,2,1:3:0:0:
336,164,136165,1,0,0:0:0:0:
457,298,136352,1,2,1:3:0:0:
273,257,136540,1,2,1:3:0:0:
273,257,136633,1,0,0:0:0:0:
106,342,136821,1,2,1:3:0:0:
106,342,136914,1,0,0:0:0:0:
169,180,137102,5,2,1:3:0:0:
169,180,137196,1,0,0:0:0:0:
169,180,137290,1,0,0:2:0:0:
308,287,137477,2,0,P|265:281|223:281,1,85,2|0,1:3|0:0,0:0:0:0:
52,209,137852,1,2,1:3:0:0:
168,74,138040,1,0,1:0:0:0:
192,108,138133,1,0,1:0:0:0:
190,150,138227,1,2,1:3:0:0:
332,209,138415,5,0,1:0:0:0:
286,227,138508,1,0,1:0:0:0:
251,263,138602,1,2,1:3:0:0:
226,307,138696,1,0,1:0:0:0:
223,357,138790,1,4,1:2:0:0:
22,283,138977,2,0,P|65:287|107:286,1,85,2|0,1:3|0:0,1:0:0:0:
397,317,139352,5,2,1:3:0:0:
251,263,139540,1,2,1:2:0:0:
228,227,139633,1,0,0:0:0:0:
228,184,139727,1,2,0:3:0:0:
238,139,139821,1,2,1:2:0:0:
267,107,139915,1,0,0:0:0:0:
470,141,140102,5,2,1:2:0:0:
470,141,140196,1,0,0:0:0:0:
471,140,140290,2,0,P|429:147|386:146,1,85,0|2,0:0|1:3,0:0:0:0:
236,222,140665,1,0,0:0:0:0:
116,116,140852,1,2,0:3:0:0:
270,24,141040,5,2,1:2:0:0:
293,59,141133,1,2,0:2:0:0:
302,100,141227,1,2,0:2:0:0:
299,142,141321,1,2,1:2:0:0:
281,180,141415,1,2,0:2:0:0:
256,213,141508,1,2,0:2:0:0:
237,251,141602,1,2,1:2:0:0:
228,292,141696,1,2,0:2:0:0:
232,334,141790,1,2,0:2:0:0:
406,366,141977,6,0,P|409:323|404:281,1,85,2|0,1:3|0:0,0:0:0:0:
316,165,142352,1,2,1:3:0:0:
162,236,142540,1,2,0:2:0:0:
137,202,142633,1,0,0:0:0:0:
126,160,142727,1,2,1:3:0:0:
127,117,142821,1,2,0:2:0:0:
143,77,142915,1,0,0:0:0:0:
327,256,143102,5,2,1:2:0:0:
327,256,143196,1,0,0:0:0:0:
327,256,143290,2,0,P|272:248|217:252,1,85,0|2,0:0|1:3,0:0:0:0:
115,334,143665,1,0,0:0:0:0:
6,186,143852,1,2,1:3:0:0:
145,81,144040,5,2,0:2:0:0:
171,114,144133,1,2,0:2:0:0:
180,155,144227,1,0,1:2:0:0:
178,197,144321,1,2,0:0:0:0:
162,236,144415,1,0,1:0:0:0:
205,218,144508,1,2,1:2:0:0:
252,213,144602,1,2,1:2:0:0:
299,221,144696,1,0,1:0:0:0:
338,247,144790,5,6,1:2:0:0:
459,348,144977,1,2,1:3:0:0:
491,318,145071,1,0,0:0:0:0:
504,277,145165,1,0,0:0:0:0:
500,234,145258,1,0,1:0:0:0:
474,200,145352,1,2,1:3:0:0:
306,360,145540,5,2,1:2:0:0:
306,360,145633,1,2,0:3:0:0:
364,103,145821,1,2,1:2:0:0:
364,103,145915,1,2,0:3:0:0:
92,184,146102,1,2,1:2:0:0:
162,328,146290,5,0,0:0:0:0:
236,256,146477,1,2,1:3:0:0:
185,173,146665,1,0,0:0:0:0:
185,173,146758,1,0,0:0:0:0:
185,173,146852,1,2,1:3:0:0:
80,273,147040,5,2,1:2:0:0:
80,273,147133,1,2,0:3:0:0:
170,57,147321,1,2,1:2:0:0:
170,57,147414,1,2,0:3:0:0:
346,185,147602,1,2,1:2:0:0:
450,161,147790,5,0,0:0:0:0:
425,310,147977,1,2,1:3:0:0:
268,260,148165,1,0,0:0:0:0:
268,260,148258,1,0,0:0:0:0:
268,260,148352,1,2,1:3:0:0:
102,306,148540,5,2,1:2:0:0:
110,264,148633,1,0,1:0:0:0:
112,221,148727,1,2,1:3:0:0:
112,178,148821,1,2,1:2:0:0:
108,135,148915,1,0,1:0:0:0:
199,40,149102,1,2,1:2:0:0:
351,78,149290,6,0,P|355:130|350:183,1,85,0|2,0:0|1:3,0:0:0:0:
410,330,149665,1,8,0:3:0:0:
370,320,149758,1,4,0:3:0:0:
328,316,149852,1,6,0:3:0:0:
286,318,149946,1,0,0:0:0:0:
255,347,150040,5,0,1:0:0:0:
227,315,150133,1,0,1:0:0:0:
219,273,150227,1,10,0:3:0:0:
229,231,150321,1,4,0:3:0:0:
253,195,150415,1,0,1:0:0:0:
273,157,150508,1,0,1:0:0:0:
268,114,150602,1,2,1:2:0:0:
245,78,150696,1,0,1:0:0:0:
205,64,150790,5,4,1:2:0:0:
28,218,150977,1,0,0:0:0:0:
28,218,151071,2,0,P|76:235|126:234,1,85
180,281,151352,1,4,1:2:0:0:
384,214,151540,2,0,P|381:171|384:129,1,85
136,25,151915,5,0,0:0:0:0:
113,60,152008,1,0,0:0:0:0:
109,102,152102,1,0,0:0:0:0:
121,142,152196,1,0,0:0:0:0:
153,169,152290,1,4,1:2:0:0:
263,333,152477,1,0,1:0:0:0:
263,333,152571,1,0,0:0:0:0:
263,333,152665,1,0,0:0:0:0:
286,120,152852,1,4,1:2:0:0:
76,272,153040,6,0,P|122:259|173:258,1,85
360,287,153415,1,0,0:0:0:0:
394,262,153508,1,0,0:0:0:0:
416,225,153602,1,0,0:0:0:0:
424,183,153696,1,0,0:0:0:0:
412,142,153790,1,4,1:2:0:0:
448,355,153977,5,0,0:0:0:0:
448,355,154071,1,0,0:0:0:0:
448,355,154165,1,0,0:0:0:0:
332,253,154352,1,4,1:2:0:0:
171,256,154540,2,0,P|162:203|163:148,1,85,0|0,3:2|0:0,0:0:0:0:
146,23,154915,5,0,0:0:0:0:
123,58,155008,1,0,0:0:0:0:
88,83,155102,1,0,0:0:0:0:
46,94,155196,1,0,0:0:0:0:
4,86,155290,1,4,1:2:0:0:
98,290,155665,1,0,0:0:0:0:
247,233,155852,5,4,1:2:0:0:
275,264,155946,1,0,1:0:0:0:
287,304,156040,1,0,1:0:0:0:
288,346,156133,1,0,1:0:0:0:
268,384,156227,1,0,1:0:0:0:
425,299,156415,5,4,1:2:0:0:
395,265,156509,1,0,1:0:0:0:
382,223,156603,1,0,1:0:0:0:
381,178,156696,1,0,1:0:0:0:
402,137,156790,1,4,1:2:0:0:
163,246,156977,1,0,0:0:0:0:
163,246,157071,1,0,0:0:0:0:
163,246,157165,2,0,P|209:236|263:233,1,85,0|4,0:0|0:2,0:0:0:0:
345,64,157540,5,0,1:2:0:0:
105,185,157727,1,0,0:0:0:0:
105,185,157821,1,0,0:0:0:0:
105,185,157915,2,0,P|151:195|205:198,1,85,0|0,0:0|3:2,0:0:0:0:
445,265,158290,2,0,P|461:201|447:116,1,127.5,4|0,1:2|0:0,0:0:0:0:
455,140,158665,1,0,0:0:0:0:
487,351,158852,1,4,1:2:0:0:
347,272,159040,1,4,0:2:0:0:
347,272,159133,1,0,1:0:0:0:
347,272,159227,1,0,3:0:0:0:
215,304,159415,5,4,1:2:0:0:
177,309,159508,1,0,1:0:0:0:
138,312,159602,1,0,1:0:0:0:
99,311,159696,1,0,1:0:0:0:
66,331,159790,6,0,P|65:273|55:181,1,127.5,4|0,1:2|0:0,0:0:0:0:
58,203,160165,1,0,0:0:0:0:
234,115,160352,1,4,1:2:0:0:
234,115,160446,1,0,1:0:0:0:
234,115,160540,1,0,1:2:0:0:
97,68,160727,5,0,1:0:0:0:
230,219,160915,2,0,P|307:193|420:190,1,170,4|4,1:2|1:2,0:0:0:0:
256,192,161383,12,0,162415,1:0:0:0:
94,207,162790,5,4,1:2:0:0:
73,170,162883,1,0,0:0:0:0:
80,128,162977,1,10,1:3:0:0:
109,97,163071,1,2,1:3:0:0:
150,89,163165,1,4,0:0:0:0:
189,104,163258,1,0,0:0:0:0:
212,139,163352,1,10,1:3:0:0:
218,181,163446,1,0,0:0:0:0:
200,219,163540,1,6,0:3:0:0:
177,254,163633,1,0,0:0:0:0:
177,296,163727,1,10,1:3:0:0:
195,334,163821,1,8,1:3:0:0:
233,352,163915,1,4,0:3:0:0:
274,347,164008,1,0,0:0:0:0:
309,322,164102,1,10,1:3:0:0:
319,280,164196,1,0,1:0:0:0:
356,280,164290,5,6,1:3:0:0:
340,240,164383,1,0,0:0:0:0:
336,197,164477,1,10,1:3:0:0:
347,155,164571,1,2,1:3:0:0:
373,121,164665,1,4,0:0:0:0:
379,79,164758,1,0,0:0:0:0:
365,38,164852,1,10,1:3:0:0:
329,14,164946,1,0,0:0:0:0:
286,16,165040,1,6,0:3:0:0:
251,40,165133,1,8,0:0:0:0:
236,80,165227,1,8,1:3:0:0:
246,121,165321,1,4,0:0:0:0:
267,157,165415,2,0,P|230:154|201:158,2,42.5,6|0|10,0:3|0:0|1:3,0:0:0:0:
154,260,165790,5,6,0:3:0:0:
192,242,165883,1,0,0:0:0:0:
234,239,165977,1,10,1:3:0:0:
276,245,166071,1,2,1:3:0:0:
316,258,166165,1,4,0:3:0:0:
357,262,166258,1,4,0:0:0:0:
398,251,166352,1,10,1:3:0:0:
439,239,166446,1,0,0:0:0:0:
478,256,166540,1,6,0:3:0:0:
461,217,166633,1,8,0:0:0:0:
464,174,166727,1,10,1:3:0:0:
477,133,166821,1,6,1:3:0:0:
485,91,166915,1,4,0:3:0:0:
470,51,167008,1,4,0:3:0:0:
435,26,167102,1,10,1:3:0:0:
392,24,167196,1,0,0:0:0:0:
350,14,167290,5,6,0:3:0:0:
322,46,167383,1,8,0:0:0:0:
314,88,167477,1,10,1:3:0:0:
320,130,167571,1,4,0:0:0:0:
346,163,167665,1,4,0:3:0:0:
236,227,167852,5,6,1:3:0:0:
273,247,167946,1,4,0:0:0:0:
304,275,168040,1,4,0:3:0:0:
326,310,168133,1,8,0:0:0:0:
335,351,168227,1,14,1:3:0:0:
470,292,168415,5,4,1:3:0:0:
496,254,168508,1,8,1:3:0:0:
503,207,168602,1,12,1:3:0:0:
494,160,168696,1,12,1:3:0:0:
466,121,168790,1,4,0:2:0:0:
344,93,168977,5,10,1:3:0:0:
306,113,169071,1,6,1:3:0:0:
264,123,169165,1,4,0:3:0:0:
221,120,169258,1,4,0:0:0:0:
181,103,169352,1,10,1:3:0:0:
144,80,169446,1,0,0:0:0:0:
101,73,169540,1,6,0:3:0:0:
2,181,169727,5,10,1:3:0:0:
2,223,169821,1,10,1:3:0:0:
22,260,169915,1,4,0:3:0:0:
52,288,170008,1,0,0:0:0:0:
90,305,170102,1,10,1:3:0:0:
129,288,170196,1,4,0:0:0:0:
171,282,170290,1,6,0:3:0:0:
270,211,170477,1,10,1:3:0:0:
312,213,170571,1,10,1:3:0:0:
354,214,170665,1,4,0:3:0:0:
455,289,170852,1,10,1:3:0:0:
456,114,171040,2,0,P|447:156|452:215,1,85,6|0,1:3|1:3,0:0:0:0:
287,352,171415,6,0,P|271:312|265:270,1,85,6|4,1:3|1:3,0:0:0:0:
44,180,171790,2,0,P|109:188|171:263,1,127.5,4|6,1:2|1:3,0:0:0:0:
155,226,172165,1,12,3:0:0:0:
389,125,172352,5,6,1:3:0:0:
255,37,172540,2,0,P|250:80|255:122,1,85,4|6,1:1|1:3,0:0:0:0:
155,226,172915,2,4,P|237:233|313:283,1,170,12|4,0:3|1:2,0:3:0:0:
256,192,173383,12,0,174415,0:0:0:0:
43,250,174790,6,0,B|139:234|117:297|232:280,1,191.250007295609,4|0,1:2|2:0,0:0:0:0:
385,337,175540,6,0,B|466:308|465:215|465:215|419:171,1,191.250007295609,4|0,1:2|2:0,0:0:0:0:
265,26,176290,5,4,1:2:0:0:
242,61,176383,1,0,0:0:0:0:
233,102,176477,1,10,1:3:0:0:
235,144,176571,1,2,1:3:0:0:
248,184,176665,1,4,0:0:0:0:
273,217,176758,1,0,0:0:0:0:
296,252,176852,1,10,1:3:0:0:
306,293,176946,1,0,0:0:0:0:
303,335,177040,5,6,0:3:0:0:
265,316,177133,1,8,0:0:0:0:
241,280,177227,1,8,1:3:0:0:
235,237,177321,1,4,0:0:0:0:
252,197,177415,1,6,0:3:0:0:
281,166,177508,1,0,0:0:0:0:
302,129,177602,1,10,1:3:0:0:
307,86,177696,1,4,0:0:0:0:
293,45,177790,5,6,0:3:0:0:
262,15,177883,1,0,0:0:0:0:
219,9,177977,1,10,1:3:0:0:
180,26,178071,1,2,1:3:0:0:
156,61,178165,1,4,0:3:0:0:
153,103,178258,1,4,0:0:0:0:
165,143,178352,1,10,1:3:0:0:
195,172,178446,1,0,0:0:0:0:
185,213,178540,5,6,0:3:0:0:
225,201,178633,1,8,0:0:0:0:
267,196,178727,1,10,1:3:0:0:
309,199,178821,1,6,1:3:0:0:
350,207,178915,1,4,0:3:0:0:
389,222,179008,1,4,0:3:0:0:
431,222,179102,1,10,1:3:0:0:
472,210,179196,1,0,0:0:0:0:
512,214,179290,6,0,P|509:182|510:149,3,42.5,6|8|10|4,0:3|0:0|1:3|0:0,0:0:0:0:
425,100,179665,2,0,P|428:132|427:165,3,42.5,4|0|10|0,0:3|0:0|1:3|0:0,0:0:0:0:
335,174,180040,2,0,P|332:142|333:109,2,42.5,4|8|14,0:3|0:0|1:3,0:0:0:0:
202,61,180415,5,4,1:3:0:0:
158,75,180508,1,8,1:3:0:0:
126,108,180602,1,12,1:3:0:0:
105,149,180696,1,12,1:3:0:0:
108,195,180790,1,4,0:2:0:0:
413,298,181071,2,0,P|408:238|415:160,1,127.5,4|0,1:3|1:3,0:0:0:0:
123,237,181540,5,4,0:2:0:0:
439,314,181821,2,0,P|434:254|441:176,1,127.5,8|0,1:3|1:3,0:0:0:0:
316,343,182290,5,4,0:2:0:0:
276,357,182383,1,0,0:0:0:0:
234,346,182477,1,10,1:3:0:0:
210,310,182571,1,10,1:3:0:0:
214,267,182665,1,4,0:3:0:0:
240,234,182758,1,4,0:0:0:0:
281,222,182852,1,10,1:3:0:0:
312,193,182946,1,0,0:0:0:0:
319,151,183040,1,6,1:3:0:0:
301,112,183133,1,8,1:3:0:0:
269,83,183227,1,14,1:3:0:0:
226,88,183321,1,0,0:0:0:0:
206,128,183415,1,6,1:3:0:0:
206,128,183508,1,4,1:3:0:0:
206,128,183602,1,14,1:3:0:0:
88,65,183790,5,4,1:2:0:0:
35,243,183977,1,8,3:3:0:0:
35,243,184071,1,6,1:3:0:0:
35,243,184165,2,0,P|97:234|159:234,1,85,12|6,3:0|1:3,0:0:0:0:
380,300,184540,5,4,1:1:0:0:
433,122,184727,1,6,1:3:0:0:
433,122,184821,1,10,1:3:0:0:
433,122,184915,2,4,P|371:131|309:131,1,85,12|14,0:3|1:3,0:3:0:0:
250,355,185290,5,4,1:2:0:0:
256,192,185383,12,4,186790,1:2:0:0:
256,192,187540,5,4,1:2:0:0:
68,212,188290,5,4,1:2:0:0:
35,239,188383,1,0,0:0:0:0:
29,281,188477,1,10,1:3:0:0:
44,320,188571,1,2,1:3:0:0:
79,344,188665,1,4,0:0:0:0:
121,349,188758,1,0,0:0:0:0:
157,327,188852,1,10,1:3:0:0:
178,290,188946,1,0,0:0:0:0:
174,247,189040,1,6,0:3:0:0:
155,209,189133,1,8,0:0:0:0:
132,173,189227,1,8,1:3:0:0:
130,130,189321,1,4,0:0:0:0:
150,92,189415,1,6,0:3:0:0:
186,70,189508,1,0,0:0:0:0:
228,67,189602,1,10,1:3:0:0:
265,87,189696,1,4,0:0:0:0:
297,59,189790,5,4,0:2:0:0:
318,95,189883,1,0,0:0:0:0:
323,137,189977,1,10,1:3:0:0:
316,179,190071,1,2,1:3:0:0:
296,217,190165,1,4,0:3:0:0:
289,258,190258,1,4,0:0:0:0:
302,298,190352,1,10,1:3:0:0:
333,326,190446,1,0,0:0:0:0:
375,331,190540,1,6,0:3:0:0:
413,314,190633,1,8,0:0:0:0:
442,282,190727,1,10,1:3:0:0:
449,240,190821,1,6,1:3:0:0:
433,200,190915,1,4,0:3:0:0:
410,164,191008,1,4,0:3:0:0:
404,121,191102,1,10,1:3:0:0:
424,83,191196,1,0,0:0:0:0:
454,53,191290,5,6,0:3:0:0:
478,87,191383,1,8,0:0:0:0:
480,129,191477,1,10,1:3:0:0:
450,160,191571,1,4,0:0:0:0:
409,171,191665,1,4,0:3:0:0:
367,166,191758,1,0,0:0:0:0:
330,144,191852,1,10,1:3:0:0:
295,119,191946,1,0,0:0:0:0:
252,126,192040,2,0,P|229:128|198:125,2,42.5,4|8|14,0:3|0:0|1:3,0:0:0:0:
55,85,192415,5,4,1:3:0:0:
44,130,192508,1,8,1:3:0:0:
58,174,192602,1,12,1:3:0:0:
93,204,192696,1,12,1:3:0:0:
138,214,192790,1,4,0:2:0:0:
281,318,192977,1,10,1:3:0:0:
281,318,193071,1,2,1:3:0:0:
281,318,193165,1,4,0:3:0:0:
289,111,193352,1,10,1:3:0:0:
121,308,193540,5,4,0:2:0:0:
362,216,193727,1,10,1:3:0:0:
362,216,193821,1,10,1:3:0:0:
362,216,193915,1,4,0:3:0:0:
185,90,194102,1,10,1:3:0:0:
235,312,194290,5,4,0:2:0:0:
274,298,194383,1,0,0:0:0:0:
316,296,194477,1,10,1:3:0:0:
358,300,194571,1,10,1:3:0:0:
398,312,194665,1,4,0:3:0:0:
439,317,194758,1,4,0:0:0:0:
479,304,194852,1,10,1:3:0:0:
461,107,195040,5,6,1:3:0:0:
420,119,195133,1,8,1:3:0:0:
392,151,195227,1,14,1:3:0:0:
383,192,195321,1,0,1:0:0:0:
399,231,195415,1,4,1:2:0:0:
257,107,195602,1,14,1:3:0:0:
92,212,195790,5,4,1:2:0:0:
229,344,195977,1,8,3:3:0:0:
229,344,196071,1,6,1:3:0:0:
229,344,196165,2,0,P|235:293|248:232,1,85,12|6,3:0|1:3,0:0:0:0:
14,225,196540,5,4,1:1:0:0:
330,96,196727,1,6,1:3:0:0:
330,96,196821,1,10,1:3:0:0:
330,96,196915,2,4,P|336:154|347:217,1,85,12|14,0:3|1:3,0:3:0:0:
103,41,197290,5,4,1:2:0:0:
256,192,197383,12,4,198790,1:2:0:0:
