osu file format v14

[General]
AudioFilename: audio.mp3
AudioLeadIn: 0
PreviewTime: 784
Countdown: 0
SampleSet: Soft
StackLeniency: 0.7
Mode: 0
LetterboxInBreaks: 0
WidescreenStoryboard: 1

[Editor]
Bookmarks: 12784,18784,30784,42784,54784,66784,78784,90784,102780,114784,126780,138784,150780,162780,198780
DistanceSpacing: 1.1
BeatDivisor: 4
GridSize: 16
TimelineZoom: 3.499999

[Metadata]
Title:Reverse Ideology
TitleUnicode:リバースイデオロギー
Artist:ZUN
ArtistUnicode:ZUN
Creator:Luscent
Version:Collab Lunatic
Source:東方輝針城 ~ Double Dealing Character.
Tags:Dailycare nanoya Corsace 2023 co23 KO2 DT2 東方project Touhou Project th14 DDC 鬼人正邪 Seija Kijin 旧約酒場 ~ Dateless Bar “Old Adam” Old Testament Tavern ZUN's Music Collection vol.9 instrumental video game electronic
BeatmapID:4534096
BeatmapSetID:2051416

[Difficulty]
HPDrainRate:5
CircleSize:3.8
OverallDifficulty:8
ApproachRate:8
SliderMultiplier:1.7
SliderTickRate:1

[Events]
//Background and Video events
0,0,"seija.jpg",0,0
//Break Periods
2,102990,114040
//Storyboard Layer 0 (Background)
//Storyboard Layer 1 (Fail)
//Storyboard Layer 2 (Pass)
//Storyboard Layer 3 (Foreground)
//Storyboard Layer 4 (Overlay)
//Storyboard Sound Samples

[TimingPoints]
790,375,4,2,1,80,1,0
12790,-125,4,2,1,80,0,0
18790,-111.111111111111,4,2,1,80,0,0
30790,-100,4,2,1,80,0,0
42790,-125,4,2,1,80,0,0
54790,-111.111111111111,4,3,1,80,0,0
66790,-99.9999999999999,4,3,1,80,0,0
78790,-125,4,3,1,80,0,0
90790,-100,4,3,1,80,0,0
114790,-125,4,3,1,80,0,0
126790,-100,4,3,1,80,0,0
174790,-125,4,3,1,80,0,0
176290,-90.9090909090909,4,3,1,80,0,0

[Colours]
Combo1 : 252,102,95
Combo2 : 243,214,122
Combo3 : 249,176,155

[HitObjects]
401,57,790,6,0,L|456:52,4,42.5,4|0|0|0|0,3:2|3:0|3:0|3:0|3:0,0:0:0:0:
245,190,1352,2,0,P|221:125|235:51,1,127.5,4|0,1:2|3:0,0:0:0:0:
247,46,1727,1,0,3:0:0:0:
217,40,1821,1,0,0:0:0:0:
187,34,1915,1,0,3:0:0:0:
158,28,2008,1,0,3:0:0:0:
128,22,2102,1,0,1:0:0:0:
134,164,2290,6,0,L|83:182,2,42.5,4|0|0,1:2|3:0|3:0,0:0:0:0:
255,127,2665,1,0,3:0:0:0:
227,343,2852,2,0,P|221:295|229:247,1,85,4|0,1:2|3:0,0:0:0:0:
225,258,3133,1,0,1:0:0:0:
225,258,3227,1,0,1:0:0:0:
323,209,3415,1,0,1:0:0:0:
363,219,3508,1,0,1:0:0:0:
404,229,3602,1,0,1:0:0:0:
445,239,3696,1,0,1:0:0:0:
486,249,3790,6,0,L|498:297,4,42.5,4|0|0|0|0,1:2|3:0|3:0|3:0|3:0,0:0:0:0:
362,151,4352,2,0,P|379:206|384:257,1,85,4|0,1:2|3:0,0:0:0:0:
417,67,4727,1,0,3:0:0:0:
255,131,4915,1,0,3:0:0:0:
212,132,5008,1,0,3:0:0:0:
173,114,5102,1,0,1:0:0:0:
144,82,5196,1,0,0:0:0:0:
137,39,5290,6,0,L|229:9,1,85,4|0,1:2|3:0,0:0:0:0:
97,157,5665,1,0,3:0:0:0:
254,94,5852,1,4,1:2:0:0:
254,94,5946,1,0,3:0:0:0:
254,94,6040,1,0,3:0:0:0:
159,276,6227,1,0,3:0:0:0:
223,212,6415,2,0,L|216:167,3,42.5,0|0|0|0,1:0|1:0|0:0|1:0,0:0:0:0:
297,258,6790,5,4,1:2:0:0:
341,271,6883,1,0,3:0:0:0:
387,265,6977,1,2,3:0:0:0:
429,245,7071,1,0,3:0:0:0:
452,204,7165,1,0,1:0:0:0:
504,72,7352,1,4,1:2:0:0:
504,72,7446,1,0,3:0:0:0:
504,72,7540,2,0,L|437:61,2,42.5,2|0|0,3:0|3:0|1:0,0:0:0:0:
371,140,7915,2,0,P|325:121|282:118,1,85,0|0,1:0|1:0,0:0:0:0:
114,63,8290,5,4,1:2:0:0:
155,54,8383,1,0,3:0:0:0:
196,46,8477,1,2,3:0:0:0:
24,42,8665,1,0,1:0:0:0:
65,137,8852,1,4,1:2:0:0:
104,152,8946,1,0,3:0:0:0:
143,168,9040,1,2,3:0:0:0:
20,31,9227,1,0,1:0:0:0:
7,199,9415,2,0,L|-3:244,2,42.5,0|0|0,1:0|3:0|1:0,0:0:0:0:
89,340,9790,5,4,1:2:0:0:
130,330,9883,1,0,3:0:0:0:
171,320,9977,1,2,3:0:0:0:
212,311,10071,1,0,3:0:0:0:
253,302,10165,1,0,1:0:0:0:
383,378,10352,1,4,1:2:0:0:
383,378,10446,1,0,3:0:0:0:
383,378,10540,2,0,L|395:322,2,42.5,2|0|0,3:0|3:0|1:0,0:0:0:0:
328,182,10915,2,0,L|352:101,1,85,0|0,1:0|1:0,0:0:0:0:
471,239,11290,5,4,1:2:0:0:
471,239,11383,1,2,3:0:0:0:
471,239,11477,2,0,L|522:252,3,42.5,2|0|8|8,1:3|3:0|1:3|3:3,0:0:0:0:
462,141,11852,2,0,L|412:150,1,42.5,8|8,3:0|3:0,0:0:0:0:
328,182,12040,5,8,1:3:0:0:
288,157,12133,1,4,3:3:0:0:
241,151,12227,1,4,3:3:0:0:
196,164,12321,1,4,3:3:0:0:
151,177,12415,1,6,3:3:0:0:
104,175,12508,1,6,3:3:0:0:
61,154,12602,2,0,L|49:63,1,85,8|4,1:3|1:2,0:0:0:0:
290,63,13071,6,0,B|231:75|176:35|176:35,1,102,2|6,3:3|3:2,0:0:0:0:
403,0,13540,2,0,B|477:62|411:144|411:144,1,136,0|0,1:2|1:0,0:0:0:0:
429,152,14008,1,0,1:0:0:0:
399,159,14102,1,0,1:0:0:0:
369,166,14196,1,0,1:0:0:0:
339,173,14290,1,4,1:2:0:0:
207,288,14571,2,0,L|219:165,1,102,2|6,3:0|1:2,0:0:0:0:
147,154,15040,1,0,3:0:0:0:
71,176,15227,1,0,3:0:0:0:
39,53,15415,1,0,1:0:0:0:
119,31,15602,1,2,3:3:0:0:
216,186,15790,5,4,1:2:0:0:
326,88,16071,2,0,B|388:105|438:62|438:62,1,102,2|4,3:0|1:2,0:0:0:0:
190,172,16540,5,0,1:2:0:0:
335,310,16821,2,0,B|353:260|321:190|321:190,1,102,2|0,3:0|3:0,0:0:0:0:
364,200,17196,1,0,0:0:0:0:
400,190,17290,1,4,1:2:0:0:
212,334,17852,5,0,1:0:0:0:
204,297,17945,1,0,1:0:0:0:
196,260,18039,1,4,1:2:0:0:
73,350,18227,1,0,1:0:0:0:
26,165,18415,1,4,1:2:0:0:
61,174,18508,1,0,1:0:0:0:
98,172,18602,1,0,1:0:0:0:
134,164,18696,1,0,1:0:0:0:
169,140,18790,1,4,1:2:0:0:
265,136,18977,6,0,P|276:182|268:245,1,76.4999976654053,2|0,1:3|3:0,0:0:0:0:
429,259,19352,1,2,1:3:0:0:
429,259,19446,1,0,0:0:0:0:
429,259,19540,2,0,P|410:198|442:122,1,114.749996498108,0|0,3:0|3:0,0:0:0:0:
483,74,19915,2,0,L|390:48,1,76.4999976654053,0|2,0:0|1:3,0:0:0:0:
213,52,20290,5,0,3:0:0:0:
345,119,20478,1,2,1:3:0:0:
241,233,20665,2,0,P|234:188|244:134,1,76.4999976654053,0|2,3:0|1:3,0:0:0:0:
53,213,21040,6,0,L|148:202,1,76.4999976654053,0|2,1:0|1:3,0:0:0:0:
128,204,21321,1,0,3:0:0:0:
128,204,21415,1,0,0:0:0:0:
43,350,21602,2,0,L|198:373,1,152.999995330811,2|2,1:3|1:3,0:0:0:0:
378,248,22165,5,0,3:0:0:0:
378,248,22258,1,0,3:0:0:0:
378,248,22352,1,2,1:3:0:0:
257,279,22540,1,0,3:0:0:0:
220,270,22633,1,0,0:0:0:0:
358,354,22821,1,0,3:0:0:0:
298,176,23102,2,0,P|288:129|328:50,1,114.749996498108,2|0,1:3|0:0,0:0:0:0:
370,18,23477,6,0,L|453:44,1,76.4999976654053,2|0,1:3|3:0,0:0:0:0:
419,214,23852,1,2,1:3:0:0:
372,132,24040,1,8,1:3:0:0:
512,240,24227,1,2,3:0:0:0:
469,240,24321,1,4,1:3:0:0:
433,263,24415,1,4,3:3:0:0:
420,302,24508,1,0,1:0:0:0:
429,343,24602,1,6,1:3:0:0:
229,285,24790,6,0,B|146:265|158:307|79:286,1,152.999995330811,4|0,1:2|3:0,0:0:0:0:
274,361,25352,1,2,1:3:0:0:
291,162,25540,2,0,P|307:206|311:245,1,76.4999976654053,0|2,3:0|1:3,0:0:0:0:
310,235,25821,1,0,3:0:0:0:
310,235,25915,1,0,3:0:0:0:
154,140,26102,2,0,B|106:65|198:27|198:27,1,114.749996498108,2|0,1:3|0:0,0:0:0:0:
212,32,26477,5,2,1:3:0:0:
212,200,26665,1,0,3:0:0:0:
282,111,26852,1,2,1:3:0:0:
127,137,27040,1,0,3:0:0:0:
93,131,27133,1,0,0:0:0:0:
58,125,27227,1,2,1:3:0:0:
248,202,27415,1,0,0:0:0:0:
112,368,27602,2,0,P|112:320|94:237,1,114.749996498108,2|0,1:3|0:0,0:0:0:0:
81,229,27977,5,2,1:3:0:0:
189,281,28165,1,0,3:0:0:0:
288,334,28352,1,2,1:3:0:0:
315,169,28540,1,0,3:0:0:0:
282,179,28633,1,0,0:0:0:0:
440,314,28821,2,0,B|482:255|430:189|430:189,1,114.749996498108,0|2,3:0|1:3,0:0:0:0:
315,169,29290,6,0,P|318:219|339:260,1,76.4999976654053,0|2,0:0|1:3,0:0:0:0:
313,26,29665,1,8,0:3:0:0:
164,126,29852,1,6,1:3:0:0:
164,126,29946,1,4,0:3:0:0:
164,126,30040,2,0,L|107:120,2,38.2499988327027,8|4|6,1:3|1:3|1:3,0:0:0:0:
18,178,30415,5,8,1:3:0:0:
13,230,30508,1,0,1:0:0:0:
36,278,30602,1,0,1:0:0:0:
86,295,30696,1,4,1:3:0:0:
136,276,30790,6,0,L|233:294,1,85,6|2,1:2|1:3,0:0:0:0:
157,371,31165,1,0,3:0:0:0:
120,191,31352,1,2,1:3:0:0:
303,287,31540,5,2,1:2:0:0:
243,189,31821,5,2,1:2:0:0:
381,157,32102,5,2,1:2:0:0:
311,47,32290,5,0,3:0:0:0:
421,239,32477,1,2,1:3:0:0:
421,239,32571,1,0,0:0:0:0:
421,239,32665,2,0,P|424:183|412:141,1,85,0|2,3:0|1:3,0:0:0:0:
230,138,33040,1,2,1:2:0:0:
220,156,33133,1,0,3:2:0:0:
218,177,33227,1,2,1:3:0:0:
225,197,33321,1,2,1:2:0:0:
232,217,33415,1,0,3:2:0:0:
234,237,33508,1,0,3:2:0:0:
230,257,33602,1,2,1:2:0:0:
154,358,33790,6,0,L|51:337,1,85,0|2,3:0|1:3,0:0:0:0:
159,215,34165,1,0,3:0:0:0:
4,157,34352,1,2,1:3:0:0:
93,50,34540,1,2,1:2:0:0:
129,64,34633,1,0,3:0:0:0:
73,253,34821,2,0,B|51:178|126:142|126:142,1,127.5,2|2,1:2|1:2,0:0:0:0:
317,141,35290,5,0,3:0:0:0:
353,131,35383,1,0,0:0:0:0:
390,122,35477,1,2,1:3:0:0:
304,284,35665,1,0,3:0:0:0:
159,215,35852,1,2,1:3:0:0:
375,217,36040,5,4,3:2:0:0:
225,357,36227,1,2,3:3:0:0:
251,323,36321,1,0,1:0:0:0:
260,280,36415,1,0,1:0:0:0:
261,238,36508,1,0,1:0:0:0:
248,197,36602,1,2,1:3:0:0:
411,320,36790,6,0,P|398:274|414:207,1,85,4|2,1:2|1:3,0:0:0:0:
403,67,37165,1,0,3:0:0:0:
295,237,37352,1,2,1:3:0:0:
302,71,37540,5,2,1:2:0:0:
199,158,37821,5,2,1:2:0:0:
174,33,38102,5,2,1:2:0:0:
47,129,38290,5,0,3:0:0:0:
47,129,38383,1,0,0:0:0:0:
47,129,38477,2,0,P|39:180|57:226,1,85,2|0,1:3|3:2,0:0:0:0:
159,282,38852,1,2,1:3:0:0:
48,360,39040,1,2,1:2:0:0:
61,320,39133,1,0,0:0:0:0:
226,188,39321,2,0,B|295:231|257:321|257:321,1,127.5,2|2,1:2|1:2,0:0:0:0:
385,357,39790,6,0,P|374:307|382:254,1,85,0|2,0:0|1:3,0:0:0:0:
426,182,40165,1,0,3:0:0:0:
482,83,40352,2,0,L|369:50,1,85,2|0,1:3|1:0,0:0:0:0:
364,36,40633,1,0,1:0:0:0:
330,61,40727,1,2,1:3:0:0:
317,101,40821,1,2,3:2:0:0:
317,143,40915,1,0,3:2:0:0:
207,218,41102,2,0,B|129:242|87:181|87:181,1,127.5,2|0,1:3|0:0,0:0:0:0:
63,162,41477,5,2,1:3:0:0:
163,117,41665,1,8,3:0:0:0:
78,298,41852,1,4,1:0:0:0:
225,189,42040,5,6,1:2:0:0:
215,371,42321,5,2,1:2:0:0:
325,288,42602,5,0,1:0:0:0:
375,295,42696,1,0,1:0:0:0:
425,301,42790,1,6,1:2:0:0:
392,70,43071,2,0,P|407:129|389:194,1,102,0|2,0:0|0:2,0:0:0:0:
233,287,43540,2,0,P|218:228|236:163,2,102,4|2|0,1:2|0:0|1:2,0:0:0:0:
105,127,44290,6,0,L|21:141,1,68,6|0,1:2|0:0,0:0:0:0:
37,138,44571,1,0,0:0:0:0:
37,138,44664,1,0,0:0:0:0:
62,221,44852,1,2,1:2:0:0:
85,297,45040,2,0,L|78:348,2,34,0|0|0,1:3|1:3|1:0,0:0:0:0:
262,361,45415,5,0,1:0:0:0:
283,318,45508,1,0,1:0:0:0:
278,270,45602,1,0,1:0:0:0:
249,231,45696,1,0,1:0:0:0:
201,223,45790,5,6,1:2:0:0:
314,48,46071,2,0,B|295:106|330:174|330:174,1,102,2|0,0:0|1:0,0:0:0:0:
375,313,46540,2,0,L|480:283,2,102,4|2|0,1:2|0:0|1:0,0:0:0:0:
360,210,47290,6,0,P|301:176|214:189,1,136,4|0,1:2|0:0,0:0:0:0:
45,139,47852,1,4,1:2:0:0:
55,178,47946,1,0,0:0:0:0:
65,217,48040,1,0,1:0:0:0:
149,122,48227,1,0,1:0:0:0:
115,362,48415,1,0,1:0:0:0:
113,321,48508,1,0,1:0:0:0:
131,284,48602,1,0,1:0:0:0:
168,266,48696,1,0,1:0:0:0:
208,264,48790,5,6,1:2:0:0:
314,142,49071,2,0,B|295:202|335:254|335:254,1,102,0|0,0:0|1:0,0:0:0:0:
440,352,49540,2,0,B|518:302|472:211|472:211,1,136,4|0,1:2|3:0,0:0:0:0:
499,203,50008,1,0,3:0:0:0:
466,194,50102,1,0,3:0:0:0:
432,187,50196,1,0,3:0:0:0:
398,180,50290,5,4,1:2:0:0:
255,150,50571,1,0,3:0:0:0:
255,150,50665,2,0,P|269:209|267:245,1,68,0|4,0:0|1:2,0:0:0:0:
240,313,51040,1,0,3:0:0:0:
201,325,51133,1,0,3:0:0:0:
161,336,51227,1,0,1:0:0:0:
46,293,51415,5,0,1:0:0:0:
17,254,51508,1,0,1:0:0:0:
17,206,51602,1,0,1:0:0:0:
42,165,51696,1,0,1:0:0:0:
87,151,51790,6,0,B|163:132|158:166|232:144,1,136,6|2,1:2|0:0,0:0:0:0:
458,247,52352,1,0,1:0:0:0:
458,247,52446,1,0,1:0:0:0:
458,247,52540,2,0,B|382:266|387:232|313:254,1,136,4|2,1:2|0:0,0:0:0:0:
276,250,53008,1,0,0:0:0:0:
254,207,53102,1,0,1:0:0:0:
259,159,53196,1,0,1:0:0:0:
287,120,53290,5,4,1:2:0:0:
295,128,53852,5,0,3:0:0:0:
295,128,53946,1,0,3:0:0:0:
295,128,54040,1,6,1:2:0:0:
385,163,54227,1,0,3:0:0:0:
232,251,54415,1,6,1:2:0:0:
185,243,54508,1,0,1:0:0:0:
137,236,54602,1,0,1:0:0:0:
89,229,54696,1,0,1:0:0:0:
41,221,54790,6,0,P|53:173|46:120,1,76.4999976654053,6|2,1:2|1:3,0:0:0:0:
164,276,55165,2,0,P|157:318|161:366,1,76.4999976654053,0|2,0:0|1:3,0:0:0:0:
237,174,55540,1,0,1:3:0:0:
202,159,55633,1,0,0:0:0:0:
295,289,55821,2,0,B|362:308|418:261|418:261,1,114.749996498108,2|2,1:3|1:3,0:0:0:0:
494,326,56290,6,0,P|505:283|504:243,1,76.4999976654053,0|2,0:0|1:3,0:0:0:0:
373,100,56665,2,0,P|362:143|363:183,1,76.4999976654053,0|2,0:0|1:3,0:0:0:0:
361,174,56946,1,0,0:0:0:0:
361,174,57040,1,2,1:3:0:0:
295,289,57227,1,0,0:0:0:0:
193,212,57415,1,0,0:0:0:0:
156,220,57508,1,0,0:0:0:0:
119,230,57602,1,2,1:3:0:0:
43,288,57790,6,0,P|38:240|9:189,1,76.4999976654053,0|2,0:0|1:3,0:0:0:0:
175,329,58165,2,0,P|161:293|159:255,1,76.4999976654053,0|2,0:0|1:3,0:0:0:0:
255,150,58540,1,2,1:3:0:0:
123,37,58727,1,0,0:0:0:0:
123,37,58821,2,0,B|82:107|151:147|151:147,1,114.749996498108,2|2,1:3|1:3,0:0:0:0:
138,222,59290,5,0,0:0:0:0:
235,245,59477,1,2,1:3:0:0:
330,273,59665,2,0,L|425:256,1,76.4999976654053,0|2,0:0|1:3,0:0:0:0:
405,259,59946,5,0,0:0:0:0:
405,259,60040,1,2,1:3:0:0:
270,368,60321,5,2,1:3:0:0:
102,319,60602,5,2,1:3:0:0:
97,280,60696,1,0,0:0:0:0:
95,241,60790,2,0,L|83:144,1,76.4999976654053,4|2,1:2|1:3,0:0:0:0:
198,167,61165,2,0,L|186:70,1,76.4999976654053,0|2,0:0|1:3,0:0:0:0:
37,15,61540,2,0,B|-29:64|27:146|27:146,1,114.749996498108,2|2,1:3|1:3,0:0:0:0:
48,146,61915,1,0,0:0:0:0:
188,91,62102,2,0,L|275:72,1,76.4999976654053,2|0,1:3|0:0,0:0:0:0:
418,29,62477,6,0,L|401:125,1,76.4999976654053,2|0,1:3|0:0,0:0:0:0:
373,268,62852,1,2,1:3:0:0:
362,108,63040,1,2,1:3:0:0:
362,108,63133,1,0,0:0:0:0:
362,108,63227,1,0,0:0:0:0:
467,187,63415,1,0,0:0:0:0:
281,202,63602,2,0,P|274:251|295:327,1,114.749996498108,2|0,1:3|0:0,0:0:0:0:
375,362,63977,6,0,L|459:345,1,76.4999976654053,2|0,1:3|0:0,0:0:0:0:
288,313,64352,1,2,1:3:0:0:
194,370,64540,1,2,1:3:0:0:
160,352,64633,1,0,0:0:0:0:
36,330,64821,2,0,B|6:274|60:210|60:210,1,114.749996498108,2|2,1:3|1:3,0:0:0:0:
155,118,65290,2,0,L|177:196,1,76.4999976654053,0|2,0:2|1:3,0:0:0:0:
182,273,65665,5,0,0:0:0:0:
75,139,65852,1,2,1:3:0:0:
262,187,66040,1,8,1:3:0:0:
263,148,66133,1,8,1:3:0:0:
263,109,66227,1,6,1:3:0:0:
390,156,66415,1,0,1:0:0:0:
437,168,66508,1,0,1:0:0:0:
470,205,66602,1,2,1:3:0:0:
470,254,66696,1,0,1:0:0:0:
446,295,66790,6,0,L|355:313,1,85,4|2,1:2|1:3,0:0:0:0:
501,369,67165,1,0,0:0:0:0:
353,231,67352,1,2,1:3:0:0:
470,254,67540,5,2,1:2:0:0:
360,364,67821,5,2,1:2:0:0:
223,274,68102,5,2,1:2:0:0:
345,206,68290,5,0,0:0:0:0:
196,293,68477,1,2,1:3:0:0:
196,293,68571,1,0,0:0:0:0:
196,293,68665,2,0,L|204:194,1,85,0|2,0:0|0:3,0:0:0:0:
306,89,69040,1,2,1:2:0:0:
329,97,69133,1,2,0:2:0:0:
354,100,69227,1,2,0:2:0:0:
379,94,69321,1,2,1:2:0:0:
403,86,69415,1,2,0:2:0:0:
428,88,69508,1,2,0:2:0:0:
452,95,69602,1,2,1:2:0:0:
345,275,69790,6,0,P|345:229|328:183,1,85,2|2,0:2|1:3,0:0:0:0:
422,341,70165,1,0,0:0:0:0:
248,284,70352,1,2,1:3:0:0:
189,376,70540,5,2,0:2:0:0:
206,182,70821,5,2,0:2:0:0:
351,296,71102,5,2,1:2:0:0:
141,273,71290,5,0,0:0:0:0:
141,273,71384,1,0,0:0:0:0:
141,273,71477,2,0,L|235:257,1,85,2|0,1:3|0:0,0:0:0:0:
8,172,71852,1,2,1:3:0:0:
84,49,72040,2,0,P|150:70|205:55,1,127.5,2|2,0:2|0:0,0:0:0:0:
249,119,72415,1,0,1:0:0:0:
273,95,72508,1,2,1:2:0:0:
303,78,72602,1,2,1:2:0:0:
336,68,72696,1,0,1:0:0:0:
370,63,72790,1,6,1:2:0:0:
459,232,72977,5,2,1:3:0:0:
344,165,73165,1,0,0:0:0:0:
447,80,73352,1,2,1:3:0:0:
382,270,73540,5,2,1:2:0:0:
230,201,73821,5,2,1:2:0:0:
50,238,74102,5,2,1:2:0:0:
50,238,74196,1,0,0:0:0:0:
50,238,74290,1,0,0:0:0:0:
205,172,74477,1,2,1:3:0:0:
113,101,74665,1,0,0:0:0:0:
194,267,74852,1,2,1:3:0:0:
331,188,75040,5,2,1:2:0:0:
461,324,75321,5,2,1:2:0:0:
435,117,75602,5,2,1:2:0:0:
435,117,75696,1,0,0:0:0:0:
435,117,75790,1,0,0:0:0:0:
350,230,75977,1,2,1:3:0:0:
251,55,76165,1,0,0:0:0:0:
320,149,76352,1,2,1:3:0:0:
190,205,76540,5,2,1:2:0:0:
157,195,76633,1,0,1:0:0:0:
122,192,76727,1,2,1:3:0:0:
87,194,76821,1,2,1:2:0:0:
54,204,76915,1,0,1:0:0:0:
2,101,77102,1,2,1:2:0:0:
107,28,77290,6,0,P|118:77|114:129,1,85,0|2,0:0|1:3,0:0:0:0:
239,283,77665,2,0,P|226:216|243:147,1,127.5,8|0,0:3|0:0,0:0:0:0:
305,114,78040,2,0,L|361:105,2,42.5,0|0|10,1:0|1:0|0:3,0:0:0:0:
152,214,78415,5,0,1:0:0:0:
179,239,78508,1,0,1:0:0:0:
199,271,78602,1,2,1:2:0:0:
215,305,78696,1,0,1:0:0:0:
218,343,78790,1,4,1:2:0:0:
424,256,79071,2,0,P|365:262|310:243,1,102,0|4,0:0|1:2,0:0:0:0:
369,42,79540,2,0,P|410:88|396:170,1,136
180,124,80102,5,0,0:0:0:0:
180,124,80196,1,0,0:0:0:0:
180,124,80290,2,0,P|230:131|296:120,1,102,4|0,1:2|0:0,0:0:0:0:
128,253,80852,1,4,1:2:0:0:
51,199,81040,2,0,L|32:105,1,68
108,359,81415,1,0,0:0:0:0:
137,343,81508,1,0,0:0:0:0:
167,327,81602,1,0,0:0:0:0:
197,311,81696,1,0,0:0:0:0:
227,295,81790,6,0,P|280:315|336:303,2,102,4|0|4,1:2|0:0|1:2,0:0:0:0:
366,232,82540,2,0,L|349:135,1,68,0|0,3:2|0:0,0:0:0:0:
474,276,82915,1,0,0:0:0:0:
468,242,83008,1,0,0:0:0:0:
462,208,83102,1,0,0:0:0:0:
456,174,83196,1,0,0:0:0:0:
450,140,83290,1,4,1:2:0:0:
272,192,83665,1,0,0:0:0:0:
186,131,83852,2,0,L|131:143,4,34,4|0|0|0|0,1:2|1:0|1:2|1:0|1:0,0:0:0:0:
124,240,84415,1,4,1:2:0:0:
124,240,84508,1,0,1:0:0:0:
124,240,84602,2,0,L|185:225,1,34,0|0,1:0|1:0,0:0:0:0:
304,292,84790,6,0,P|320:230|293:143,1,136,4|0,1:2|0:0,0:0:0:0:
446,150,85352,1,4,1:2:0:0:
344,39,85540,2,0,P|331:79|338:142,1,102,0|0,1:2|0:0,0:0:0:0:
304,161,85915,2,0,L|216:148,1,68,0|0,0:0|3:2,0:0:0:0:
137,83,86290,1,4,1:2:0:0:
83,239,86571,1,0,0:0:0:0:
240,311,86852,1,4,1:2:0:0:
240,311,87040,1,0,1:2:0:0:
460,325,87415,5,0,1:0:0:0:
397,196,87602,1,0,1:0:0:0:
283,255,87790,2,0,P|244:262|172:254,2,102,4|0|0,1:2|0:0|1:2,0:0:0:0:
248,116,88540,2,0,P|287:109|359:117,2,102,4|0|0,1:2|0:0|1:0,0:0:0:0:
150,37,89290,1,4,1:2:0:0:
256,192,89383,12,4,90415,1:2:0:0:
278,277,90790,5,4,1:2:0:0:
196,228,90977,1,10,1:3:0:0:
196,228,91071,2,0,P|182:176|199:119,1,85,2|0,1:3|0:0,0:0:0:0:
218,121,91352,2,0,L|126:140,1,85,10|6,1:3|0:3,0:0:0:0:
73,242,91727,1,10,1:3:0:0:
73,242,91821,2,0,B|121:292|100:366,1,127.5,8|10,1:3|1:3,0:0:0:0:
218,326,92290,5,6,1:3:0:0:
300,253,92477,1,10,1:3:0:0:
308,224,92571,1,2,1:3:0:0:
316,195,92665,1,4,0:0:0:0:
405,284,92852,1,10,1:3:0:0:
512,197,93040,2,0,B|467:217|417:200,1,85,6|8,0:3|1:3,0:0:0:0:
321,43,93415,5,6,0:3:0:0:
447,55,93602,1,10,1:3:0:0:
321,43,93790,2,0,B|289:109|325:178,1,127.5,6|2,0:3|1:3,0:0:0:0:
290,199,94165,1,4,0:3:0:0:
123,141,94352,1,10,1:3:0:0:
123,141,94446,1,0,0:0:0:0:
123,141,94540,2,0,B|175:146|229:113,1,85,6|10,0:3|1:3,0:0:0:0:
212,230,94915,1,4,0:3:0:0:
151,303,95102,1,10,1:3:0:0:
131,325,95196,1,0,0:0:0:0:
111,347,95290,6,0,B|66:323|0:341,2,85,6|10|4,0:3|1:3|0:3,0:0:0:0:
248,326,95852,1,10,1:3:0:0:
248,326,95946,1,0,0:0:0:0:
248,326,96040,1,4,0:3:0:0:
173,230,96227,1,14,1:3:0:0:
59,243,96415,1,4,1:3:0:0:
43,213,96508,1,8,1:3:0:0:
40,178,96602,1,12,1:3:0:0:
44,144,96696,1,12,1:3:0:0:
60,114,96790,5,4,0:2:0:0:
247,149,96977,1,10,1:3:0:0:
247,149,97071,2,0,B|194:178|132:158,1,85,2|4,1:3|0:0,0:0:0:0:
138,193,97352,1,10,1:3:0:0:
212,263,97540,1,6,0:3:0:0:
318,352,97727,1,10,1:3:0:0:
318,352,97821,2,0,B|304:299|322:236,1,85,10|0,1:3|0:0,0:0:0:0:
337,240,98102,1,10,1:3:0:0:
480,148,98290,6,0,B|511:215|458:266,1,127.5,6|10,0:3|1:3,0:0:0:0:
319,137,98852,1,10,1:3:0:0:
394,323,99040,1,6,1:3:0:0:
394,323,99133,1,8,1:3:0:0:
394,323,99227,1,14,1:3:0:0:
271,236,99415,1,6,1:3:0:0:
401,154,99602,1,14,1:3:0:0:
271,236,99790,6,0,B|223:212|161:227,1,85,4|8,1:2|3:3,0:0:0:0:
165,196,100071,2,0,B|138:152|159:97,1,85,6|0,1:3|0:0,0:0:0:0:
185,82,100352,1,6,1:3:0:0:
32,210,100540,2,0,B|118:258|84:362,1,170,4|12,1:1|0:3,0:0:0:0:
269,325,101102,1,14,1:3:0:0:
269,325,101196,1,0,0:0:0:0:
269,325,101290,1,4,1:2:0:0:
256,192,101383,12,4,102790,0:2:0:0:
153,231,114790,6,0,B|112:184|136:113,1,102,6|0,1:2|0:0,0:0:0:0:
251,200,115352,1,2,0:2:0:0:
251,200,115540,2,0,L|337:208,1,68,4|0,1:2|0:0,0:0:0:0:
411,247,115915,1,0,0:0:0:0:
421,222,116008,1,0,0:0:0:0:
431,196,116102,1,0,1:2:0:0:
441,170,116196,1,0,0:0:0:0:
451,144,116290,1,6,1:2:0:0:
246,341,116852,5,2,1:2:0:0:
137,320,117040,1,0,1:3:0:0:
137,320,117133,1,0,1:3:0:0:
137,320,117227,1,0,1:0:0:0:
246,341,117415,1,0,1:0:0:0:
195,217,117602,1,0,1:0:0:0:
347,265,117790,6,0,B|319:209|339:147,2,102,6|2|0,1:2|0:0|1:0,0:0:0:0:
171,189,118540,2,0,B|199:133|179:71,2,102,4|2|0,1:2|0:0|1:0,0:0:0:0:
147,223,119196,1,0,0:0:0:0:
117,241,119290,2,0,P|63:220|-2:224,1,102,4|2,1:2|0:0,0:0:0:0:
160,352,119852,1,4,1:2:0:0:
259,295,120040,1,0,1:0:0:0:
259,295,120133,1,0,1:0:0:0:
259,295,120227,2,0,L|248:211,1,68,0|0,1:0|1:0,0:0:0:0:
243,128,120602,1,0,1:0:0:0:
314,53,120790,6,0,B|361:114|329:182,1,136,6|0,1:2|0:0,0:0:0:0:
427,193,121352,2,0,L|388:260,1,68,0|4,1:0|1:2,0:0:0:0:
471,292,121727,2,0,L|432:359,1,68,0|0,0:0|3:0,0:0:0:0:
360,283,122102,1,0,0:0:0:0:
154,321,122290,6,0,B|224:353|299:316,1,136,4|0,1:2|0:0,0:0:0:0:
260,158,122852,2,0,B|237:193|258:245,1,68,4|0,1:2|3:0,0:0:0:0:
361,204,123227,1,0,1:0:0:0:
361,204,123321,1,0,0:0:0:0:
361,204,123415,1,0,1:0:0:0:
260,158,123602,1,0,1:0:0:0:
361,204,123790,6,0,L|343:64,1,136,6|2,1:2|0:0,0:0:0:0:
40,192,124352,1,0,1:0:0:0:
40,192,124446,1,0,0:0:0:0:
40,192,124540,2,0,B|104:165|174:184,1,136,4|2,1:2|0:0,0:0:0:0:
281,265,125102,1,0,1:0:0:0:
281,265,125196,1,0,1:0:0:0:
281,265,125290,1,4,1:2:0:0:
281,265,125852,5,0,3:0:0:0:
371,191,126040,1,4,1:2:0:0:
364,164,126133,1,0,3:0:0:0:
356,137,126227,1,0,3:0:0:0:
259,102,126415,2,0,B|220:179|283:235,1,136,4|4,1:2|1:2,0:0:0:0:
228,332,126977,5,2,1:3:0:0:
60,307,127165,2,0,B|101:285|148:288,1,85,0|2,0:0|1:3,0:0:0:0:
169,182,127540,1,0,1:3:0:0:
153,167,127633,1,0,0:0:0:0:
49,187,127821,2,0,B|0:125|33:58,1,127.5,2|2,1:3|1:3,0:0:0:0:
208,74,128290,6,0,L|179:175,1,85,0|2,0:0|1:3,0:0:0:0:
252,252,128665,1,0,0:0:0:0:
285,234,128758,1,0,0:0:0:0:
319,216,128852,2,0,B|362:242|415:222,1,85,2|2,1:3|1:3,0:0:0:0:
500,180,129227,1,0,0:0:0:0:
482,159,129321,2,0,B|446:98|477:30,1,127.5,2|2,1:3|1:3,0:0:0:0:
364,128,129790,5,0,0:0:0:0:
261,39,129977,2,0,L|350:25,2,85,2|0|2,1:3|0:0|1:3,0:0:0:0:
182,125,130540,1,2,1:3:0:0:
194,145,130633,1,0,0:0:0:0:
287,195,130821,2,0,B|250:255|282:322,1,127.5,2|2,1:3|1:3,0:0:0:0:
176,306,131290,6,0,L|92:288,1,85,0|2,0:0|1:3,0:0:0:0:
0,311,131665,1,0,0:0:0:0:
111,255,131852,1,2,1:3:0:0:
124,228,131946,1,0,0:0:0:0:
137,201,132040,2,0,B|160:122|103:75,1,127.5,2|2,1:3|1:3,0:0:0:0:
185,40,132415,1,0,0:0:0:0:
214,43,132508,1,0,0:0:0:0:
243,47,132602,1,2,1:3:0:0:
272,51,132696,1,0,0:0:0:0:
301,55,132790,1,4,1:2:0:0:
387,123,132977,5,2,1:3:0:0:
249,216,133165,2,0,B|220:173|236:117,1,85,0|2,0:0|1:3,0:0:0:0:
372,216,133540,1,2,1:3:0:0:
357,245,133633,2,0,B|400:300|373:382,1,127.5,0|2,0:0|0:0,0:0:0:0:
496,273,134102,1,2,1:3:0:0:
480,168,134290,6,0,B|442:186|392:177,1,85,0|2,0:0|1:3,0:0:0:0:
268,247,134665,1,0,0:0:0:0:
247,220,134758,1,0,0:0:0:0:
239,186,134852,1,2,1:3:0:0:
242,152,134946,1,0,0:0:0:0:
256,121,135040,2,0,B|274:43|214:3,2,127.5,2|2|2,1:3|1:3|1:3,0:0:0:0:
165,212,135790,5,0,1:2:0:0:
22,139,135977,2,0,L|114:123,1,85,2|0,1:3|0:0,0:0:0:0:
0,264,136352,2,0,L|92:248,1,85,2|2,1:3|1:3,0:0:0:0:
194,312,136727,1,0,0:0:0:0:
217,288,136821,2,0,B|188:220|228:165,1,127.5,2|2,1:3|1:3,0:0:0:0:
350,203,137290,6,0,B|332:160|352:115,1,85,0|2,0:2|1:3,0:0:0:0:
416,66,137665,1,0,0:0:0:0:
435,232,137852,1,2,1:3:0:0:
265,197,138040,2,0,L|227:159,2,42.5,0|0|2,1:0|1:0|1:3,0:0:0:0:
205,319,138415,1,0,1:0:0:0:
241,314,138508,1,0,1:0:0:0:
278,310,138602,1,2,1:3:0:0:
315,305,138696,1,0,1:0:0:0:
351,302,138790,1,4,1:2:0:0:
491,338,138977,5,2,1:3:0:0:
457,213,139165,1,0,0:0:0:0:
374,281,139352,1,2,1:3:0:0:
353,135,139540,5,2,1:2:0:0:
165,218,139821,5,2,1:2:0:0:
36,66,140102,5,2,1:2:0:0:
63,285,140290,5,0,0:0:0:0:
200,196,140477,1,2,1:3:0:0:
200,196,140571,1,0,0:0:0:0:
200,196,140665,2,0,B|245:209|295:198,1,85,0|2,0:0|0:3,0:0:0:0:
419,96,141040,1,2,1:2:0:0:
430,118,141133,1,2,0:2:0:0:
434,143,141227,1,2,0:2:0:0:
434,168,141321,1,2,1:2:0:0:
428,192,141415,1,2,0:2:0:0:
421,216,141508,1,2,0:2:0:0:
419,241,141602,1,2,1:2:0:0:
468,321,141790,5,2,0:2:0:0:
346,263,141977,1,2,1:3:0:0:
275,364,142165,1,0,0:0:0:0:
222,214,142352,1,2,1:3:0:0:
111,297,142540,5,2,0:2:0:0:
351,168,142821,5,2,0:2:0:0:
170,63,143102,5,2,1:2:0:0:
211,269,143290,5,0,0:0:0:0:
53,222,143477,1,2,1:3:0:0:
53,222,143571,1,0,0:0:0:0:
53,222,143665,2,0,B|22:177|43:126,1,85,0|2,0:0|1:3,0:0:0:0:
196,154,144040,2,0,B|274:171|319:112,1,127.5,2|2,0:2|0:0,0:0:0:0:
392,65,144415,1,0,1:0:0:0:
400,88,144508,1,2,1:2:0:0:
408,112,144602,1,2,1:2:0:0:
416,136,144696,1,0,1:0:0:0:
424,160,144790,1,6,1:2:0:0:
344,202,144977,5,2,1:3:0:0:
498,236,145165,1,0,0:0:0:0:
303,285,145352,1,2,1:3:0:0:
487,326,145540,5,2,1:2:0:0:
209,225,145821,5,2,1:2:0:0:
361,103,146102,5,2,1:2:0:0:
361,103,146196,1,0,0:0:0:0:
361,103,146290,1,0,0:0:0:0:
269,175,146477,1,2,1:3:0:0:
224,74,146665,1,0,0:0:0:0:
177,240,146852,1,2,1:3:0:0:
88,71,147040,5,2,1:2:0:0:
136,308,147321,5,2,1:2:0:0:
353,217,147602,5,2,1:2:0:0:
353,217,147696,1,0,0:0:0:0:
353,217,147790,1,0,0:0:0:0:
362,346,147977,1,2,1:3:0:0:
240,285,148165,1,0,0:0:0:0:
447,206,148352,1,2,1:3:0:0:
299,140,148540,5,2,1:2:0:0:
274,145,148633,1,0,1:0:0:0:
248,150,148727,1,2,1:3:0:0:
223,155,148821,1,2,1:2:0:0:
198,160,148915,2,0,B|162:124|178:61,1,85,0|2,1:0|1:2,0:0:0:0:
52,300,149290,2,0,L|120:240,1,85,0|2,0:0|1:3,0:0:0:0:
238,311,149665,2,0,B|281:296|333:309,1,85,8|6,0:3|0:3,0:0:0:0:
443,340,150040,1,0,1:0:0:0:
443,340,150133,1,0,1:0:0:0:
443,340,150227,1,10,0:3:0:0:
399,239,150415,5,0,1:0:0:0:
390,206,150508,1,0,1:0:0:0:
391,171,150602,1,2,1:2:0:0:
405,139,150696,1,0,1:0:0:0:
426,112,150790,2,0,B|368:145|297:104,2,127.5,4|0|4,1:2|0:0|1:2,0:0:0:0:
180,35,151540,2,0,B|226:88|191:167,1,127.5
131,204,151915,2,0,L|89:193,3,42.5
219,252,152290,5,4,1:2:0:0:
58,320,152477,1,0,1:0:0:0:
58,320,152571,1,0,0:0:0:0:
58,320,152665,1,0,0:0:0:0:
242,277,152852,1,4,1:2:0:0:
59,186,153040,1,0,0:0:0:0:
350,199,153415,2,0,B|378:157|372:106,1,85
243,24,153790,6,0,B|185:77|227:151,2,127.5,4|0|4,1:2|0:0|1:2,0:0:0:0:
418,265,154540,2,0,B|363:309|290:275,1,127.5,0|0,3:2|0:0,0:0:0:0:
232,325,154915,1,0,0:0:0:0:
217,304,155008,1,0,0:0:0:0:
202,282,155102,1,0,0:0:0:0:
187,260,155196,1,0,0:0:0:0:
172,238,155290,1,4,1:2:0:0:
447,138,155665,5,0,0:0:0:0:
330,92,155852,1,4,1:2:0:0:
330,92,155946,1,0,1:0:0:0:
330,92,156040,2,0,L|342:147,2,42.5,0|0|0,1:0|1:0|1:0,0:0:0:0:
218,150,156415,2,0,B|163:95|196:23,1,127.5,4|0,1:2|1:0,0:0:0:0:
106,8,156790,5,4,1:2:0:0:
0,236,157071,2,0,B|59:205|127:223,1,127.5,0|4,0:0|0:2,0:0:0:0:
225,275,157540,1,0,1:2:0:0:
372,205,157821,2,0,B|341:137|372:64,1,127.5,0|0,0:0|3:2,0:0:0:0:
423,29,158290,5,4,1:2:0:0:
496,224,158571,1,0,0:0:0:0:
286,180,158852,1,4,1:2:0:0:
286,180,159040,1,4,0:2:0:0:
188,305,159415,5,4,1:2:0:0:
212,312,159508,1,0,1:0:0:0:
236,319,159602,1,0,1:0:0:0:
260,326,159696,1,0,1:0:0:0:
284,333,159790,2,0,B|324:278|307:211,2,127.5,4|0|4,1:2|0:0|1:2,0:0:0:0:
200,208,160540,2,0,B|158:144|203:86,1,127.5,0|0,1:2|0:0,0:0:0:0:
287,115,160915,2,0,L|339:121,2,42.5,4|0|0,1:2|0:0|0:0,0:0:0:0:
114,25,161290,1,4,1:2:0:0:
256,192,161383,12,0,162415,1:0:0:0:
405,290,162790,5,4,1:2:0:0:
399,122,162977,1,10,1:3:0:0:
399,122,163071,2,0,P|389:174|366:210,1,85,2|0,1:3|0:0,0:0:0:0:
342,217,163352,2,0,L|256:192,1,85,10|6,1:3|0:3,0:0:0:0:
64,112,163727,1,10,1:3:0:0:
64,112,163821,2,0,B|141:151|193:72|193:72,1,127.5,8|10,1:3|1:3,0:0:0:0:
190,249,164290,5,6,1:3:0:0:
128,344,164477,1,10,1:3:0:0:
86,332,164571,1,2,1:3:0:0:
45,318,164665,1,4,0:0:0:0:
259,329,164852,1,10,1:3:0:0:
105,235,165040,2,0,P|101:193|110:144,1,85,6|8,0:3|1:3,0:0:0:0:
106,25,165415,5,6,0:3:0:0:
138,35,165508,1,0,0:0:0:0:
170,45,165602,1,10,1:3:0:0:
202,55,165696,1,0,0:0:0:0:
234,65,165790,6,0,L|329:47,1,85,6|10,0:3|1:3,0:0:0:0:
329,27,166071,2,0,B|397:82|361:158|361:158,1,127.5,2|10,1:3|1:3,0:0:0:0:
348,239,166540,5,6,0:3:0:0:
348,239,166633,2,0,P|335:176|339:142,1,85,8|6,0:0|1:3,0:0:0:0:
366,141,166915,2,0,L|458:127,1,85,4|10,0:3|1:3,0:0:0:0:
244,215,167290,2,0,P|189:232|96:202,1,127.5,6|4,0:3|0:0,0:0:0:0:
94,189,167665,5,4,0:3:0:0:
194,284,167852,1,6,1:3:0:0:
11,200,168040,1,4,0:3:0:0:
149,117,168227,1,14,1:3:0:0:
94,189,168415,5,4,1:3:0:0:
104,234,168508,1,8,1:3:0:0:
114,279,168602,1,12,1:3:0:0:
125,324,168696,1,12,1:3:0:0:
136,369,168790,5,4,0:2:0:0:
301,288,168977,1,10,1:3:0:0:
301,288,169071,2,0,P|290:235|291:195,1,85,6|4,1:3|0:0,0:0:0:0:
271,174,169352,2,0,P|321:175|366:152,1,85,10|6,1:3|0:3,0:0:0:0:
219,93,169727,5,10,1:3:0:0:
212,59,169821,1,10,1:3:0:0:
206,25,169915,1,4,0:3:0:0:
188,226,170102,1,10,1:3:0:0:
116,103,170290,5,6,0:3:0:0:
7,159,170477,1,10,1:3:0:0:
7,159,170571,2,0,B|77:199|125:131|125:131,1,127.5,10|10,1:3|1:3,0:0:0:0:
227,285,171040,1,6,1:3:0:0:
185,276,171133,1,0,0:0:0:0:
143,266,171227,1,0,1:3:0:0:
345,222,171415,1,6,1:3:0:0:
414,357,171602,1,4,1:3:0:0:
345,222,171790,6,0,L|331:134,1,85,4|0,1:2|0:0,0:0:0:0:
327,102,172071,2,0,B|402:132|462:72|462:72,1,127.5,6|6,1:3|1:3,0:0:0:0:
351,236,172540,1,4,1:1:0:0:
204,159,172727,1,6,1:3:0:0:
162,169,172821,1,0,0:0:0:0:
120,180,172915,1,12,0:3:0:0:
327,102,173102,1,0,0:0:0:0:
270,318,173290,6,0,P|261:271|264:226,1,85,4|0,1:2|0:0,0:0:0:0:
140,47,173665,2,0,P|164:107|158:182,1,127.5,4|0,1:2|0:0,0:0:0:0:
176,195,174040,2,0,L|133:208,2,42.5,4|0|0,1:0|0:0|0:0,0:0:0:0:
163,376,174415,5,0,0:0:0:0:
151,331,174508,1,0,0:0:0:0:
112,304,174602,1,0,0:0:0:0:
65,295,174696,1,0,0:0:0:0:
18,307,174790,6,0,B|138:393|211:261|211:261,1,204,4|0,1:2|2:0,0:0:0:0:
346,55,175540,6,0,B|217:139|331:255|331:255,1,204,4|0,1:2|2:0,0:0:0:0:
489,336,176290,5,4,1:2:0:0:
425,230,176477,1,10,1:3:0:0:
425,230,176571,2,0,L|320:207,1,93.5000028533936,2|0,1:3|0:0,0:0:0:0:
311,230,176852,2,0,P|312:288|294:328,1,93.5000028533936,10|6,1:3|0:3,0:0:0:0:
174,366,177227,1,8,1:3:0:0:
167,324,177321,1,4,0:0:0:0:
160,282,177415,1,6,0:3:0:0:
154,240,177508,1,0,0:0:0:0:
148,198,177602,1,10,1:3:0:0:
84,47,177790,5,6,0:3:0:0:
41,266,177977,1,10,1:3:0:0:
41,266,178071,2,0,P|31:216|33:170,1,93.5000028533936,2|4,1:3|0:0,0:0:0:0:
48,147,178352,1,10,1:3:0:0:
148,198,178540,1,6,0:3:0:0:
282,120,178727,1,10,1:3:0:0:
282,120,178821,2,0,L|185:105,1,93.5000028533936,6|4,1:3|0:3,0:0:0:0:
157,113,179102,1,10,1:3:0:0:
276,221,179290,6,0,B|332:312|238:361|238:361,1,140.25000428009,6|4,0:3|0:0,0:0:0:0:
220,348,179665,1,4,0:3:0:0:
196,232,179852,1,10,1:3:0:0:
97,364,180040,1,4,0:3:0:0:
120,172,180227,1,14,1:3:0:0:
1,346,180415,5,4,1:3:0:0:
22,309,180508,1,8,1:3:0:0:
59,289,180602,1,12,1:3:0:0:
100,284,180696,1,12,1:3:0:0:
140,293,180790,5,4,0:2:0:0:
322,229,181071,1,4,1:3:0:0:
172,95,181352,1,0,1:3:0:0:
250,330,181540,5,4,0:2:0:0:
310,98,181821,1,8,1:3:0:0:
81,183,182102,1,0,1:3:0:0:
211,206,182290,6,0,P|264:212|313:192,1,93.5000028533936,4|10,0:2|1:3,0:0:0:0:
324,174,182571,2,0,B|294:251|355:312|355:312,1,140.25000428009,10|10,1:3|1:3,0:0:0:0:
418,226,183040,1,6,1:3:0:0:
424,189,183133,1,8,1:3:0:0:
431,152,183227,1,14,1:3:0:0:
438,115,183321,1,0,0:0:0:0:
445,78,183415,1,6,1:3:0:0:
512,185,183602,1,14,1:3:0:0:
504,12,183790,5,4,1:2:0:0:
349,92,183977,1,8,3:3:0:0:
349,92,184071,2,0,B|255:118|200:32|200:32,1,140.25000428009,6|6,1:3|1:3,0:0:0:0:
269,174,184540,1,4,1:1:0:0:
269,174,184633,1,0,0:0:0:0:
202,251,184821,1,10,1:3:0:0:
202,251,184915,1,12,0:3:0:0:
258,340,185102,1,14,1:3:0:0:
83,257,185290,5,4,1:2:0:0:
256,192,185383,12,4,186790,1:0:0:0:
256,192,187540,5,4,1:2:0:0:
261,209,188290,5,4,1:2:0:0:
424,356,188477,1,10,1:3:0:0:
424,356,188571,2,0,L|437:251,1,93.5000028533936,2|0,1:3|0:0,0:0:0:0:
460,240,188852,1,10,1:3:0:0:
334,303,189040,1,6,0:3:0:0:
323,127,189227,1,8,1:3:0:0:
323,127,189321,1,4,0:0:0:0:
323,127,189415,1,6,0:3:0:0:
366,207,189602,1,10,1:3:0:0:
182,291,189790,6,0,L|76:305,1,93.5000028533936,4|10,0:2|1:3,0:0:0:0:
67,327,190071,2,0,B|123:250|65:171|65:171,1,140.25000428009,2|10,1:3|1:3,0:0:0:0:
17,60,190540,1,6,0:3:0:0:
17,60,190633,1,8,0:0:0:0:
174,112,190821,1,6,1:3:0:0:
174,112,190915,2,0,L|273:94,1,93.5000028533936,4|10,0:3|1:3,0:0:0:0:
404,83,191290,6,0,B|430:154|387:217|387:217,1,140.25000428009,6|4,0:3|0:0,0:0:0:0:
401,368,191665,2,0,B|376:298|419:235|419:235,1,140.25000428009,4|0,0:3|0:0,0:0:0:0:
386,217,192040,1,4,0:3:0:0:
342,205,192133,1,8,0:0:0:0:
297,193,192227,1,14,1:3:0:0:
142,127,192415,5,4,1:3:0:0:
90,148,192508,1,8,1:3:0:0:
66,199,192602,1,12,1:3:0:0:
76,254,192696,1,12,1:3:0:0:
119,289,192790,5,4,0:2:0:0:
386,217,193071,2,0,B|350:129|396:82|396:82,1,140.25000428009,2|10,1:3|1:3,0:0:0:0:
231,128,193540,5,4,0:2:0:0:
427,222,193821,2,0,B|428:220|382:267|418:355,1,140.25000428009,10|10,1:3|1:3,0:0:0:0:
308,305,194290,5,4,0:2:0:0:
267,327,194383,1,0,0:0:0:0:
220,334,194477,1,10,1:3:0:0:
173,326,194571,1,10,1:3:0:0:
130,307,194665,1,4,0:3:0:0:
231,186,194852,1,10,1:3:0:0:
21,110,195040,1,6,1:3:0:0:
21,110,195133,2,0,P|24:173|43:223,1,93.5000028533936,8|0,1:3|0:0,0:0:0:0:
43,234,195415,2,0,L|137:212,1,93.5000028533936,4|14,1:2|1:3,0:0:0:0:
292,42,195790,5,4,1:2:0:0:
194,130,195977,1,8,3:3:0:0:
194,130,196071,1,6,1:3:0:0:
321,170,196352,1,6,1:3:0:0:
123,220,196540,5,4,1:1:0:0:
123,220,196633,1,0,0:0:0:0:
345,288,196821,1,10,1:3:0:0:
345,288,196915,1,12,0:3:0:0:
214,378,197102,1,14,1:3:0:0:
216,288,197290,1,4,1:2:0:0:
256,192,197383,12,4,198790,1:2:0:0:
