osu file format v14

[General]
AudioFilename: Pure Furies ~ Whereabouts of the Heart.mp3
AudioLeadIn: 0
PreviewTime: 234264
Countdown: 0
SampleSet: Normal
StackLeniency: 0.7
Mode: 1
LetterboxInBreaks: 0
WidescreenStoryboard: 0

[Editor]
Bookmarks: 169661,191139
DistanceSpacing: 1
BeatDivisor: 2
GridSize: 16
TimelineZoom: 1

[Metadata]
Title:Pure Furies ~ Whereabouts of the Heart
TitleUnicode:ピュアヒューリーズ ~ 心の在処
Artist:ZUN
ArtistUnicode:ZUN
Creator:DestinySonata
Version:Futsuu
Source:東方Project
Tags:touhou kanjuden 15 legacy of lunatic kingdom junko
BeatmapID:886602
BeatmapSetID:405846

[Difficulty]
HPDrainRate:7
CircleSize:2
OverallDifficulty:4
ApproachRate:5
SliderMultiplier:1.4
SliderTickRate:1

[Events]
//Background and Video events
0,0,"junko.jpg",0,120
//Break Periods
//Storyboard Layer 0 (Background)
//Storyboard Layer 1 (Fail)
//Storyboard Layer 2 (Pass)
//Storyboard Layer 3 (Foreground)
//Storyboard Sound Samples

[TimingPoints]
230,340.909090909091,4,1,0,50,1,0
234775,-100,4,1,0,50,0,1
272957,-100,4,1,0,50,0,0

[HitObjects]
256,192,230,5,0,0:0:0:0:
256,192,1252,1,0,0:0:0:0:
256,192,1593,1,0,0:0:0:0:
256,192,2957,1,0,0:0:0:0:
256,192,3980,1,0,0:0:0:0:
256,192,4320,1,0,0:0:0:0:
256,192,5343,1,0,0:0:0:0:
256,192,5684,1,8,0:0:0:0:
256,192,6025,1,8,0:0:0:0:
256,192,6707,1,0,0:0:0:0:
256,192,7048,1,0,0:0:0:0:
256,192,7730,1,0,0:0:0:0:
256,192,8070,1,0,0:0:0:0:
256,192,8752,1,8,0:0:0:0:
256,192,9434,1,0,0:0:0:0:
256,192,9775,1,0,0:0:0:0:
256,192,10457,1,0,0:0:0:0:
256,192,10798,1,0,0:0:0:0:
256,192,11480,1,8,0:0:0:0:
256,192,12161,1,0,0:0:0:0:
256,192,12502,1,0,0:0:0:0:
256,192,13184,1,0,0:0:0:0:
256,192,13525,1,0,0:0:0:0:
256,192,14207,1,8,0:0:0:0:
256,192,14889,1,0,0:0:0:0:
256,192,15230,1,8,0:0:0:0:
256,192,15911,1,8,0:0:0:0:
256,192,16252,1,2,0:0:0:0:
256,192,16593,1,0,0:0:0:0:
256,192,16934,1,8,0:0:0:0:
256,192,17275,1,0,0:0:0:0:
256,192,17786,1,8,0:0:0:0:
256,192,17957,1,0,0:0:0:0:
256,192,18298,1,8,0:0:0:0:
256,192,18639,1,0,0:0:0:0:
256,192,19320,1,8,0:0:0:0:
256,192,20002,1,0,0:0:0:0:
256,192,20514,1,8,0:0:0:0:
256,192,20684,1,0,0:0:0:0:
256,192,21025,1,8,0:0:0:0:
256,192,21366,1,0,0:0:0:0:
256,192,22048,1,8,0:0:0:0:
256,192,22730,1,0,0:0:0:0:
256,192,23241,1,8,0:0:0:0:
256,192,23411,1,0,0:0:0:0:
256,192,23752,1,8,0:0:0:0:
256,192,24093,1,0,0:0:0:0:
256,192,24775,1,8,0:0:0:0:
256,192,25457,1,0,0:0:0:0:
256,192,25968,1,8,0:0:0:0:
256,192,26139,1,0,0:0:0:0:
256,192,26480,1,8,0:0:0:0:
256,192,26820,1,0,0:0:0:0:
256,192,27502,1,8,0:0:0:0:
256,192,27843,1,8,0:0:0:0:
256,192,28184,1,0,0:0:0:0:
256,192,28525,1,8,0:0:0:0:
256,192,28866,1,8,0:0:0:0:
256,192,29548,1,0,0:0:0:0:
256,192,29889,1,8,0:0:0:0:
256,192,30230,1,0,0:0:0:0:
256,192,30911,1,0,0:0:0:0:
256,192,31252,1,8,0:0:0:0:
256,192,31593,1,0,0:0:0:0:
256,192,31934,1,8,0:0:0:0:
256,192,32105,1,0,0:0:0:0:
256,192,32616,1,8,0:0:0:0:
256,192,32957,1,8,0:0:0:0:
256,192,33639,1,8,0:0:0:0:
256,192,34150,1,0,0:0:0:0:
256,192,34320,1,8,0:0:0:0:
256,192,34661,1,8,0:0:0:0:
256,192,35002,1,8,0:0:0:0:
256,192,35514,1,8,0:0:0:0:
256,192,35684,1,0,0:0:0:0:
256,192,36366,1,8,0:0:0:0:
256,192,36707,1,0,0:0:0:0:
256,192,37389,1,8,0:0:0:0:
256,192,37730,1,0,0:0:0:0:
256,192,38070,1,0,0:0:0:0:
256,192,38411,1,8,0:0:0:0:
256,192,38752,1,8,0:0:0:0:
256,192,38923,1,0,0:0:0:0:
256,192,39434,1,8,0:0:0:0:
256,192,39775,1,0,0:0:0:0:
256,192,40116,1,8,0:0:0:0:
256,192,40286,1,0,0:0:0:0:
256,192,40798,1,8,0:0:0:0:
256,192,41139,1,0,0:0:0:0:
256,192,41480,1,8,0:0:0:0:
256,192,41650,1,0,0:0:0:0:
256,192,42161,1,8,0:0:0:0:
256,192,42502,1,0,0:0:0:0:
256,192,43184,1,8,0:0:0:0:
256,192,43525,1,8,0:0:0:0:
256,192,43866,1,8,0:0:0:0:
256,192,44548,1,0,0:0:0:0:
256,192,44889,1,8,0:0:0:0:
256,192,45570,1,8,0:0:0:0:
256,192,45911,1,0,0:0:0:0:
256,192,46252,1,8,0:0:0:0:
256,192,46593,1,0,0:0:0:0:
256,192,47275,1,0,0:0:0:0:
256,192,47616,1,8,0:0:0:0:
256,192,47957,1,8,0:0:0:0:
256,192,48639,1,0,0:0:0:0:
256,192,48980,1,8,0:0:0:0:
256,192,49320,1,8,0:0:0:0:
256,192,49661,1,8,0:0:0:0:
256,192,49832,1,0,0:0:0:0:
256,192,50343,1,8,0:0:0:0:
256,192,50684,1,0,0:0:0:0:
256,192,51025,1,8,0:0:0:0:
256,192,51195,1,0,0:0:0:0:
256,192,51707,1,8,0:0:0:0:
256,192,52048,1,0,0:0:0:0:
256,192,52389,1,8,0:0:0:0:
256,192,52559,1,0,0:0:0:0:
256,192,53070,1,8,0:0:0:0:
256,192,53411,1,0,0:0:0:0:
256,192,54093,1,0,0:0:0:0:
256,192,54434,1,8,0:0:0:0:
256,192,54775,1,8,0:0:0:0:
256,192,55457,1,0,0:0:0:0:
256,192,55798,1,8,0:0:0:0:
256,192,56480,1,8,0:0:0:0:
256,192,57161,1,8,0:0:0:0:
256,192,57502,1,8,0:0:0:0:
256,192,58184,1,0,0:0:0:0:
256,192,58525,1,8,0:0:0:0:
256,192,58866,1,8,0:0:0:0:
256,192,59377,1,8,0:0:0:0:
256,192,59548,1,0,0:0:0:0:
256,192,59889,1,0,0:0:0:0:
256,192,60230,1,8,0:0:0:0:
256,192,60570,1,8,0:0:0:0:
256,192,60741,1,0,0:0:0:0:
256,192,61252,1,8,0:0:0:0:
256,192,61593,1,0,0:0:0:0:
256,192,61934,1,8,0:0:0:0:
256,192,62105,1,0,0:0:0:0:
256,192,62616,1,8,0:0:0:0:
256,192,62957,1,0,0:0:0:0:
256,192,63298,1,8,0:0:0:0:
256,192,63468,1,0,0:0:0:0:
256,192,63980,1,8,0:0:0:0:
256,192,64320,1,0,0:0:0:0:
256,192,65002,1,0,0:0:0:0:
256,192,65343,1,8,0:0:0:0:
256,192,65684,1,8,0:0:0:0:
256,192,66366,1,0,0:0:0:0:
256,192,66707,1,8,0:0:0:0:
256,192,67389,1,8,0:0:0:0:
256,192,67730,1,0,0:0:0:0:
256,192,68070,1,8,0:0:0:0:
256,192,68411,1,0,0:0:0:0:
256,192,69093,1,8,0:0:0:0:
256,192,69434,1,8,0:0:0:0:
256,192,69945,1,0,0:0:0:0:
256,192,70116,1,8,0:0:0:0:
256,192,70457,1,8,0:0:0:0:
256,192,70798,1,0,0:0:0:0:
256,192,71139,1,12,0:0:0:0:
256,192,71480,1,8,0:0:0:0:
256,192,71650,1,0,0:0:0:0:
256,192,72161,1,8,0:0:0:0:
256,192,72502,1,0,0:0:0:0:
256,192,72843,1,8,0:0:0:0:
256,192,73014,1,0,0:0:0:0:
256,192,73525,1,8,0:0:0:0:
256,192,73866,1,0,0:0:0:0:
256,192,74207,1,8,0:0:0:0:
256,192,74377,1,0,0:0:0:0:
256,192,74889,1,8,0:0:0:0:
256,192,75230,1,8,0:0:0:0:
256,192,75911,1,0,0:0:0:0:
256,192,76252,1,8,0:0:0:0:
256,192,76593,1,8,0:0:0:0:
256,192,77275,1,0,0:0:0:0:
256,192,77616,1,8,0:0:0:0:
256,192,78298,1,8,0:0:0:0:
256,192,78639,1,0,0:0:0:0:
256,192,79320,1,8,0:0:0:0:
256,192,79661,1,8,0:0:0:0:
256,192,79832,1,0,0:0:0:0:
256,192,80343,1,8,0:0:0:0:
256,192,81025,1,8,0:0:0:0:
256,192,81366,1,0,0:0:0:0:
256,192,82048,1,8,0:0:0:0:
256,192,82730,1,0,0:0:0:0:
256,192,83241,1,8,0:0:0:0:
256,192,83411,1,0,0:0:0:0:
256,192,83752,1,8,0:0:0:0:
256,192,84093,1,0,0:0:0:0:
256,192,84775,1,0,0:0:0:0:
256,192,85457,1,8,0:0:0:0:
256,192,85968,1,8,0:0:0:0:
256,192,86139,1,0,0:0:0:0:
256,192,86480,1,8,0:0:0:0:
256,192,86820,1,0,0:0:0:0:
256,192,87502,1,8,0:0:0:0:
256,192,88184,1,0,0:0:0:0:
256,192,88695,1,8,0:0:0:0:
256,192,88866,1,0,0:0:0:0:
256,192,89207,1,8,0:0:0:0:
256,192,89548,1,0,0:0:0:0:
256,192,90230,1,8,0:0:0:0:
256,192,90911,1,0,0:0:0:0:
256,192,91423,1,8,0:0:0:0:
256,192,91593,1,0,0:0:0:0:
256,192,91934,1,8,0:0:0:0:
256,192,92275,1,0,0:0:0:0:
256,192,92957,1,8,0:0:0:0:
256,192,93298,1,8,0:0:0:0:
256,192,93639,1,0,0:0:0:0:
256,192,94320,1,8,0:0:0:0:
256,192,95002,1,0,0:0:0:0:
256,192,95343,1,8,0:0:0:0:
256,192,95684,1,0,0:0:0:0:
256,192,96366,1,0,0:0:0:0:
256,192,96707,1,8,0:0:0:0:
256,192,97048,1,8,0:0:0:0:
256,192,97730,1,0,0:0:0:0:
256,192,98070,1,8,0:0:0:0:
256,192,98411,1,8,0:0:0:0:
256,192,99093,1,0,0:0:0:0:
256,192,99434,1,8,0:0:0:0:
256,192,99775,1,0,0:0:0:0:
256,192,100457,1,8,0:0:0:0:
256,192,100968,1,8,0:0:0:0:
256,192,101139,1,0,0:0:0:0:
256,192,101820,1,0,0:0:0:0:
256,192,102161,1,8,0:0:0:0:
256,192,102502,1,0,0:0:0:0:
256,192,103184,1,8,0:0:0:0:
256,192,103866,1,0,0:0:0:0:
256,192,104207,1,8,0:0:0:0:
256,192,104548,1,0,0:0:0:0:
256,192,105059,1,8,0:0:0:0:
256,192,105230,1,0,0:0:0:0:
256,192,105570,1,8,0:0:0:0:
256,192,105911,1,0,0:0:0:0:
256,192,106593,1,8,0:0:0:0:
256,192,107275,1,0,0:0:0:0:
256,192,107786,1,8,0:0:0:0:
256,192,107957,1,0,0:0:0:0:
256,192,108298,1,8,0:0:0:0:
256,192,108639,1,0,0:0:0:0:
256,192,109320,1,8,0:0:0:0:
256,192,110002,1,0,0:0:0:0:
256,192,110514,1,8,0:0:0:0:
256,192,110684,1,0,0:0:0:0:
256,192,111025,1,8,0:0:0:0:
256,192,111366,1,0,0:0:0:0:
256,192,112048,1,8,0:0:0:0:
256,192,112730,1,0,0:0:0:0:
256,192,113241,1,8,0:0:0:0:
256,192,113411,1,0,0:0:0:0:
256,192,113752,1,8,0:0:0:0:
256,192,114093,1,0,0:0:0:0:
256,192,114775,1,8,0:0:0:0:
256,192,115116,1,8,0:0:0:0:
256,192,115457,1,8,0:0:0:0:
256,192,116139,1,8,0:0:0:0:
256,192,116480,1,8,0:0:0:0:
256,192,116820,1,8,0:0:0:0:
256,192,117332,1,0,0:0:0:0:
256,192,117502,1,0,0:0:0:0:
256,192,118184,1,0,0:0:0:0:
256,192,118525,1,8,0:0:0:0:
256,192,118866,1,0,0:0:0:0:
256,192,119548,1,0,0:0:0:0:
256,192,119889,1,8,0:0:0:0:
256,192,120230,1,8,0:0:0:0:
256,192,120911,1,8,0:0:0:0:
256,192,121423,1,0,0:0:0:0:
256,192,121593,1,8,0:0:0:0:
256,192,121934,1,8,0:0:0:0:
256,192,122275,1,8,0:0:0:0:
256,192,122786,1,8,0:0:0:0:
256,192,122957,1,0,0:0:0:0:
256,192,123639,1,8,0:0:0:0:
256,192,123980,1,8,0:0:0:0:
256,192,124320,1,0,0:0:0:0:
256,192,124832,1,8,0:0:0:0:
256,192,125002,1,0,0:0:0:0:
256,192,125343,1,0,0:0:0:0:
256,192,125684,1,8,0:0:0:0:
256,192,126025,1,8,0:0:0:0:
256,192,126195,1,0,0:0:0:0:
256,192,126707,1,8,0:0:0:0:
256,192,127048,1,0,0:0:0:0:
256,192,127389,1,8,0:0:0:0:
256,192,127559,1,0,0:0:0:0:
256,192,128070,1,8,0:0:0:0:
256,192,128411,1,0,0:0:0:0:
256,192,128752,1,8,0:0:0:0:
256,192,128923,1,0,0:0:0:0:
256,192,129434,1,8,0:0:0:0:
256,192,129775,1,0,0:0:0:0:
256,192,130116,1,8,0:0:0:0:
256,192,130286,1,0,0:0:0:0:
256,192,130798,1,0,0:0:0:0:
256,192,131139,1,8,0:0:0:0:
256,192,131820,1,0,0:0:0:0:
256,192,132161,1,8,0:0:0:0:
256,192,132843,1,8,0:0:0:0:
256,192,133184,1,0,0:0:0:0:
256,192,133525,1,8,0:0:0:0:
256,192,133866,1,0,0:0:0:0:
256,192,134548,1,0,0:0:0:0:
256,192,134889,1,8,0:0:0:0:
256,192,135570,1,8,0:0:0:0:
256,192,136252,1,0,0:0:0:0:
256,192,136593,1,8,0:0:0:0:
256,192,136934,1,8,0:0:0:0:
256,192,137105,1,0,0:0:0:0:
256,192,137616,1,8,0:0:0:0:
256,192,137957,1,0,0:0:0:0:
256,192,138298,1,8,0:0:0:0:
256,192,138468,1,0,0:0:0:0:
256,192,138980,1,8,0:0:0:0:
256,192,139320,1,0,0:0:0:0:
256,192,139661,1,8,0:0:0:0:
256,192,139832,1,0,0:0:0:0:
256,192,140343,1,8,0:0:0:0:
256,192,140684,1,0,0:0:0:0:
256,192,141025,1,8,0:0:0:0:
256,192,141195,1,0,0:0:0:0:
256,192,141707,1,8,0:0:0:0:
256,192,142048,1,8,0:0:0:0:
256,192,142730,1,0,0:0:0:0:
256,192,143070,1,8,0:0:0:0:
256,192,143752,1,8,0:0:0:0:
256,192,144093,1,0,0:0:0:0:
256,192,144434,1,8,0:0:0:0:
256,192,144775,1,8,0:0:0:0:
256,192,145798,1,0,0:0:0:0:
256,192,146139,1,8,0:0:0:0:
256,192,146820,1,0,0:0:0:0:
256,192,147161,1,0,0:0:0:0:
256,192,147502,1,8,0:0:0:0:
256,192,147843,1,8,0:0:0:0:
256,192,148014,1,0,0:0:0:0:
256,192,148525,1,8,0:0:0:0:
256,192,148866,1,0,0:0:0:0:
256,192,149207,1,8,0:0:0:0:
256,192,149377,1,0,0:0:0:0:
256,192,149889,1,8,0:0:0:0:
256,192,150230,1,0,0:0:0:0:
256,192,150570,1,8,0:0:0:0:
256,192,150741,1,0,0:0:0:0:
256,192,151252,1,8,0:0:0:0:
256,192,151593,1,0,0:0:0:0:
256,192,151934,1,8,0:0:0:0:
256,192,152105,1,0,0:0:0:0:
256,192,152616,1,8,0:0:0:0:
256,192,152957,1,8,0:0:0:0:
256,192,153639,1,0,0:0:0:0:
256,192,153980,1,8,0:0:0:0:
256,192,154661,1,8,0:0:0:0:
256,192,155002,1,0,0:0:0:0:
256,192,155343,1,8,0:0:0:0:
256,192,155684,1,0,0:0:0:0:
256,192,156025,1,8,0:0:0:0:
256,192,156195,1,0,0:0:0:0:
256,192,156707,1,8,0:0:0:0:
256,192,157048,1,8,0:0:0:0:
256,192,157218,1,8,0:0:0:0:
256,192,157389,1,0,0:0:0:0:
256,192,157730,1,8,0:0:0:0:
256,192,158411,1,8,0:0:0:0:
256,192,158752,1,8,0:0:0:0:
256,192,158923,1,0,0:0:0:0:
256,192,159434,1,8,0:0:0:0:
256,192,159775,1,0,0:0:0:0:
256,192,160116,1,8,0:0:0:0:
256,192,160286,1,0,0:0:0:0:
256,192,160798,1,8,0:0:0:0:
256,192,161139,1,0,0:0:0:0:
256,192,161480,1,8,0:0:0:0:
256,192,161650,1,0,0:0:0:0:
256,192,162161,1,8,0:0:0:0:
256,192,162502,1,0,0:0:0:0:
256,192,162843,1,8,0:0:0:0:
256,192,163184,1,0,0:0:0:0:
256,192,163525,1,8,0:0:0:0:
256,192,163695,1,0,0:0:0:0:
256,192,163866,1,8,0:0:0:0:
256,192,164548,1,0,0:0:0:0:
256,192,164889,1,8,0:0:0:0:
256,192,165570,1,8,0:0:0:0:
256,192,165911,1,0,0:0:0:0:
256,192,166082,1,0,0:0:0:0:
256,192,166252,1,8,0:0:0:0:
256,192,166593,1,8,0:0:0:0:
256,192,167275,1,0,0:0:0:0:
256,192,167616,1,8,0:0:0:0:
256,192,167957,1,8,0:0:0:0:
256,192,168127,1,8,0:0:0:0:
256,192,168298,1,8,0:0:0:0:
256,192,168639,1,8,0:0:0:0:
256,192,168980,1,0,0:0:0:0:
256,192,169320,1,8,0:0:0:0:
256,192,169661,1,8,0:0:0:0:
256,192,169832,1,0,0:0:0:0:
256,192,170173,1,8,0:0:0:0:
256,192,170514,1,8,0:0:0:0:
256,192,170684,1,0,0:0:0:0:
256,192,171195,1,8,0:0:0:0:
256,192,171536,1,8,0:0:0:0:
256,192,171707,1,0,0:0:0:0:
256,192,172048,1,8,0:0:0:0:
256,192,172389,1,8,0:0:0:0:
256,192,172559,1,0,0:0:0:0:
256,192,172900,1,8,0:0:0:0:
256,192,173241,1,8,0:0:0:0:
256,192,173411,1,0,0:0:0:0:
256,192,173923,1,8,0:0:0:0:
256,192,174264,1,8,0:0:0:0:
256,192,174434,1,0,0:0:0:0:
256,192,174775,1,8,0:0:0:0:
256,192,175116,1,8,0:0:0:0:
256,192,175286,1,0,0:0:0:0:
256,192,175627,1,8,0:0:0:0:
256,192,175968,1,8,0:0:0:0:
256,192,176139,1,0,0:0:0:0:
256,192,176650,1,8,0:0:0:0:
256,192,176991,1,8,0:0:0:0:
256,192,177161,1,0,0:0:0:0:
256,192,177502,1,8,0:0:0:0:
256,192,177843,1,8,0:0:0:0:
256,192,178014,1,0,0:0:0:0:
256,192,178355,1,8,0:0:0:0:
256,192,178695,1,0,0:0:0:0:
256,192,178866,1,8,0:0:0:0:
256,192,179548,1,8,0:0:0:0:
256,192,179889,1,2,0:0:0:0:
256,192,180059,1,2,0:0:0:0:
256,192,180230,1,0,0:0:0:0:
256,192,180570,1,8,0:0:0:0:
256,192,180741,1,0,0:0:0:0:
256,192,181082,1,0,0:0:0:0:
256,192,181423,1,0,0:0:0:0:
256,192,181593,1,0,0:0:0:0:
256,192,182105,1,8,0:0:0:0:
256,192,182445,1,8,0:0:0:0:
256,192,182616,1,0,0:0:0:0:
256,192,182957,1,8,0:0:0:0:
256,192,183298,1,8,0:0:0:0:
256,192,183468,1,0,0:0:0:0:
256,192,183809,1,8,0:0:0:0:
256,192,184150,1,0,0:0:0:0:
256,192,184320,1,0,0:0:0:0:
256,192,184832,1,8,0:0:0:0:
256,192,185173,1,8,0:0:0:0:
256,192,185343,1,0,0:0:0:0:
256,192,185684,1,8,0:0:0:0:
256,192,186025,1,8,0:0:0:0:
256,192,186195,1,0,0:0:0:0:
256,192,186536,1,8,0:0:0:0:
256,192,186877,1,8,0:0:0:0:
256,192,187048,1,0,0:0:0:0:
256,192,187559,1,8,0:0:0:0:
256,192,187900,1,8,0:0:0:0:
256,192,188070,1,0,0:0:0:0:
256,192,188411,1,8,0:0:0:0:
256,192,188752,1,8,0:0:0:0:
256,192,188923,1,0,0:0:0:0:
256,192,189264,1,8,0:0:0:0:
256,192,189605,1,8,0:0:0:0:
256,192,189775,1,0,0:0:0:0:
256,192,190286,1,8,0:0:0:0:
256,192,190457,1,0,0:0:0:0:
256,192,190798,1,0,0:0:0:0:
256,192,190968,1,0,0:0:0:0:
256,192,191139,1,8,0:0:0:0:
256,192,191480,1,8,0:0:0:0:
256,192,191650,1,0,0:0:0:0:
256,192,191991,1,8,0:0:0:0:
256,192,192332,1,8,0:0:0:0:
256,192,192502,1,0,0:0:0:0:
256,192,192843,1,8,0:0:0:0:
256,192,193184,1,0,0:0:0:0:
256,192,193355,1,8,0:0:0:0:
256,192,193525,1,0,0:0:0:0:
256,192,193866,1,8,0:0:0:0:
256,192,194207,1,8,0:0:0:0:
256,192,194377,1,0,0:0:0:0:
256,192,194718,1,8,0:0:0:0:
256,192,195059,1,8,0:0:0:0:
256,192,195230,1,0,0:0:0:0:
256,192,195570,1,8,0:0:0:0:
256,192,195911,1,0,0:0:0:0:
256,192,196082,1,8,0:0:0:0:
256,192,196252,1,0,0:0:0:0:
256,192,196593,1,8,0:0:0:0:
256,192,196934,1,8,0:0:0:0:
256,192,197105,1,0,0:0:0:0:
256,192,197445,1,8,0:0:0:0:
256,192,197786,1,8,0:0:0:0:
256,192,197957,1,0,0:0:0:0:
256,192,198298,1,8,0:0:0:0:
256,192,198639,1,0,0:0:0:0:
256,192,198809,1,8,0:0:0:0:
256,192,198980,1,0,0:0:0:0:
256,192,199320,1,8,0:0:0:0:
256,192,199661,1,8,0:0:0:0:
256,192,199832,1,0,0:0:0:0:
256,192,200173,1,8,0:0:0:0:
256,192,200514,1,8,0:0:0:0:
256,192,200684,1,0,0:0:0:0:
256,192,201025,1,8,0:0:0:0:
256,192,201366,1,0,0:0:0:0:
256,192,201536,1,8,0:0:0:0:
256,192,201707,1,0,0:0:0:0:
256,192,202048,1,8,0:0:0:0:
256,192,202218,1,0,0:0:0:0:
256,192,202389,1,8,0:0:0:0:
256,192,202559,1,0,0:0:0:0:
256,192,202900,1,0,0:0:0:0:
256,192,203241,1,8,0:0:0:0:
256,192,203411,1,0,0:0:0:0:
256,192,203752,1,8,0:0:0:0:
256,192,204093,1,8,0:0:0:0:
256,192,204264,1,0,0:0:0:0:
256,192,204434,1,8,0:0:0:0:
256,192,204775,1,0,0:0:0:0:
256,192,205116,1,8,0:0:0:0:
256,192,205286,1,0,0:0:0:0:
256,192,205798,1,8,0:0:0:0:
256,192,206139,1,8,0:0:0:0:
256,192,206309,1,8,0:0:0:0:
256,192,206480,1,8,0:0:0:0:
256,192,206650,1,0,0:0:0:0:
256,192,206991,1,0,0:0:0:0:
256,192,207161,1,8,0:0:0:0:
256,192,207502,1,8,0:0:0:0:
256,192,207843,1,8,0:0:0:0:
256,192,208014,1,0,0:0:0:0:
256,192,208355,1,0,0:0:0:0:
256,192,208525,1,8,0:0:0:0:
256,192,208695,1,0,0:0:0:0:
256,192,208866,1,8,0:0:0:0:
256,192,209207,1,0,0:0:0:0:
256,192,209548,1,8,0:0:0:0:
256,192,210230,1,0,0:0:0:0:
256,192,210570,1,8,0:0:0:0:
256,192,210741,1,0,0:0:0:0:
256,192,211252,1,8,0:0:0:0:
256,192,211593,1,8,0:0:0:0:
256,192,211934,1,8,0:0:0:0:
256,192,212275,1,8,0:0:0:0:
256,192,212616,1,8,0:0:0:0:
256,192,212786,1,0,0:0:0:0:
256,192,212957,1,0,0:0:0:0:
256,192,213298,1,8,0:0:0:0:
256,192,213639,1,0,0:0:0:0:
256,192,214150,1,8,0:0:0:0:
256,192,214320,1,0,0:0:0:0:
256,192,214661,1,8,0:0:0:0:
256,192,215002,1,0,0:0:0:0:
256,192,215684,1,8,0:0:0:0:
256,192,216025,1,8,0:0:0:0:
256,192,216366,1,0,0:0:0:0:
256,192,216877,1,8,0:0:0:0:
256,192,217048,1,0,0:0:0:0:
256,192,217389,1,8,0:0:0:0:
256,192,217730,1,0,0:0:0:0:
256,192,218411,1,8,0:0:0:0:
256,192,218752,1,8,0:0:0:0:
256,192,219093,1,0,0:0:0:0:
256,192,219605,1,8,0:0:0:0:
256,192,219775,1,0,0:0:0:0:
256,192,220116,1,8,0:0:0:0:
256,192,220457,1,0,0:0:0:0:
256,192,221139,1,8,0:0:0:0:
256,192,221480,1,8,0:0:0:0:
256,192,221820,1,0,0:0:0:0:
256,192,222332,1,8,0:0:0:0:
256,192,222502,1,0,0:0:0:0:
256,192,222843,1,8,0:0:0:0:
256,192,223184,1,0,0:0:0:0:
256,192,223525,1,0,0:0:0:0:
256,192,223695,1,8,0:0:0:0:
256,192,223866,1,8,0:0:0:0:
256,192,224548,1,0,0:0:0:0:
256,192,225230,1,8,0:0:0:0:
256,192,225570,1,0,0:0:0:0:
256,192,225911,1,8,0:0:0:0:
256,192,226593,1,0,0:0:0:0:
256,192,227275,1,0,0:0:0:0:
256,192,227445,1,0,0:0:0:0:
256,192,227616,1,8,0:0:0:0:
256,192,227957,1,0,0:0:0:0:
256,192,228298,1,8,0:0:0:0:
256,192,228980,1,8,0:0:0:0:
256,192,229320,1,8,0:0:0:0:
256,192,230002,1,8,0:0:0:0:
256,192,230684,1,8,0:0:0:0:
256,192,231025,1,8,0:0:0:0:
256,192,231366,1,8,0:0:0:0:
256,192,231877,1,8,0:0:0:0:
256,192,232048,1,0,0:0:0:0:
256,192,232730,1,8,0:0:0:0:
256,192,232900,1,0,0:0:0:0:
256,192,233070,1,0,0:0:0:0:
256,192,233411,1,0,0:0:0:0:
256,192,233582,1,0,0:0:0:0:
256,192,233752,1,8,0:0:0:0:
256,192,234093,1,0,0:0:0:0:
256,192,234434,1,0,0:0:0:0:
256,192,234775,1,8,0:0:0:0:
256,192,235116,1,8,0:0:0:0:
256,192,235286,1,0,0:0:0:0:
256,192,235627,1,0,0:0:0:0:
256,192,235798,1,8,0:0:0:0:
256,192,235968,1,0,0:0:0:0:
256,192,236139,1,0,0:0:0:0:
256,192,236480,1,8,0:0:0:0:
256,192,236650,1,0,0:0:0:0:
256,192,237161,1,8,0:0:0:0:
256,192,237502,1,0,0:0:0:0:
256,192,237843,1,8,0:0:0:0:
256,192,238014,1,0,0:0:0:0:
256,192,238355,1,0,0:0:0:0:
256,192,238525,1,8,0:0:0:0:
256,192,238695,1,0,0:0:0:0:
256,192,238866,1,0,0:0:0:0:
256,192,239207,1,8,0:0:0:0:
256,192,239548,1,0,0:0:0:0:
256,192,239718,1,0,0:0:0:0:
256,192,239889,1,8,0:0:0:0:
256,192,240230,1,8,0:0:0:0:
256,192,240911,1,0,0:0:0:0:
256,192,241252,1,8,0:0:0:0:
256,192,241934,1,8,0:0:0:0:
256,192,242275,1,0,0:0:0:0:
256,192,242445,1,0,0:0:0:0:
256,192,242616,1,8,0:0:0:0:
256,192,242957,1,0,0:0:0:0:
256,192,243298,1,8,0:0:0:0:
256,192,243468,1,8,0:0:0:0:
256,192,243809,1,0,0:0:0:0:
256,192,243980,1,8,0:0:0:0:
256,192,244661,1,8,0:0:0:0:
256,192,245002,1,8,0:0:0:0:
256,192,245173,1,8,0:0:0:0:
256,192,245343,1,0,0:0:0:0:
256,192,245684,1,8,0:0:0:0:
256,192,246025,1,8,0:0:0:0:
256,192,246195,1,0,0:0:0:0:
256,192,246536,1,0,0:0:0:0:
256,192,246707,1,8,0:0:0:0:
256,192,246877,1,0,0:0:0:0:
256,192,247048,1,0,0:0:0:0:
256,192,247389,1,8,0:0:0:0:
256,192,247559,1,0,0:0:0:0:
256,192,248070,1,8,0:0:0:0:
256,192,248411,1,0,0:0:0:0:
256,192,248752,1,8,0:0:0:0:
256,192,248923,1,0,0:0:0:0:
256,192,249264,1,0,0:0:0:0:
256,192,249434,1,8,0:0:0:0:
256,192,249605,1,0,0:0:0:0:
256,192,249775,1,0,0:0:0:0:
256,192,250116,1,8,0:0:0:0:
256,192,250457,1,0,0:0:0:0:
256,192,250627,1,0,0:0:0:0:
256,192,250798,1,8,0:0:0:0:
256,192,251139,1,8,0:0:0:0:
256,192,251820,1,0,0:0:0:0:
256,192,252161,1,8,0:0:0:0:
256,192,252843,1,8,0:0:0:0:
256,192,253184,1,0,0:0:0:0:
256,192,253355,1,0,0:0:0:0:
256,192,253525,1,8,0:0:0:0:
256,192,253866,1,8,0:0:0:0:
256,192,254548,1,8,0:0:0:0:
256,192,254889,1,8,0:0:0:0:
256,192,255230,1,8,0:0:0:0:
256,192,255400,1,8,0:0:0:0:
256,192,255570,1,0,0:0:0:0:
256,192,255911,1,0,0:0:0:0:
256,192,256252,1,8,0:0:0:0:
256,192,256593,1,8,0:0:0:0:
256,192,256934,1,8,0:0:0:0:
256,192,257105,1,0,0:0:0:0:
256,192,257445,1,0,0:0:0:0:
256,192,257616,1,8,0:0:0:0:
256,192,257786,1,0,0:0:0:0:
256,192,257957,1,0,0:0:0:0:
256,192,258298,1,8,0:0:0:0:
256,192,258468,1,0,0:0:0:0:
256,192,258980,1,8,0:0:0:0:
256,192,259320,1,0,0:0:0:0:
256,192,259661,1,8,0:0:0:0:
256,192,259832,1,0,0:0:0:0:
256,192,260173,1,0,0:0:0:0:
256,192,260343,1,8,0:0:0:0:
256,192,260514,1,0,0:0:0:0:
256,192,260684,1,0,0:0:0:0:
256,192,261025,1,8,0:0:0:0:
256,192,261366,1,0,0:0:0:0:
256,192,261707,1,8,0:0:0:0:
256,192,262048,1,8,0:0:0:0:
256,192,262730,1,0,0:0:0:0:
256,192,263070,1,8,0:0:0:0:
256,192,263752,1,8,0:0:0:0:
256,192,264093,1,0,0:0:0:0:
256,192,264434,1,8,0:0:0:0:
256,192,264775,1,0,0:0:0:0:
256,192,265457,1,0,0:0:0:0:
256,192,265627,1,0,0:0:0:0:
256,192,265798,1,8,0:0:0:0:
256,192,266139,1,0,0:0:0:0:
256,192,266480,1,8,0:0:0:0:
256,192,266820,1,8,0:0:0:0:
256,192,266991,1,8,0:0:0:0:
256,192,267161,1,0,0:0:0:0:
256,192,267502,1,8,0:0:0:0:
256,192,267843,1,8,0:0:0:0:
256,192,268014,1,0,0:0:0:0:
256,192,268355,1,0,0:0:0:0:
256,192,268525,1,8,0:0:0:0:
256,192,268695,1,0,0:0:0:0:
256,192,268866,1,0,0:0:0:0:
256,192,269207,1,8,0:0:0:0:
256,192,269377,1,0,0:0:0:0:
256,192,269889,1,8,0:0:0:0:
256,192,270230,1,0,0:0:0:0:
256,192,270570,1,8,0:0:0:0:
256,192,270741,1,0,0:0:0:0:
256,192,271082,1,0,0:0:0:0:
256,192,271252,1,8,0:0:0:0:
256,192,271423,1,0,0:0:0:0:
256,192,271593,1,8,0:0:0:0:
256,192,271934,1,8,0:0:0:0:
256,192,272275,1,0,0:0:0:0:
256,192,272445,1,0,0:0:0:0:
256,192,272616,1,0,0:0:0:0:
256,192,272957,1,8,0:0:0:0:
256,192,273639,1,8,0:0:0:0:
256,192,274320,1,8,0:0:0:0:
256,192,274832,1,8,0:0:0:0:
256,192,275343,1,0,0:0:0:0:
256,192,275684,1,8,0:0:0:0:
256,192,276025,1,8,0:0:0:0:
256,192,276195,1,0,0:0:0:0:
256,192,276536,1,0,0:0:0:0:
256,192,276707,1,8,0:0:0:0:
256,192,277048,1,0,0:0:0:0:
256,192,277218,1,0,0:0:0:0:
256,192,277389,1,8,0:0:0:0:
256,192,277730,1,0,0:0:0:0:
256,192,277900,1,0,0:0:0:0:
256,192,278070,1,8,0:0:0:0:
256,192,278241,1,8,0:0:0:0:
256,192,278411,1,0,0:0:0:0:
