osu file format v14

[General]
AudioFilename: audio.mp3
AudioLeadIn: 0
PreviewTime: 21779
Countdown: 1
SampleSet: Normal
StackLeniency: 0.4
Mode: 0
LetterboxInBreaks: 0
WidescreenStoryboard: 1

[Editor]
Bookmarks: 156,21489,64155,85489,128156,149489
DistanceSpacing: 1.2
BeatDivisor: 2
GridSize: 8
TimelineZoom: 1.3

[Metadata]
Title:Pierrot of the Star-Spangled Banner
TitleUnicode:星条旗のピエロ
Artist:ZUN
ArtistUnicode:ZUN
Creator:frogyfro
Version:Normal
Source:東方Project
Tags:America United States USA Touhou 東方紺珠伝 Legacy of Lunatic Kingdom クラウンピース Clownpiece
BeatmapID:1372450
BeatmapSetID:638297

[Difficulty]
HPDrainRate:3
CircleSize:3
OverallDifficulty:4
ApproachRate:5
SliderMultiplier:0.749999999999999
SliderTickRate:1

[Events]
//Background and Video events
0,0,"Clownpiece.full.1923750.jpg",0,0
//Break Periods
//Storyboard Layer 0 (Background)
//Storyboard Layer 1 (Fail)
//Storyboard Layer 2 (Pass)
//Storyboard Layer 3 (Foreground)
//Storyboard Sound Samples

[TimingPoints]
560,333.333333333333,4,1,1,39,1,0
32559,-100,4,1,1,39,0,1
41893,-100,4,1,1,39,0,0

[Colours]
Combo1 : 0,0,160
Combo2 : 255,0,0
Combo3 : 200,200,200

[HitObjects]
36,150,560,6,0,L|194:127,1,150.000005722046,6|8,0:0|0:0,0:0:0:0:
287,215,1893,6,0,L|129:238,1,150.000005722046,2|8,0:0|0:0,0:0:0:0:
158,316,2893,21,2,0:0:0:0:
240,322,3226,2,0,L|398:299,1,150.000005722046,2|8,0:0|0:0,0:0:0:0:
367,220,4226,5,2,0:0:0:0:
287,215,4559,2,0,L|199:227,1,75.000002861023,2|2,0:0|0:0,0:0:0:0:
175,151,5226,22,0,L|262:138,1,75.000002861023,2|2,0:0|0:0,0:0:0:0:
333,123,5893,21,6,0:0:0:0:
417,110,6226,1,8,0:0:0:0:
456,187,6559,1,2,0:0:0:0:
394,247,6893,1,8,0:0:0:0:
317,207,7226,22,0,L|230:194,1,75.000002861023,2|8,0:0|0:0,0:0:0:0:
154,183,7893,1,2,0:0:0:0:
78,224,8226,1,8,0:0:0:0:
94,309,8559,22,0,L|181:296,1,75.000002861023,6|8,0:0|0:0,0:0:0:0:
228,244,9226,2,0,L|315:231,1,75.000002861023,2|8,0:0|0:0,0:0:0:0:
386,217,9893,5,2,0:0:0:0:
402,133,10226,1,8,0:0:0:0:
327,91,10559,2,0,L|240:104,1,75.000002861023,2|8,0:0|0:0,0:0:0:0:
192,173,11226,22,0,L|80:156,2,112.500004291534,6|2|8,0:0|0:0|0:0,0:0:0:0:
278,216,12559,6,0,L|389:199,2,112.500004291534,2|2|8,0:0|0:0|0:0,0:0:0:0:
192,259,13893,22,0,L|117:247,1,75.000002861023,6|8,0:0|0:0,0:0:0:0:
80,323,14559,6,0,L|154:334,1,75.000002861023,2|8,0:0|0:0,0:0:0:0:
248,336,15226,2,0,L|399:313,1,150,2|8,0:0|0:0,0:0:0:0:
386,224,16226,1,8,0:0:0:0:
306,190,16559,5,12,0:0:0:0:
251,257,16893,1,8,0:0:0:0:
172,223,17226,1,8,0:0:0:0:
178,137,17559,1,8,0:0:0:0:
262,117,17893,21,8,0:0:0:0:
306,190,18226,1,8,0:0:0:0:
390,170,18559,1,12,0:0:0:0:
396,83,18893,1,12,0:0:0:0:
318,49,19226,22,0,L|148:77,1,150.000005722046,12|0,0:0|0:0,0:0:0:0:
89,91,20226,1,8,0:0:0:0:
63,180,20559,6,0,L|233:152,1,150.000005722046,2|8,0:0|0:0,0:0:0:0:
292,138,21559,1,8,0:0:0:0:
335,214,21893,5,6,0:0:0:0:
276,279,22226,1,8,0:0:0:0:
195,242,22559,22,0,L|112:242,1,75.000002861023,2|8,0:0|0:0,0:0:0:0:
80,160,23226,22,0,L|333:160,1,225.000008583069,2|8,0:0|0:0,0:0:0:0:
370,218,24559,21,6,0:0:0:0:
340,303,24893,1,8,0:0:0:0:
249,300,25226,1,2,0:0:0:0:
223,213,25559,1,8,0:0:0:0:
132,210,25893,22,0,L|20:210,1,75.000002861023,2|8,0:0|0:0,0:0:0:0:
95,123,26559,22,0,L|206:123,1,75.000002861023,2|8,0:0|0:0,0:0:0:0:
257,140,27226,21,6,0:0:0:0:
285,227,27559,1,8,0:0:0:0:
210,280,27893,22,0,L|121:280,1,75.000002861023,2|8,0:0|0:0,0:0:0:0:
101,193,28559,22,0,L|343:193,1,225.000008583069,2|8,0:0|0:0,0:0:0:0:
359,105,29893,5,12,0:0:0:0:
268,105,30226,1,2,0:0:0:0:
239,191,30559,21,8,0:0:0:0:
330,191,30893,1,2,0:0:0:0:
358,277,31226,6,0,L|200:277,1,150.000005722046,2|0,0:0|0:0,0:0:0:0:
66,166,32559,5,6,0:0:0:0:
38,80,32893,1,8,0:0:0:0:
111,26,33226,1,2,0:0:0:0:
185,80,33559,1,8,0:0:0:0:
157,166,33893,22,0,L|383:166,1,225.000008583069,2|8,0:0|0:0,0:0:0:0:
406,252,35226,21,2,0:0:0:0:
315,252,35559,1,8,0:0:0:0:
263,325,35893,6,0,L|174:325,1,75.000002861023,2|8,0:0|0:0,0:0:0:0:
132,254,36559,22,0,L|45:254,2,74.9999999999999,2|8|2,0:0|0:0|0:0,0:0:0:0:
222,254,37559,1,8,0:0:0:0:
194,168,37893,21,2,0:0:0:0:
103,168,38226,1,8,0:0:0:0:
75,82,38559,1,2,0:0:0:0:
148,28,38893,1,8,0:0:0:0:
222,82,39226,6,0,L|373:82,1,150.000005722046,2|0,0:0|0:0,0:0:0:0:
462,82,40226,1,8,0:0:0:0:
434,168,40559,5,12,0:0:0:0:
343,168,40893,1,2,0:0:0:0:
315,254,41226,21,12,0:0:0:0:
224,254,41559,1,2,0:0:0:0:
193,168,41893,6,0,L|351:168,2,150,12|0|4,0:0|0:0|0:0,0:0:0:0:
