osu file format v14

[General]
AudioFilename: audio.mp3
AudioLeadIn: 0
PreviewTime: 21779
Countdown: 1
SampleSet: Normal
StackLeniency: 0.4
Mode: 0
LetterboxInBreaks: 0
WidescreenStoryboard: 0

[Editor]
Bookmarks: 156,21863,42822,64155,85489,128156,149489
DistanceSpacing: 1.2
BeatDivisor: 2
GridSize: 8
TimelineZoom: 2.250009

[Metadata]
Title:Pierrot of the Star-Spangled Banner
TitleUnicode:星条旗のピエロ
Artist:ZUN
ArtistUnicode:ZUN
Creator:frogyfro
Version:Freedom
Source:東方Project
Tags:America United States USA Touhou 東方紺珠伝 Legacy of Lunatic Kingdom クラウンピース Clownpiece
BeatmapID:1354055
BeatmapSetID:638297

[Difficulty]
HPDrainRate:5
CircleSize:4
OverallDifficulty:8.3
ApproachRate:8.5
SliderMultiplier:2
SliderTickRate:1

[Events]
//Background and Video events
0,0,"Clownpiece.full.1923750.jpg",0,0
//Break Periods
//Storyboard Layer 0 (Background)
//Storyboard Layer 1 (Fail)
//Storyboard Layer 2 (Pass)
//Storyboard Layer 3 (Foreground)
//Storyboard Sound Samples

[TimingPoints]
560,333.333333333333,4,1,1,39,1,0
560,-200,4,1,1,39,0,0
976,-200,4,1,1,5,0,0
1226,-100,4,1,1,39,0,0
1476,-100,4,1,1,5,0,0
1893,-200,4,1,1,39,0,0
2309,-200,4,1,1,5,0,0
2559,-100,4,1,1,39,0,0
2643,-100,4,1,1,5,0,0
2809,-100,4,1,1,39,0,0
3226,-200,4,1,1,39,0,0
3893,-100,4,1,1,39,0,0
3976,-100,4,1,1,5,0,0
4143,-100,4,1,1,39,0,0
11226,-133.333333333333,4,1,1,39,0,0
21893,-66.6666666666667,4,1,1,39,0,0
29559,-100,4,1,1,39,0,0
29893,-66.6666666666667,4,1,1,39,0,0
32559,-66.6666666666667,4,1,1,39,0,1
41893,-119.047619047619,4,1,1,39,0,0

[Colours]
Combo1 : 0,0,160
Combo2 : 255,0,0
Combo3 : 200,200,200

[HitObjects]
104,106,560,6,0,L|265:82,1,150,6|0,0:0|0:0,0:0:0:0:
384,143,1226,6,0,L|181:173,1,200,8|0,0:0|0:0,0:0:0:0:
104,238,1893,22,0,L|265:262,1,150,2|0,0:0|0:0,0:0:0:0:
339,191,2559,6,0,L|218:173,1,100,8|0,0:0|0:0,0:0:0:0:
101,152,2893,1,2,0:0:0:0:
302,110,3226,21,2,0:0:0:0:
92,165,3559,1,2,0:0:0:0:
252,234,3893,6,0,L|372:216,1,100,8|0,0:0|0:0,0:0:0:0:
452,181,4226,5,2,0:0:0:0:
288,152,4393,1,0,0:0:0:0:
425,49,4559,21,2,0:0:0:0:
275,121,4726,1,0,0:0:0:0:
439,150,4893,1,2,0:0:0:0:
237,50,5059,5,0,0:0:0:0:
260,215,5226,1,2,0:0:0:0:
338,67,5393,1,0,0:0:0:0:
169,227,5559,21,2,0:0:0:0:
334,256,5726,1,0,0:0:0:0:
109,320,5893,21,6,0:0:0:0:
274,349,6059,1,0,0:0:0:0:
98,301,6226,5,8,0:0:0:0:
263,330,6393,1,0,0:0:0:0:
87,282,6559,21,2,0:0:0:0:
252,311,6726,1,2,0:0:0:0:
135,190,6893,5,8,0:0:0:0:
158,355,7059,1,0,0:0:0:0:
283,116,7226,5,2,0:0:0:0:
206,263,7393,1,0,0:0:0:0:
183,98,7559,1,8,0:0:0:0:
299,216,7726,21,0,0:0:0:0:
113,310,7893,1,2,0:0:0:0:
240,330,8059,1,2,0:0:0:0:
93,182,8226,1,8,0:0:0:0:
298,215,8393,1,0,0:0:0:0:
175,58,8559,5,6,0:0:0:0:
200,241,8726,1,0,0:0:0:0:
287,76,8893,1,8,0:0:0:0:
129,169,9059,1,0,0:0:0:0:
129,169,9143,1,0,0:0:0:0:
129,169,9226,21,2,0:0:0:0:
349,127,9393,1,2,0:0:0:0:
133,173,9559,5,8,0:0:0:0:
335,268,9726,1,0,0:0:0:0:
134,306,9893,21,2,0:0:0:0:
347,294,10059,1,0,0:0:0:0:
146,332,10226,21,8,0:0:0:0:
359,320,10393,1,0,0:0:0:0:
158,358,10559,5,2,0:0:0:0:
325,238,10726,1,2,0:0:0:0:
119,236,10893,5,8,0:0:0:0:
284,358,11059,1,8,0:0:0:0:
223,163,11226,22,0,L|384:139,1,150,6|0,0:0|0:0,0:0:0:0:
325,238,11726,22,0,L|164:262,1,150,2|0,0:0|0:0,0:0:0:0:
129,357,12226,6,0,L|203:345,1,75.0000028610231,8|0,0:0|0:0,0:0:0:0:
427,347,12559,22,0,L|278:324,1,150,2|0,0:0|0:0,0:0:0:0:
232,227,13059,6,0,L|380:249,1,150,2|0,0:0|0:0,0:0:0:0:
431,169,13559,22,0,L|356:157,1,75.0000028610231,8|0,0:0|0:0,0:0:0:0:
157,215,13893,6,0,L|232:227,1,75.0000028610231,6|0,0:0|0:0,0:0:0:0:
380,249,14226,2,0,L|305:237,1,75.0000028610231,8|0,0:0|0:0,0:0:0:0:
101,294,14559,22,0,L|176:306,1,75.0000028610231,2|0,0:0|0:0,0:0:0:0:
324,328,14893,2,0,L|249:316,1,75.0000028610231,8|0,0:0|0:0,0:0:0:0:
82,203,15226,6,0,L|234:227,1,150.000005722046,2|0,0:0|0:0,0:0:0:0:
230,226,15893,1,2,0:0:0:0:
267,231,15976,1,2,0:0:0:0:
304,237,16059,1,2,0:0:0:0:
341,243,16143,1,2,0:0:0:0:
378,249,16226,1,10,0:0:0:0:
295,162,16393,21,0,0:0:0:0:
295,162,16476,1,0,0:0:0:0:
295,162,16559,1,12,0:0:0:0:
147,186,16726,1,0,0:0:0:0:
265,201,16893,5,8,0:0:0:0:
117,225,17059,1,0,0:0:0:0:
235,240,17226,21,8,0:0:0:0:
87,264,17393,1,0,0:0:0:0:
319,287,17559,5,10,0:0:0:0:
281,292,17643,1,2,0:0:0:0:
244,298,17726,1,2,0:0:0:0:
207,304,17809,1,2,0:0:0:0:
170,310,17893,21,10,0:0:0:0:
319,333,18059,1,0,0:0:0:0:
228,270,18226,5,8,0:0:0:0:
377,293,18393,1,0,0:0:0:0:
286,230,18559,21,10,0:0:0:0:
324,235,18643,1,2,0:0:0:0:
361,241,18726,1,2,0:0:0:0:
398,247,18809,1,2,0:0:0:0:
435,253,18893,1,10,0:0:0:0:
351,166,19059,5,2,0:0:0:0:
351,166,19143,1,2,0:0:0:0:
351,166,19226,5,14,0:0:0:0:
190,320,19393,1,0,0:0:0:0:
229,100,19559,1,8,0:0:0:0:
325,300,19726,1,0,0:0:0:0:
325,300,19809,1,0,0:0:0:0:
325,300,19893,21,2,0:0:0:0:
128,195,20059,1,8,0:0:0:0:
325,300,20226,5,8,0:0:0:0:
229,100,20393,1,8,0:0:0:0:
426,205,20559,5,2,0:0:0:0:
243,220,20726,1,2,0:0:0:0:
400,234,20893,5,8,0:0:0:0:
217,249,21059,1,2,0:0:0:0:
374,263,21226,5,2,0:0:0:0:
275,74,21393,1,8,0:0:0:0:
245,286,21559,21,8,0:0:0:0:
394,134,21726,1,8,0:0:0:0:
114,130,21893,5,6,0:0:0:0:
275,74,22059,1,0,0:0:0:0:
118,134,22226,1,8,0:0:0:0:
280,177,22393,1,0,0:0:0:0:
54,216,22559,22,0,L|222:216,1,150.000005722046,2|2,0:0|0:0,0:0:0:0:
378,355,22893,2,0,L|186:355,1,150.000005722046,8|0,0:0|0:0,0:0:0:0:
93,285,23226,22,0,L|401:285,2,300.000011444092,2|8|2,0:0|0:0|0:0,0:0:0:0:
93,285,24059,1,2,0:0:0:0:
352,212,24226,5,8,0:0:0:0:
176,212,24393,1,0,0:0:0:0:
318,45,24559,5,6,0:0:0:0:
264,212,24726,1,0,0:0:0:0:
208,44,24893,1,8,0:0:0:0:
370,176,25059,21,0,0:0:0:0:
193,176,25226,1,2,0:0:0:0:
338,75,25393,1,2,0:0:0:0:
256,261,25559,5,8,0:0:0:0:
205,92,25726,1,0,0:0:0:0:
112,288,25893,6,0,L|416:289,1,300.000011444092,2|8,0:0|0:0,0:0:0:0:
396,217,26559,5,2,0:0:0:0:
308,217,26726,1,2,0:0:0:0:
220,217,26893,1,8,0:0:0:0:
132,217,27059,1,8,0:0:0:0:
243,71,27226,5,6,0:0:0:0:
67,123,27393,1,0,0:0:0:0:
241,184,27559,1,8,0:0:0:0:
137,34,27726,1,0,0:0:0:0:
132,217,27893,22,0,L|328:217,1,150.000005722046,2|2,0:0|0:0,0:0:0:0:
396,144,28226,22,0,L|246:144,1,150.000005722046,8|0,0:0|0:0,0:0:0:0:
105,291,28559,2,0,L|405:291,2,300.000011444092,2|8|2,0:0|0:0|0:0,0:0:0:0:
105,291,29393,1,2,0:0:0:0:
370,200,29559,6,0,L|304:200,1,50,10|2,0:0|0:0,0:0:0:0:
147,200,29726,2,0,L|211:200,1,50,10|2,0:0|0:0,0:0:0:0:
326,69,29893,5,12,0:0:0:0:
257,282,30059,1,0,0:0:0:0:
176,69,30226,6,0,L|326:69,1,150.000005722046,2|0,0:0|0:0,0:0:0:0:
257,282,30559,21,8,0:0:0:0:
176,69,30726,1,0,0:0:0:0:
370,200,30893,21,2,0:0:0:0:
366,204,30976,1,2,0:0:0:0:
362,208,31059,1,2,0:0:0:0:
358,212,31143,1,2,0:0:0:0:
354,216,31226,2,0,L|195:216,1,150.000005722046,2|0,0:0|0:0,0:0:0:0:
422,294,31559,22,0,L|263:294,1,150.000005722046,8|0,0:0|0:0,0:0:0:0:
283,304,31809,2,0,L|124:304,1,150.000005722046,8|0,0:0|0:0,0:0:0:0:
133,304,32059,1,8,0:0:0:0:
133,304,32143,1,8,0:0:0:0:
133,304,32226,1,8,0:0:0:0:
286,225,32393,1,8,0:0:0:0:
87,217,32559,21,6,0:0:0:0:
156,39,32726,1,0,0:0:0:0:
204,223,32893,1,8,0:0:0:0:
56,102,33059,1,0,0:0:0:0:
245,113,33226,6,0,L|437:113,1,150.000005722046,2|2,0:0|0:0,0:0:0:0:
460,217,33559,6,0,L|310:217,1,150.000005722046,8|0,0:0|0:0,0:0:0:0:
129,321,33893,22,0,L|460:321,2,300.000011444092,2|8|2,0:0|0:0|0:0,0:0:0:0:
129,321,34726,1,2,0:0:0:0:
271,217,34893,5,8,0:0:0:0:
95,217,35059,1,0,0:0:0:0:
208,52,35226,5,2,0:0:0:0:
173,248,35393,1,0,0:0:0:0:
86,68,35559,1,8,0:0:0:0:
261,161,35726,21,0,0:0:0:0:
63,188,35893,1,2,0:0:0:0:
208,52,36059,1,2,0:0:0:0:
173,248,36226,5,8,0:0:0:0:
86,68,36393,1,0,0:0:0:0:
42,321,36559,6,0,L|373:321,1,300.000011444092,2|8,0:0|0:0,0:0:0:0:
342,321,37226,1,2,0:0:0:0:
342,222,37393,5,8,0:0:0:0:
342,123,37559,21,8,0:0:0:0:
342,23,37726,5,8,0:0:0:0:
87,217,37893,5,2,0:0:0:0:
245,113,38059,1,0,0:0:0:0:
56,102,38226,1,8,0:0:0:0:
204,223,38393,1,0,0:0:0:0:
156,39,38559,6,0,L|329:39,1,150.000005722046,2|2,0:0|0:0,0:0:0:0:
445,180,38893,6,0,L|272:180,1,150.000005722046,8|0,0:0|0:0,0:0:0:0:
144,303,39226,22,0,L|513:303,2,300.000011444092,2|8|2,0:0|0:0|0:0,0:0:0:0:
150,283,39976,1,8,0:0:0:0:
156,263,40059,1,8,0:0:0:0:
163,243,40143,1,8,0:0:0:0:
169,223,40226,5,8,0:0:0:0:
345,223,40393,1,8,0:0:0:0:
70,118,40559,21,12,0:0:0:0:
246,118,40726,1,0,0:0:0:0:
110,256,40893,6,0,L|160:100,1,150.000005722046,2|0,0:0|0:0,0:0:0:0:
442,268,41226,21,12,0:0:0:0:
266,268,41393,1,0,0:0:0:0:
402,130,41559,6,0,L|351:285,1,150.000005722046,2|0,0:0|0:0,0:0:0:0:
124,126,41893,6,0,L|122:54|122:54|165:111|165:111|232:86|232:86|191:145|191:145|191:145|191:145|235:201|235:201|166:181|166:181|127:240|127:240|124:169|124:169|56:148|56:148|125:127|125:127,1,671.999979492188,12|4,0:0|0:0,0:0:0:0:
