osu file format v14

[General]
AudioFilename: audio1.mp3
AudioLeadIn: 0
PreviewTime: 14828
Countdown: 0
SampleSet: Normal
StackLeniency: 0.7
Mode: 1
LetterboxInBreaks: 0
WidescreenStoryboard: 1

[Editor]
DistanceSpacing: 0.2
BeatDivisor: 2
GridSize: 16
TimelineZoom: 1.499999

[Metadata]
Title:Native Faith
TitleUnicode:ネイティブフェイス
Artist:ZUN
ArtistUnicode:ZUN
Creator:Prominent
Version:Kantan
Source:東方風神録 ~ Mountain of Faith.
Tags:Touhou Fuujinroku th10 MoF とうほうふうじんろく video game instrumental 東方Project project toho tōhō 洩矢 諏訪子 もりや すわこ Moriya Suwako moɽʲija sɯwako Team Shanghai Alice 上海アリス幻樂団
BeatmapID:3230679
BeatmapSetID:1458628

[Difficulty]
HPDrainRate:8
CircleSize:5
OverallDifficulty:3
ApproachRate:5
SliderMultiplier:1.4
SliderTickRate:1

[Events]
//Background and Video events
0,0,"bg.jpeg",0,53
//Break Periods
//Storyboard Layer 0 (Background)
//Storyboard Layer 1 (Fail)
//Storyboard Layer 2 (Pass)
//Storyboard Layer 3 (Foreground)
//Storyboard Layer 4 (Overlay)
//Storyboard Sound Samples

[TimingPoints]
273,365.853658536585,4,1,0,70,1,0
273,-100,4,1,0,70,0,0
5760,-100,4,1,0,75,0,0
6126,-100,4,1,0,80,0,0
9053,-100,4,1,0,85,0,0
14907,-100,4,1,0,70,0,0
35394,-100,4,1,0,75,0,0
38199,-100,4,1,0,70,0,0
41248,-100,4,1,0,80,0,0
44175,-100,4,1,0,85,0,0
49998,-100,4,1,0,70,0,0
70471,-100,4,1,0,75,0,0
73077,-100,4,1,0,60,0,0
78382,-100,4,1,0,65,0,0
85151,-100,4,1,0,70,0,0
96858,-100,4,1,0,80,0,1
102712,-100,4,1,0,85,0,1
108565,-100,4,1,0,75,0,0
118779,-100,4,1,0,80,0,0
121004,365.853658536585,4,1,0,75,1,0
121004,-100,4,1,0,75,0,0

[HitObjects]
231,158,273,5,0,0:0:0:0:
217,171,1004,1,0,0:0:0:0:
231,158,1736,1,0,0:0:0:0:
216,185,3199,5,0,0:0:0:0:
262,193,3931,1,8,0:0:0:0:
168,65,4297,1,0,0:0:0:0:
251,193,4663,5,0,0:0:0:0:
252,166,5394,1,0,0:0:0:0:
270,216,6126,5,2,0:0:0:0:
257,192,6858,1,0,0:0:0:0:
240,191,7590,5,2,0:0:0:0:
240,191,7955,1,0,0:0:0:0:
240,191,8321,1,2,0:0:0:0:
235,206,9053,5,2,0:0:0:0:
258,199,9419,1,0,0:0:0:0:
207,191,9785,1,0,0:0:0:0:
235,243,10516,5,2,0:0:0:0:
221,223,11248,1,0,0:0:0:0:
231,201,11980,5,2,0:0:0:0:
215,212,12346,1,8,0:0:0:0:
231,201,12712,1,0,0:0:0:0:
240,191,13443,5,2,0:0:0:0:
267,218,14907,5,4,0:0:0:0:
236,227,15638,1,8,0:0:0:0:
250,225,16370,1,0,0:0:0:0:
152,143,16736,1,0,0:0:0:0:
384,255,17102,1,8,0:0:0:0:
238,195,17833,1,0,0:0:0:0:
251,192,18565,1,2,0:0:0:0:
238,185,19297,1,0,0:0:0:0:
172,194,20394,1,0,0:0:0:0:
232,197,20760,1,8,0:0:0:0:
232,202,21492,1,2,0:0:0:0:
225,178,21858,1,0,0:0:0:0:
238,195,22224,5,0,0:0:0:0:
241,186,22955,1,2,0:0:0:0:
224,176,23687,5,4,0:0:0:0:
231,174,24419,1,0,0:0:0:0:
252,176,25151,1,8,0:0:0:0:
243,188,25516,1,0,0:0:0:0:
240,207,25882,1,2,0:0:0:0:
243,201,26614,1,4,0:0:0:0:
240,207,27346,1,8,0:0:0:0:
240,216,28077,1,0,0:0:0:0:
212,204,28443,1,0,0:0:0:0:
250,238,28809,1,8,0:0:0:0:
233,197,29541,1,0,0:0:0:0:
195,168,30272,1,2,0:0:0:0:
233,197,31004,1,0,0:0:0:0:
362,190,32102,1,0,0:0:0:0:
227,207,32468,1,8,0:0:0:0:
217,191,33199,1,2,0:0:0:0:
229,191,33565,1,0,0:0:0:0:
256,194,33931,5,2,0:0:0:0:
263,168,34663,1,2,0:0:0:0:
239,166,35394,5,4,0:0:0:0:
239,166,36126,1,0,0:0:0:0:
250,164,36858,1,8,0:0:0:0:
205,143,38321,1,8,0:0:0:0:
203,178,39053,1,0,0:0:0:0:
205,172,39785,1,8,0:0:0:0:
240,173,41248,5,6,0:0:0:0:
238,205,41980,1,2,0:0:0:0:
247,161,42346,1,0,0:0:0:0:
241,191,42712,5,2,0:0:0:0:
249,181,43443,1,0,0:0:0:0:
243,186,44175,5,2,0:0:0:0:
249,194,44541,1,0,0:0:0:0:
292,165,44907,1,0,0:0:0:0:
250,185,45638,5,2,0:0:0:0:
244,174,46370,1,0,0:0:0:0:
268,159,47102,5,2,0:0:0:0:
236,157,47468,1,2,0:0:0:0:
266,179,47833,1,0,0:0:0:0:
282,192,48565,5,2,0:0:0:0:
229,184,50029,5,4,0:0:0:0:
221,191,50760,1,8,0:0:0:0:
234,166,51492,1,0,0:0:0:0:
234,182,51858,1,0,0:0:0:0:
227,181,52224,1,8,0:0:0:0:
235,165,52955,1,0,0:0:0:0:
241,195,53687,1,2,0:0:0:0:
226,181,54419,1,0,0:0:0:0:
338,272,55516,1,0,0:0:0:0:
232,201,55882,1,8,0:0:0:0:
246,211,56614,1,8,0:0:0:0:
231,184,56980,1,0,0:0:0:0:
240,206,57346,1,0,0:0:0:0:
240,206,58077,1,8,0:0:0:0:
249,218,58809,5,4,0:0:0:0:
240,199,59541,1,0,0:0:0:0:
234,216,60272,1,2,0:0:0:0:
252,212,61736,1,4,0:0:0:0:
254,195,62468,1,0,0:0:0:0:
245,212,63199,1,0,0:0:0:0:
244,177,63565,1,8,0:0:0:0:
243,229,63931,1,0,0:0:0:0:
263,217,64663,1,0,0:0:0:0:
250,184,65394,1,2,0:0:0:0:
253,216,66126,1,0,0:0:0:0:
341,271,67224,1,0,0:0:0:0:
237,194,67590,1,8,0:0:0:0:
235,220,68321,1,8,0:0:0:0:
234,190,68687,1,0,0:0:0:0:
247,251,69053,1,0,0:0:0:0:
230,236,69785,1,8,0:0:0:0:
251,265,70516,5,4,0:0:0:0:
235,208,71248,1,0,0:0:0:0:
237,214,71980,1,2,0:0:0:0:
232,228,73443,5,0,0:0:0:0:
251,188,74907,5,0,0:0:0:0:
251,188,76370,5,0,0:0:0:0:
240,193,77833,5,0,0:0:0:0:
240,193,79297,1,0,0:0:0:0:
268,184,80029,1,2,0:0:0:0:
270,171,80760,1,0,0:0:0:0:
240,237,81126,1,0,0:0:0:0:
264,213,81492,1,8,0:0:0:0:
218,199,82224,5,0,0:0:0:0:
205,176,82955,1,0,0:0:0:0:
190,243,83321,1,0,0:0:0:0:
226,221,83687,1,0,0:0:0:0:
260,208,85151,5,4,0:0:0:0:
251,221,85882,1,8,0:0:0:0:
257,197,86614,5,0,0:0:0:0:
253,205,87346,1,8,0:0:0:0:
221,228,87712,1,0,0:0:0:0:
255,189,88077,5,0,0:0:0:0:
184,199,88809,1,0,0:0:0:0:
200,192,89541,5,8,0:0:0:0:
242,176,91004,5,0,0:0:0:0:
176,255,91736,1,2,0:0:0:0:
231,209,92468,1,2,0:0:0:0:
203,209,92833,1,0,0:0:0:0:
224,222,93199,1,2,0:0:0:0:
227,174,93931,1,0,0:0:0:0:
235,164,94663,1,0,0:0:0:0:
256,192,95029,12,0,96126,0:0:0:0:
256,192,96858,5,4,0:0:0:0:
260,168,97590,1,0,0:0:0:0:
240,255,97955,1,0,0:0:0:0:
243,183,98321,5,0,0:0:0:0:
246,178,99053,1,8,0:0:0:0:
205,200,99785,5,0,0:0:0:0:
141,257,100151,1,0,0:0:0:0:
221,209,100516,1,8,0:0:0:0:
250,201,101248,5,0,0:0:0:0:
279,247,101980,1,8,0:0:0:0:
213,254,102346,1,0,0:0:0:0:
293,270,102712,1,0,0:0:0:0:
257,211,103443,1,0,0:0:0:0:
217,152,103809,1,8,0:0:0:0:
260,229,104175,5,0,0:0:0:0:
239,194,104907,1,0,0:0:0:0:
278,205,105638,5,2,0:0:0:0:
230,215,106004,1,0,0:0:0:0:
280,182,106370,1,2,0:0:0:0:
271,191,107102,5,2,0:0:0:0:
218,151,107468,1,2,0:0:0:0:
238,186,107833,1,2,0:0:0:0:
178,119,108199,1,0,0:0:0:0:
281,208,108565,1,0,0:0:0:0:
253,189,110029,1,0,0:0:0:0:
244,189,111492,1,0,0:0:0:0:
244,189,112224,1,8,0:0:0:0:
251,207,112955,1,8,0:0:0:0:
243,182,113321,1,0,0:0:0:0:
275,210,113687,1,8,0:0:0:0:
288,200,114419,1,0,0:0:0:0:
277,196,115882,1,0,0:0:0:0:
259,192,117346,1,0,0:0:0:0:
258,199,118077,1,8,0:0:0:0:
269,213,118443,1,0,0:0:0:0:
256,192,118809,12,0,120272,0:0:0:0:
295,212,121004,5,4,0:0:0:0:
249,195,121735,1,8,0:0:0:0:
263,170,122467,1,0,0:0:0:0:
263,170,122833,1,0,0:0:0:0:
259,200,123199,1,8,0:0:0:0:
262,187,123930,1,0,0:0:0:0:
252,167,124662,1,8,0:0:0:0:
257,143,125028,1,0,0:0:0:0:
252,157,125394,1,8,0:0:0:0:
293,177,126491,1,0,0:0:0:0:
249,175,126857,1,8,0:0:0:0:
276,215,127589,1,0,0:0:0:0:
292,191,127955,1,8,0:0:0:0:
278,192,128321,1,8,0:0:0:0:
251,209,129052,1,2,0:0:0:0:
256,200,129418,1,0,0:0:0:0:
259,183,129784,1,12,0:0:0:0:
248,190,130516,1,8,0:0:0:0:
235,200,131247,5,0,0:0:0:0:
270,187,131613,1,8,0:0:0:0:
244,197,131979,1,0,0:0:0:0:
247,184,132711,1,4,0:0:0:0:
249,178,133443,1,8,0:0:0:0:
267,201,134174,1,0,0:0:0:0:
256,190,134540,1,0,0:0:0:0:
278,205,134906,1,8,0:0:0:0:
259,175,135638,1,0,0:0:0:0:
261,192,136369,1,8,0:0:0:0:
271,165,136735,1,0,0:0:0:0:
269,213,137101,1,8,0:0:0:0:
333,194,138199,1,0,0:0:0:0:
252,191,138564,1,8,0:0:0:0:
257,198,139296,1,0,0:0:0:0:
272,179,139662,1,8,0:0:0:0:
266,219,140028,1,2,0:0:0:0:
257,181,140760,1,2,0:0:0:0:
233,190,141125,1,0,0:0:0:0:
275,189,141491,1,6,0:0:0:0:
257,181,142223,1,0,0:0:0:0:
287,197,142955,1,8,0:0:0:0:
252,225,144418,1,4,0:0:0:0:
260,220,145150,1,8,0:0:0:0:
259,169,145882,1,0,0:0:0:0:
226,189,146247,1,0,0:0:0:0:
254,207,146613,1,8,0:0:0:0:
249,204,147345,1,0,0:0:0:0:
254,178,148077,1,8,0:0:0:0:
249,190,148443,1,0,0:0:0:0:
258,191,148808,1,8,0:0:0:0:
273,215,149906,1,0,0:0:0:0:
251,207,150272,1,8,0:0:0:0:
249,196,151003,1,0,0:0:0:0:
228,184,151369,1,8,0:0:0:0:
237,175,151735,1,2,0:0:0:0:
237,175,152467,1,2,0:0:0:0:
216,192,152833,1,0,0:0:0:0:
234,148,153199,1,12,0:0:0:0:
216,192,153930,1,0,0:0:0:0:
272,184,154662,1,0,0:0:0:0:
260,194,155028,1,8,0:0:0:0:
264,178,155394,1,0,0:0:0:0:
256,160,156125,5,4,0:0:0:0:
247,197,156857,1,8,0:0:0:0:
265,186,157589,1,0,0:0:0:0:
249,185,157955,1,0,0:0:0:0:
249,185,158321,1,8,0:0:0:0:
270,182,159052,1,0,0:0:0:0:
249,185,159784,1,8,0:0:0:0:
272,211,160150,1,0,0:0:0:0:
251,225,160516,1,8,0:0:0:0:
273,216,161613,1,0,0:0:0:0:
236,167,161979,1,8,0:0:0:0:
275,200,162711,1,0,0:0:0:0:
251,184,163077,1,8,0:0:0:0:
264,211,163443,1,2,0:0:0:0:
246,199,164174,1,2,0:0:0:0:
249,188,164540,1,0,0:0:0:0:
244,169,164906,1,12,0:0:0:0:
264,165,165638,1,8,0:0:0:0:
256,192,166369,12,0,167833,0:0:0:0:
