osu file format v14

[General]
AudioFilename: remiliasong.mp3
AudioLeadIn: 1000
PreviewTime: 42831
Countdown: 0
SampleSet: Soft
StackLeniency: 0.7
Mode: 0
LetterboxInBreaks: 0
SkinPreference:Default
WidescreenStoryboard: 1

[Editor]
Bookmarks: 31546,32684,33925,36305,39305,40132,42933,55329,69495,75329,75745,109495,111995,112828,113662,118245,118662,118974,119078,120849,120953,121578,122828,123245,123662,124495,125328,126162,126995,127412,127828,128662,129495,131578,131995,132310,133676
DistanceSpacing: 0.5
BeatDivisor: 4
GridSize: 16
TimelineZoom: 2.999999

[Metadata]
Title:Naki Oujo no Tame no Septette
TitleUnicode:亡き王女の為のセプテット
Artist:ZUN
ArtistUnicode:ZUN
Creator:perchance
Version:Hard
Source:東方紅魔郷 ~ the Embodiment of Scarlet Devil.
Tags:sstari bloxi take seputetto for a Dead Princess ōjo touhou 東方project th06 remilia scarlet video game instrumental zun team shanghai alice eosd
BeatmapID:4453836
BeatmapSetID:2119924

[Difficulty]
HPDrainRate:5
CircleSize:3
OverallDifficulty:7
ApproachRate:7
SliderMultiplier:1.5
SliderTickRate:1

[Events]
//Background and Video events
0,0,"762821.jpg",0,0
//Break Periods
//Storyboard Layer 0 (Background)
//Storyboard Layer 1 (Fail)
//Storyboard Layer 2 (Pass)
//Storyboard Layer 3 (Foreground)
//Storyboard Layer 4 (Overlay)
//Storyboard Sound Samples

[TimingPoints]
2414,413.793103448276,4,2,0,50,1,0
2414,-100,4,2,0,50,0,0
3241,-125,4,2,0,50,0,0
14827,428.571428571429,4,2,0,60,1,0
14827,-100,4,2,0,60,0,0
15684,428.571428571429,4,2,0,60,1,0
15684,-100,4,2,0,60,0,0
27684,422.535211267606,4,2,0,60,1,0
27684,-100,4,2,0,60,0,0
29374,413.793103448276,4,2,0,65,1,0
29374,-100,4,2,0,65,0,0
35994,-100,4,2,0,70,0,0
40960,483.870967741935,4,2,0,70,1,0
40960,-100,4,2,0,70,0,0
41927,451.127819548872,4,2,0,80,1,0
41927,-100,4,2,0,80,0,0
42829,416.666666666667,4,2,0,80,1,0
42829,-100,4,2,0,80,0,0
56162,-90.9090909090909,4,2,0,85,0,0
69495,-83.3333333333333,4,2,0,90,0,0
81162,-83.3333333333333,4,2,0,100,0,1
83245,-83.3333333333333,4,2,0,85,0,1
83662,416.666666666667,4,2,0,85,1,0
83662,-83.3333333333333,4,2,0,85,0,0
110328,-83.3333333333333,4,2,0,85,0,0
125328,-83.3333333333333,4,2,0,90,0,0
131995,420.462508759636,4,2,0,90,1,0
132415,-83.3333333333333,4,2,0,90,0,0
133676,415.22491349481,4,2,0,90,1,0
133676,-83.3333333333333,4,2,0,90,0,0
136995,-100,4,2,0,100,0,0

[Colours]
Combo1 : 192,82,216
Combo2 : 101,5,180
Combo3 : 254,139,168
Combo4 : 81,81,255
Combo5 : 245,54,83
SliderTrackOverride : 255,172,210
SliderBorder : 160,11,46

[HitObjects]
2,234,2414,6,0,B|-4:293|42:334|95:326,1,150,2|2,2:2|2:2,0:0:0:0:
92,326,3034,1,2,2:2:0:0:
164,284,3241,2,0,L|292:303,1,120,2|2,2:2|2:2,0:0:0:0:
342,361,3862,1,2,2:2:0:0:
452,316,4069,6,0,B|486:278|477:226|446:201,1,120,2|2,2:2|2:2,0:0:0:0:
452,206,4689,1,2,2:2:0:0:
375,173,4896,2,0,L|381:108,1,60,2|0,2:2|0:0,0:0:0:0:
450,66,5310,2,0,L|440:-1,1,60,10|10,2:2|2:2,0:0:0:0:
309,64,5724,6,0,B|246:76|189:99,1,120,2|2,2:2|2:2,0:0:0:0:
193,97,6345,1,2,2:2:0:0:
121,55,6551,2,0,B|59:81|48:144,1,120,2|2,2:2|2:2,0:0:0:0:
102,208,7172,1,2,2:2:0:0:
1,269,7379,6,0,B|69:278|105:322,1,120,2|2,2:2|2:2,0:0:0:0:
172,271,8000,2,0,B|222:313|268:341,1,120,2|2,2:2|2:2,0:0:0:0:
348,314,8620,1,10,2:2:0:0:
348,314,8827,1,10,2:2:0:0:
451,366,9034,6,0,B|449:296|479:251,1,120,2|2,2:2|2:2,0:0:0:0:
478,251,9655,1,2,2:2:0:0:
397,212,9862,2,0,L|381:79,1,120,2|2,2:2|2:2,0:0:0:0:
427,15,10482,1,2,2:2:0:0:
294,68,10689,6,0,B|229:76|178:45,1,120,2|2,2:2|2:2,0:0:0:0:
178,45,11310,1,2,2:2:0:0:
109,104,11517,2,0,B|71:107|29:119,1,60,2|0,2:2|0:0,0:0:0:0:
190,155,11931,2,0,B|193:193|205:235,1,60,10|10,2:2|2:2,0:0:0:0:
155,293,12345,6,0,B|209:333|276:306,1,120,2|2,2:2|2:2,0:0:0:0:
268,308,12965,1,2,2:2:0:0:
342,360,13172,2,0,B|395:342|486:328,1,120,2|2,2:2|2:2,0:0:0:0:
508,256,13793,1,2,2:2:0:0:
414,198,14000,5,8,0:0:0:0:
414,198,14827,5,0,0:0:0:0:
326,177,15041,1,0,0:0:0:0:
288,95,15255,1,0,3:0:0:0:
324,12,15469,1,0,3:0:0:0:
196,70,15684,6,0,B|155:149|69:142,1,150,4|2,1:2|0:0,0:0:0:0:
6,216,16326,1,2,0:0:0:0:
6,216,16541,2,0,B|27:300|33:363,1,150,0|2,1:2|0:0,0:0:0:0:
133,378,17184,1,2,0:0:0:0:
193,296,17398,2,0,B|185:248|181:211,1,75,0|0,1:2|3:0,0:0:0:0:
182,221,17719,1,0,3:0:0:0:
182,221,17826,1,0,3:0:0:0:
330,359,18255,5,2,0:0:0:0:
418,373,18469,1,2,0:0:0:0:
486,313,18684,1,2,0:0:0:0:
475,223,18898,1,2,0:0:0:0:
370,173,19112,6,0,B|310:228|227:192,1,150,0|2,1:2|0:0,0:0:0:0:
213,292,19755,1,2,0:0:0:0:
213,292,19969,2,0,B|142:268|75:218,1,150,0|2,1:2|0:0,0:0:0:0:
6,158,20612,1,2,0:0:0:0:
83,99,20826,5,0,1:1:0:0:
24,33,21041,1,0,3:0:0:0:
24,33,21148,1,0,3:0:0:0:
24,33,21255,1,0,3:0:0:0:
200,116,21684,5,2,0:0:0:0:
278,159,21898,1,2,0:0:0:0:
362,129,22112,1,2,0:0:0:0:
379,40,22326,1,2,0:0:0:0:
464,11,22541,6,0,B|473:50|477:87,1,75,2|0,1:2|0:0,0:0:0:0:
512,175,22969,2,0,B|438:182|366:210,1,150,2|2,0:0|0:0,0:0:0:0:
366,210,23505,1,0,0:0:0:0:
366,210,23612,1,2,0:0:0:0:
306,277,23826,1,2,0:0:0:0:
328,364,24041,1,2,0:0:0:0:
239,349,24255,6,0,B|212:337|167:325,1,75,2|0,1:2|0:0,0:0:0:0:
81,371,24684,2,0,B|88:310|75:217,1,150,2|2,0:0|0:0,0:0:0:0:
13,146,25326,5,2,3:2:0:0:
13,146,25434,1,0,3:0:0:0:
13,146,25541,1,2,3:2:0:0:
84,80,25755,1,2,3:2:0:0:
181,138,25969,6,0,B|249:137|224:116|303:115,2,112.5,0|2|2,1:2|0:0|0:0,0:0:0:0:
155,232,26826,2,0,B|232:240|306:265,1,150,2|0,1:2|0:0,0:0:0:0:
369,334,27469,1,2,0:0:0:0:
457,288,27684,6,0,B|492:252|490:181|452:147,1,150,2|2,1:2|0:0,0:0:0:0:
323,87,28423,1,0,1:0:0:0:
327,91,28529,2,0,P|304:95|279:101,1,37.5,0|0,1:2|1:0,0:0:0:0:
230,149,28740,2,0,P|233:167|237:185,1,37.5,0|0,1:0|1:0,0:0:0:0:
305,224,28951,2,0,P|298:252|292:290,3,37.5,0|0|0|0,1:0|1:0|1:0|0:0,0:0:0:0:
258,333,29374,6,0,B|311:336|369:349,2,112.5,4|0|0,3:2|3:2|3:2,0:0:0:0:
176,371,30201,1,0,3:2:0:0:
104,315,30408,1,2,0:0:0:0:
104,315,30511,1,2,3:2:0:0:
104,315,30615,2,0,P|73:320|43:324,1,37.5,2|2,0:0|0:0,0:0:0:0:
8,270,30822,2,0,P|3:239|-1:209,1,37.5,2|2,3:2|0:0,0:0:0:0:
58,177,31029,6,0,B|115:167|167:138,1,112.5,2|2,3:2|3:2,0:0:0:0:
197,169,31442,2,0,B|238:173|281:188,1,75,0|2,0:0|3:2,0:0:0:0:
341,128,31856,2,0,B|360:90|360:55|329:22,2,112.5,2|2|2,3:2|3:2|3:2,0:0:0:0:
356,217,32684,6,0,B|371:279|376:336,1,112.5,2|2,3:2|3:2,0:0:0:0:
340,356,33098,2,0,B|299:353|265:345,1,75,0|2,0:0|3:2,0:0:0:0:
207,277,33511,2,0,B|156:279|95:293,2,112.5,2|2|2,3:2|3:2|3:2,0:0:0:0:
260,204,34339,6,0,L|275:76,1,112.5,2|2,3:2|3:2,0:0:0:0:
286,49,34753,2,0,P|340:39|372:34,1,75,0|2,0:0|3:2,0:0:0:0:
450,72,35167,1,2,3:2:0:0:
398,156,35374,1,0,1:0:0:0:
398,156,35477,1,2,3:2:0:0:
488,261,35684,1,0,1:0:0:0:
488,261,35787,1,0,1:0:0:0:
488,261,35891,1,0,1:0:0:0:
488,261,35994,6,0,B|445:304|382:272,1,112.5,4|0,3:2|3:2,0:0:0:0:
351,309,36408,2,0,P|297:301|259:298,1,75,0|0,1:2|3:2,0:0:0:0:
202,363,36822,2,0,B|159:318|173:259,1,112.5,0|0,3:2|3:2,0:0:0:0:
211,229,37236,1,0,1:2:0:0:
141,161,37442,1,2,3:2:0:0:
195,80,37649,6,0,L|338:100,1,112.5,2|0,3:2|3:2,0:0:0:0:
334,135,38063,2,0,P|384:121|417:113,1,75,0|0,1:2|3:2,0:0:0:0:
483,55,38477,6,0,B|519:103|512:167,1,112.5,0|0,3:2|3:2,0:0:0:0:
474,191,38891,1,0,1:2:0:0:
500,293,39098,1,2,3:2:0:0:
500,293,39201,1,2,0:0:0:0:
500,293,39305,2,0,B|436:239|339:240|267:341|373:398|417:340,1,300,6|0,3:2|3:2,0:0:0:0:
275,257,40339,5,2,3:2:0:0:
262,260,40442,1,2,3:2:0:0:
248,264,40546,1,2,1:2:0:0:
178,331,40753,5,2,1:2:0:0:
164,327,40856,1,2,1:2:0:0:
151,324,40960,1,6,1:2:0:0:
0,169,42152,6,0,B|32:169|74:163,1,75,0|0,3:0|3:0,0:0:0:0:
140,78,42603,1,0,1:0:0:0:
140,78,42716,1,0,1:0:0:0:
140,78,42829,6,0,B|203:122|185:215,1,150,4|0,3:2|1:0,0:0:0:0:
279,176,43454,1,2,0:0:0:0:
281,276,43662,2,0,B|293:315|300:361,2,75,2|0|0,3:2|3:0|1:0,0:0:0:0:
387,367,44287,1,2,3:2:0:0:
387,367,44391,1,0,3:0:0:0:
387,367,44495,6,0,B|458:385|500:334|479:272,1,150,2|0,3:2|1:0,0:0:0:0:
417,225,45120,1,0,0:0:0:0:
417,225,45329,1,0,3:0:0:0:
485,155,45537,2,0,P|492:116|493:70,2,75,2|2|2,3:2|1:2|3:2,0:0:0:0:
398,109,46162,6,0,B|331:58|255:97,1,150,0|0,3:0|1:0,0:0:0:0:
221,8,46787,1,2,0:0:0:0:
124,51,46995,2,0,B|138:94|136:132,1,75,2|0,3:2|3:0,0:0:0:0:
210,203,47412,1,0,1:0:0:0:
210,203,47516,1,0,3:0:0:0:
210,203,47620,2,0,P|178:206|155:209,1,37.5,2|0,3:2|3:0,0:0:0:0:
123,209,47829,6,0,B|85:287|141:357,1,150,2|0,3:2|1:0,0:0:0:0:
228,325,48454,2,0,P|287:337|332:345,1,75,0|0,0:0|3:0,0:0:0:0:
403,374,48870,5,2,3:2:0:0:
481,303,49079,1,2,1:2:0:0:
447,203,49287,1,2,3:2:0:0:
342,202,49495,6,0,B|301:215|246:223,1,75,6|0,3:2|0:0,0:0:0:0:
226,307,49912,2,0,B|171:241|87:264,1,150,2|0,1:2|3:2,0:0:0:0:
16,200,50537,1,2,3:2:0:0:
24,103,50745,2,0,B|33:58|36:9,1,75,2|2,1:2|3:2,0:0:0:0:
129,56,51162,6,0,B|173:62|205:70,1,75,2|0,3:2|0:0,0:0:0:0:
287,154,51579,2,0,B|206:128|146:179,1,150,2|0,1:2|3:2,0:0:0:0:
227,233,52204,2,0,B|219:276|210:317,2,75,2|2|2,3:2|1:2|3:2,0:0:0:0:
305,291,52829,6,0,B|394:292|367:262|470:270,1,150,2|0,3:2|1:2,0:0:0:0:
454,170,53454,1,2,0:0:0:0:
364,205,53662,2,0,B|376:161|365:124,1,75,2|0,3:2|3:2,0:0:0:0:
439,67,54079,1,0,1:2:0:0:
362,1,54287,5,2,3:2:0:0:
362,1,54391,1,0,3:2:0:0:
362,1,54495,2,0,B|282:20|225:78,1,150,2|0,3:2|1:2,0:0:0:0:
138,22,55120,5,0,0:0:0:0:
138,22,55224,1,0,3:2:0:0:
138,22,55329,1,2,3:2:0:0:
44,64,55537,1,2,3:2:0:0:
28,164,55745,1,2,1:2:0:0:
95,234,55954,1,2,3:2:0:0:
210,220,56162,6,0,B|279:163|376:211,1,165.000005035401,6|0,3:2|1:0,0:0:0:0:
464,267,56787,1,2,0:0:0:0:
480,155,56995,2,0,B|472:107|478:61,1,82.5000025177003,2|0,3:2|3:0,0:0:0:0:
378,20,57412,1,0,1:0:0:0:
378,20,57516,1,0,3:0:0:0:
378,20,57620,2,0,P|351:29|327:37,1,41.2500012588501,2|0,3:2|3:0,0:0:0:0:
305,80,57829,6,0,P|241:65|131:46,1,165.000005035401,2|0,3:2|1:0,0:0:0:0:
19,132,58558,1,0,3:0:0:0:
19,132,58662,1,0,3:0:0:0:
108,195,58870,2,0,B|151:185|204:178,2,82.5000025177003,2|2|2,3:2|1:2|3:2,0:0:0:0:
23,278,59495,6,0,P|34:338|141:347,1,165.000005035401,2|0,3:2|1:0,0:0:0:0:
165,275,60120,2,0,B|213:283|246:292,1,82.5000025177003,2|2,0:0|3:2,0:0:0:0:
337,308,60537,1,0,3:0:0:0:
396,227,60745,1,0,1:0:0:0:
429,366,60954,1,2,3:2:0:0:
488,288,61162,6,0,B|462:202|491:114,1,165.000005035401,2|0,3:2|1:0,0:0:0:0:
399,19,61891,5,0,3:0:0:0:
399,19,61995,1,0,3:0:0:0:
301,31,62204,1,2,3:2:0:0:
253,116,62412,1,2,1:2:0:0:
294,216,62620,1,2,3:2:0:0:
229,305,62829,6,0,B|186:290|148:286,1,82.5000025177003,6|0,3:2|3:2,0:0:0:0:
31,360,63245,2,0,B|65:290|56:182,1,165.000005035401,2|0,1:2|3:2,0:0:0:0:
1,120,63870,1,2,3:2:0:0:
87,90,64079,2,0,B|83:45|90:1,1,82.5000025177003,2|2,1:2|3:2,0:0:0:0:
174,132,64495,6,0,B|209:118|273:115,1,82.5000025177003,2|0,3:2|3:2,0:0:0:0:
337,50,64912,2,0,B|357:126|337:223,1,165.000005035401,2|0,1:2|3:2,0:0:0:0:
422,205,65537,2,0,B|467:205|517:211,2,82.5000025177003,2|2|2,3:2|1:2|3:2,0:0:0:0:
349,284,66162,6,0,B|327:226|252:209|210:246,1,165.000005035401,2|0,3:2|1:2,0:0:0:0:
236,341,66787,1,2,0:0:0:0:
139,323,66995,2,0,P|81:315|28:304,1,82.5000025177003,2|0,3:2|3:2,0:0:0:0:
7,215,67412,1,0,1:2:0:0:
106,168,67620,5,2,3:2:0:0:
106,168,67724,1,0,3:2:0:0:
106,168,67829,2,0,B|103:124|117:79,1,82.5000025177003,2|0,3:2|3:2,0:0:0:0:
217,17,68245,2,0,P|213:45|207:70,2,41.2500012588501,0|0|0,1:2|3:2|0:0,0:0:0:0:
331,73,68662,5,2,3:2:0:0:
331,73,68766,1,0,1:2:0:0:
331,73,68870,1,0,1:2:0:0:
331,73,68974,1,0,1:2:0:0:
331,73,69079,2,0,B|337:116|329:183,1,82.5000025177003,2|0,3:2|1:2,0:0:0:0:
251,246,69495,6,0,B|299:261|347:263,1,89.9999972534181,6|2,3:2|1:2,0:0:0:0:
274,362,69912,1,2,3:2:0:0:
274,362,70016,1,0,3:2:0:0:
274,362,70120,1,2,3:2:0:0:
159,337,70329,2,0,B|159:266|133:187,2,134.999995880127,2|2|2,3:2|1:2|3:2,0:0:0:0:
42,336,71162,6,0,B|26:289|30:236,1,89.9999972534181,6|2,3:2|1:2,0:0:0:0:
58,139,71579,1,2,3:2:0:0:
58,139,71683,1,0,3:2:0:0:
58,139,71787,1,2,3:2:0:0:
148,212,71995,2,0,L|243:226,1,89.9999972534181,2|0,3:2|3:2,0:0:0:0:
263,245,72308,2,0,L|352:231,1,89.9999972534181,2|0,1:2|3:2,0:0:0:0:
381,253,72620,1,2,3:2:0:0:
475,195,72829,6,0,B|460:124|490:129|476:52,2,134.999995880127,6|2|2,3:2|0:2|3:2,0:0:0:0:
380,126,73662,2,0,B|332:113|286:143,1,89.9999972534181,0|0,3:2|3:2,0:0:0:0:
272,167,73974,2,0,B|233:192|185:179,1,89.9999972534181,2|0,1:2|3:2,0:0:0:0:
152,152,74287,1,2,3:2:0:0:
46,216,74495,6,0,B|44:266|56:334,1,89.9999972534181,4|0,3:2|1:2,0:0:0:0:
148,355,74912,1,0,3:2:0:0:
148,355,75016,1,0,3:2:0:0:
148,355,75120,1,0,3:2:0:0:
212,254,75329,1,0,3:2:0:0:
255,355,75537,1,0,3:2:0:0:
361,319,75745,1,0,1:2:0:0:
376,202,75954,5,0,1:0:0:0:
376,202,76058,1,0,1:0:0:0:
376,202,76162,2,0,B|326:194|271:180,1,89.9999972534181,6|2,3:2|1:2,0:0:0:0:
230,81,76579,1,2,3:2:0:0:
230,81,76683,1,0,3:2:0:0:
230,81,76787,1,2,3:2:0:0:
128,139,76995,2,0,B|72:187|-11:177,2,134.999995880127,2|2|2,3:2|1:2|3:2,0:0:0:0:
106,255,77829,6,0,B|161:266|211:285,1,89.9999972534181,6|2,3:2|1:2,0:0:0:0:
277,373,78245,1,2,3:2:0:0:
277,373,78349,1,0,3:2:0:0:
277,373,78454,1,2,3:2:0:0:
380,319,78662,2,0,P|389:257|395:217,1,89.9999972534181,2|0,3:2|3:2,0:0:0:0:
361,201,78974,2,0,P|352:139|346:99,1,89.9999972534181,2|0,1:2|3:2,0:0:0:0:
374,71,79287,1,2,3:2:0:0:
275,24,79495,6,0,B|201:5|131:50,2,134.999995880127,6|2|2,3:2|0:2|3:2,0:0:0:0:
249,140,80329,2,0,P|189:129|140:121,1,89.9999972534181,0|0,3:2|3:2,0:0:0:0:
122,108,80641,2,0,P|55:124|24:134,1,89.9999972534181,2|0,1:2|3:2,0:0:0:0:
9,157,80954,1,2,3:2:0:0:
57,260,81162,6,0,B|111:210|193:218|235:297,1,179.999994506836,4|0,3:2|1:0,0:0:0:0:
315,332,81787,2,0,B|369:382|451:374|493:295,1,179.999994506836,4|0,3:2|1:0,0:0:0:0:
387,243,82412,1,4,1:2:0:0:
387,243,82620,1,4,1:2:0:0:
496,100,83245,6,0,B|446:112|396:120,1,89.9999972534181,2|2,3:2|1:2,0:0:0:0:
401,9,83662,2,0,B|357:95|241:81,1,179.999994506836,6|0,3:2|0:0,0:0:0:0:
168,25,84287,1,2,1:2:0:0:
168,25,84495,2,0,B|98:30|34:62,2,134.999995880127,2|2|2,3:2|3:2|1:2,0:0:0:0:
150,131,85328,6,0,B|133:179|135:233,1,89.9999972534181,0|0,3:2|1:2,0:0:0:0:
53,289,85745,1,0,0:0:0:0:
53,289,85849,1,0,3:2:0:0:
53,289,85953,1,0,1:2:0:0:
151,334,86162,2,0,P|178:329|216:324,3,44.999998626709,0|0|0|0,3:2|3:2|1:2|3:2,0:0:0:0:
224,280,86578,2,0,B|277:312|309:328,1,89.9999972534181,2|2,3:2|1:2,0:0:0:0:
390,261,86995,6,0,B|291:238|233:163,1,179.999994506836,6|0,3:2|0:0,0:0:0:0:
258,63,87620,1,2,1:2:0:0:
258,63,87828,2,0,B|306:70|359:83,1,89.9999972534181,2|0,3:2|1:2,0:0:0:0:
383,119,88141,2,0,B|423:109|471:102,1,89.9999972534181,2|0,3:2|3:2,0:0:0:0:
471,102,88453,1,2,1:2:0:0:
511,202,88662,6,0,B|502:246|497:303,1,89.9999972534181,0|0,3:2|1:2,0:0:0:0:
415,360,89078,1,0,0:0:0:0:
415,360,89182,1,0,3:2:0:0:
415,360,89287,1,0,1:2:0:0:
379,258,89495,2,0,P|381:239|383:216,6,22.4999993133545,0|0|0|0|0|0|0,3:2|0:0|3:2|0:0|1:2|0:0|3:2,0:0:0:0:
339,295,89912,2,0,L|236:306,1,89.9999972534181,2|2,3:2|1:2,0:0:0:0:
164,371,90328,6,0,B|147:337|136:321|128:314|113:302|96:293|81:291|63:287|46:290|13:301,1,179.999994506836,6|0,3:2|3:0,0:0:0:0:
80,212,90953,1,2,1:2:0:0:
80,212,91162,2,0,B|75:128|44:83,2,134.999995880127,2|2|2,3:2|3:2|1:2,0:0:0:0:
177,258,91995,6,0,B|222:245|268:235,1,89.9999972534181,0|0,3:2|1:2,0:0:0:0:
320,144,92412,1,0,0:0:0:0:
320,144,92516,1,0,3:2:0:0:
320,144,92620,1,0,1:2:0:0:
405,210,92828,2,0,P|401:234|396:263,3,44.999998626709,0|0|0|0,3:2|3:2|1:2|3:2,0:0:0:0:
427,300,93245,1,2,3:2:0:0:
321,275,93453,1,2,1:2:0:0:
235,341,93662,6,0,B|188:330|133:324,1,89.9999972534181,2|2,3:2|1:2,0:0:0:0:
62,283,94078,1,2,3:2:0:0:
47,368,94287,2,0,B|-2:274|52:193,1,179.999994506836,2|0,1:2|1:2,0:0:0:0:
145,147,94912,2,0,B|124:98|119:53,1,89.9999972534181,0|0,0:0|1:2,0:0:0:0:
210,2,95328,6,0,B|276:-7|328:47|318:124,1,179.999994506836,2|0,3:2|0:0,0:0:0:0:
318,113,95849,1,0,3:2:0:0:
318,113,95953,1,0,1:2:0:0:
422,80,96162,2,0,P|425:60|430:41,6,22.4999993133545,0|0|0|0|0|0|0,3:0|0:0|3:0|0:0|1:0|0:0|3:0,0:0:0:0:
448,132,96578,2,0,P|454:167|462:220,1,89.9999972534181,0|0,3:0|1:0,0:0:0:0:
501,331,96995,6,0,B|428:264|329:307,1,179.999994506836,6|0,3:2|0:0,0:0:0:0:
246,259,97620,1,2,1:2:0:0:
246,259,97828,2,0,B|196:322|121:341,2,134.999995880127,2|2|2,3:2|3:2|1:2,0:0:0:0:
334,196,98662,6,0,B|329:138|320:85,1,89.9999972534181,0|0,3:2|1:2,0:0:0:0:
234,46,99078,1,0,0:0:0:0:
234,46,99182,1,0,3:2:0:0:
234,46,99287,1,0,1:2:0:0:
172,134,99495,2,0,P|144:132|107:125,3,44.999998626709,0|0|0|0,3:2|3:2|1:2|3:2,0:0:0:0:
80,102,99912,2,0,B|53:144|48:193,1,89.9999972534181,2|2,3:2|1:2,0:0:0:0:
15,288,100328,6,0,B|83:228|183:251,1,179.999994506836,6|0,3:2|0:0,0:0:0:0:
248,337,100953,1,2,1:2:0:0:
248,337,101162,2,0,B|294:321|347:294,1,89.9999972534181,2|0,3:2|1:2,0:0:0:0:
349,251,101474,2,0,B|385:269|431:285,1,89.9999972534181,2|0,3:2|3:2,0:0:0:0:
431,285,101787,1,2,1:2:0:0:
494,197,101995,6,0,B|442:172|389:155,1,89.9999972534181,0|0,3:2|1:2,0:0:0:0:
359,67,102412,1,0,0:0:0:0:
359,67,102516,1,0,3:2:0:0:
359,67,102620,1,0,1:2:0:0:
270,128,102828,2,0,L|274:154,6,22.4999993133545,0|0|0|0|0|0|0,3:2|0:0|3:2|0:0|1:2|0:0|3:2,0:0:0:0:
233,87,103245,2,0,B|227:34|217:-5,1,89.9999972534181,2|2,3:2|1:2,0:0:0:0:
126,56,103662,6,0,B|55:39|0:98|25:164,1,179.999994506836,6|0,3:2|0:0,0:0:0:0:
115,215,104287,1,2,1:2:0:0:
115,322,104495,2,0,B|48:301|-6:251,2,134.999995880127,2|2|2,3:2|3:2|1:2,0:0:0:0:
207,377,105328,6,0,B|255:359|302:345,1,89.9999972534181,0|0,3:2|1:2,0:0:0:0:
369,271,105745,1,0,0:0:0:0:
369,271,105849,1,0,3:2:0:0:
369,271,105953,1,0,1:2:0:0:
283,204,106162,2,0,P|276:168|271:150,3,44.999998626709,0|0|0|0,3:2|3:2|1:2|3:2,0:0:0:0:
295,110,106578,1,2,3:2:0:0:
373,34,106787,1,2,1:2:0:0:
467,85,106995,6,0,B|464:141|460:188,1,89.9999972534181,2|2,3:2|1:2,0:0:0:0:
503,274,107412,1,2,3:2:0:0:
503,274,107516,1,2,3:2:0:0:
503,274,107620,2,0,B|409:231|311:291,1,179.999994506836,2|0,1:2|1:2,0:0:0:0:
257,361,108245,1,0,0:0:0:0:
169,297,108453,1,0,1:2:0:0:
85,365,108662,6,0,B|9:348|2:258|59:215,1,179.999994506836,2|0,3:2|0:0,0:0:0:0:
144,173,109287,1,0,1:2:0:0:
55,112,109495,1,0,3:0:0:0:
55,112,109599,1,0,0:0:0:0:
55,112,109703,2,0,P|47:75|43:50,1,44.999998626709,2|2,1:2|3:2,0:0:0:0:
116,12,109912,2,0,P|120:34|126:56,3,44.999998626709,2|0|2|2,3:2|3:2|1:2|3:2,0:0:0:0:
235,142,110537,6,0,L|333:149,1,89.9999972534181,0|0,1:2|3:2,0:0:0:0:
415,74,110953,1,2,1:2:0:0:
493,161,111162,2,0,B|488:182|486:213,3,44.999998626709,2|0|0|2,3:2|0:0|1:2|3:2,0:0:0:0:
437,237,111578,1,0,0:0:0:0:
442,254,111682,1,0,3:2:0:0:
446,268,111787,1,2,1:2:0:0:
451,280,111891,1,0,0:0:0:0:
456,294,111995,6,0,B|441:336|435:371,2,67.4999979400635,2|0|0,3:2|3:2|3:2,0:0:0:0:
369,276,112412,2,0,B|384:234|390:199,2,67.4999979400635,0|0|0,3:2|3:2|3:2,0:0:0:0:
290,315,112828,6,0,B|252:319|199:332,1,89.9999972534181,0|0,3:2|1:2,0:0:0:0:
112,279,113245,1,0,0:0:0:0:
38,359,113453,1,2,1:2:0:0:
16,218,113662,6,0,B|6:168|26:174|17:125,1,89.9999972534181,2|0,3:2|1:2,0:0:0:0:
45,100,113974,1,0,3:2:0:0:
45,100,114078,2,0,B|100:98|149:80,1,89.9999972534181,0|2,3:2|1:2,0:0:0:0:
250,93,114495,2,0,B|238:58|239:9,2,67.4999979400635,2|0|0,3:2|3:2|3:2,0:0:0:0:
205,163,114912,2,0,B|217:198|216:247,2,67.4999979400635,0|0|0,3:2|3:2|3:2,0:0:0:0:
289,174,115328,6,0,B|338:184|379:199,1,89.9999972534181,0|0,3:2|1:2,0:0:0:0:
375,197,115641,1,0,3:2:0:0:
375,197,115745,1,0,0:0:0:0:
473,148,115953,1,0,1:2:0:0:
504,249,116162,2,0,B|482:295|481:338,1,89.9999972534181,0|0,3:2|1:2,0:0:0:0:
369,368,116578,6,0,P|341:360|312:353,3,44.999998626709,0|0|0|0,3:2|0:0|1:2|3:2,0:0:0:0:
261,303,116995,2,0,P|239:308|217:314,3,44.999998626709,2|0|0|0,0:0|3:2|1:2|0:0,0:0:0:0:
155,374,117412,1,0,3:2:0:0:
138,371,117516,1,0,3:2:0:0:
121,366,117620,1,2,1:2:0:0:
103,364,117724,1,0,3:2:0:0:
88,360,117828,2,0,B|87:309|76:267,1,89.9999972534181,2|0,3:2|1:2,0:0:0:0:
0,166,118245,6,0,B|93:159|58:115|174:100,1,179.999994506836,0|0,3:2|0:0,0:0:0:0:
241,34,118870,1,0,1:2:0:0:
326,96,119078,2,0,P|321:123|314:157,3,44.999998626709,0|0|0|0,3:2|3:2|1:2|3:2,0:0:0:0:
262,200,119495,1,0,3:2:0:0:
265,214,119599,1,0,3:2:0:0:
268,227,119703,1,0,1:2:0:0:
271,243,119807,1,0,3:2:0:0:
275,258,119912,2,0,B|312:267|372:291,1,89.9999972534181,2|2,3:2|1:2,0:0:0:0:
488,217,120328,6,0,P|480:182|479:155,2,44.999998626709,2|0|2,1:2|3:2|3:2,0:0:0:0:
456,298,120641,2,0,P|464:333|465:360,3,44.999998626709,0|2|0|2,1:2|3:2|3:2|1:2,0:0:0:0:
370,199,121162,1,0,1:2:0:0:
367,181,121266,1,0,3:2:0:0:
364,163,121370,1,0,3:2:0:0:
361,145,121474,1,0,1:2:0:0:
358,127,121578,2,0,B|348:62|339:26,1,89.9999972534181,0|0,3:2|1:2,0:0:0:0:
239,113,121995,6,0,B|150:169|62:128,1,179.999994506836,2|0,3:2|0:0,0:0:0:0:
23,49,122620,1,0,1:2:0:0:
16,210,122828,2,0,B|26:254|28:302,1,89.9999972534181,0|0,3:2|1:2,0:0:0:0:
126,232,123245,2,0,B|170:222|215:220,2,89.9999972534181,0|0|2,3:2|1:2|0:0,0:0:0:0:
182,341,123870,5,2,1:2:0:0:
291,286,124078,1,0,3:2:0:0:
402,359,124287,1,2,1:2:0:0:
508,298,124495,6,0,P|500:269|493:237,3,44.999998626709,2|0|0|2,3:2|0:0|1:2|3:2,0:0:0:0:
430,206,124912,1,0,0:0:0:0:
433,183,125016,1,0,3:2:0:0:
437,160,125120,1,2,1:2:0:0:
441,137,125224,1,0,0:0:0:0:
448,111,125328,6,0,B|490:96|525:90,2,67.4999979400635,0|0|0,3:2|3:2|3:2,0:0:0:0:
380,163,125745,2,0,B|338:178|303:184,2,67.4999979400635,0|0|0,3:2|3:2|3:2,0:0:0:0:
337,87,126162,6,0,B|302:50|262:18,1,89.9999972534181,0|0,3:2|1:2,0:0:0:0:
237,24,126474,1,0,3:2:0:0:
237,24,126578,2,0,B|198:39|149:50,1,89.9999972534181,0|0,0:0|1:2,0:0:0:0:
24,125,126995,6,0,B|34:175|14:169|23:218,1,89.9999972534181,2|0,3:2|1:2,0:0:0:0:
15,249,127307,1,0,3:2:0:0:
15,249,127412,2,0,B|52:223|119:229,1,89.9999972534181,0|2,3:2|1:2,0:0:0:0:
224,257,127828,2,0,B|212:222|213:173,2,67.4999979400635,2|0|0,3:2|3:2|3:2,0:0:0:0:
167,317,128245,2,0,B|166:349|178:384,2,67.4999979400635,0|0|0,3:2|3:2|3:2,0:0:0:0:
250,338,128662,6,0,L|350:353,1,89.9999972534181,0|0,3:2|1:2,0:0:0:0:
339,351,128974,1,0,3:2:0:0:
339,351,129078,1,0,0:0:0:0:
444,304,129287,1,0,1:2:0:0:
365,211,129495,2,0,B|345:165|355:124,1,89.9999972534181,0|0,3:2|1:2,0:0:0:0:
320,89,129807,1,0,3:2:0:0:
320,89,129912,2,0,B|289:93|275:96,3,44.999998626709,2|0|2|0,3:2|0:0|1:2|3:2,0:0:0:0:
213,149,130328,6,0,B|199:145|168:141,3,44.999998626709,2|0|0|0,0:0|3:2|1:2|0:0,0:0:0:0:
116,77,130745,1,0,3:2:0:0:
93,80,130849,1,0,3:2:0:0:
70,83,130953,1,2,1:2:0:0:
47,86,131057,1,0,3:2:0:0:
24,90,131162,2,0,B|12:137|16:183,1,89.9999972534181,2|0,3:2|1:2,0:0:0:0:
3,218,131474,5,2,3:2:0:0:
3,218,131578,2,0,B|88:211|77:257|182:255,1,179.999994506836,0|0,3:2|3:2,0:0:0:0:
283,200,132205,1,0,1:2:0:0:
283,200,132310,1,0,0:0:0:0:
283,200,132415,2,0,P|277:227|272:255,2,44.999998626709,0|0|0,3:2|3:2|1:2,0:0:0:0:
311,355,132835,2,0,B|362:336|410:347,1,89.9999972534181,0|0,3:2|1:2,0:0:0:0:
441,329,133151,1,0,3:2:0:0:
441,329,133256,1,0,3:2:0:0:
468,214,133466,5,0,1:2:0:0:
468,214,133571,1,0,3:2:0:0:
468,214,133676,2,0,B|496:211|530:205,2,44.999998626709,0|0|0,1:2|3:2|3:2,0:0:0:0:
387,165,133987,2,0,B|359:162|335:158,3,44.999998626709,0|0|0|0,1:2|3:2|3:2|1:2,0:0:0:0:
489,60,134506,5,0,1:2:0:0:
466,57,134610,1,0,3:2:0:0:
443,54,134714,1,0,3:2:0:0:
420,51,134817,1,0,1:2:0:0:
397,49,134921,2,0,P|342:40|294:35,1,89.9999972534181,0|0,3:2|1:2,0:0:0:0:
180,6,135336,6,0,P|187:34|197:64,3,44.999998626709,4|0|0|0,3:2|0:0|1:2|3:2,0:0:0:0:
243,113,135752,2,0,P|236:141|226:171,3,44.999998626709,0|0|0|0,0:0|3:2|1:2|0:0,0:0:0:0:
164,208,136167,2,0,P|171:236|181:266,3,44.999998626709,0|0|0|0,3:2|3:2|1:2|3:2,0:0:0:0:
203,331,136582,5,0,3:2:0:0:
318,263,136790,1,0,1:2:0:0:
318,263,136893,1,0,3:2:0:0:
318,263,136997,1,4,3:2:0:0:
