osu file format v14

[General]
AudioFilename: audio.mp3
AudioLeadIn: 0
PreviewTime: 108
Countdown: 0
SampleSet: Soft
StackLeniency: 0.2
Mode: 0
LetterboxInBreaks: 0
WidescreenStoryboard: 0

[Editor]
Bookmarks: 286,11715,23143,34572,46000,57429,58143,59750,68858,75197,80286,91715,103143
DistanceSpacing: 0.8
BeatDivisor: 8
GridSize: 4
TimelineZoom: 2.200001

[Metadata]
Title:Manatsu no Yousei no Yume
TitleUnicode:真夏の妖精の夢
Artist:ZUN
ArtistUnicode:ZUN
Creator:Parachute
Version:Insane
Source:東方天空璋 ~ Hidden Star in Four Seasons.
Tags:Eternity Larva Touhou 16 Hidden Star in Four Seasons th16 Rin Desu YTYuyu byakugan249 tenkuu akira midsummer fairy night dream
BeatmapID:1342541
BeatmapSetID:624526

[Difficulty]
HPDrainRate:6
CircleSize:4
OverallDifficulty:7
ApproachRate:8.5
SliderMultiplier:2
SliderTickRate:2

[Events]
//Background and Video events
0,0,"LnwpAFp.jpg",0,0
//Break Periods
//Storyboard Layer 0 (Background)
//Storyboard Layer 1 (Fail)
//Storyboard Layer 2 (Pass)
//Storyboard Layer 3 (Foreground)
//Storyboard Sound Samples

[TimingPoints]
286.63203134198,357.142857142857,4,2,1,75,1,0
465,-100,4,2,1,65,0,0
3143,-100,4,2,1,75,0,0
3322,-100,4,2,1,65,0,0
6000,-100,4,2,1,75,0,0
6179,-100,4,2,1,65,0,0
8858,-100,4,2,1,75,0,0
9036,-100,4,2,1,65,0,0
11893,-100,4,2,1,95,0,0
12250,-100,4,2,1,65,0,0
12340,-100,4,2,1,95,0,0
12786,-100,4,2,1,65,0,0
14661,-100,4,2,1,95,0,0
15108,-100,4,2,1,65,0,0
15197,-100,4,2,1,95,0,0
15643,-100,4,2,1,65,0,0
17608,-100,4,2,1,95,0,0
17965,-100,4,2,1,65,0,0
18858,-133.333333333333,4,2,1,65,0,0
20286,-100,4,2,1,65,0,0
23143,-100,4,2,1,55,0,0
24036,-100,4,2,1,65,0,0
26179,-100,4,2,1,95,0,0
26536,-100,4,2,1,65,0,0
26715,-100,4,2,1,95,0,0
27072,-100,4,2,1,65,0,0
28858,-100,4,2,1,75,0,0
29036,-100,4,2,1,95,0,0
29393,-100,4,2,1,65,0,0
33143,-100,4,2,1,35,0,0
33500,-100,4,2,1,95,0,0
33880,-100,4,2,1,55,0,0
34572,-100,4,2,1,75,0,0
34661,-100,4,2,1,45,0,0
35643,-100,4,2,1,55,0,0
35733,-100,4,2,1,35,0,0
37072,-100,4,2,1,65,0,0
37429,-100,4,2,1,75,0,0
37608,-100,4,2,1,65,0,0
40286,-100,4,2,1,75,0,0
40465,-100,4,2,1,65,0,0
43143,-100,4,2,1,75,0,0
43322,-100,4,2,1,65,0,0
46000,-100,4,2,1,75,0,0
56893,-111.111111111111,4,2,1,65,0,0
57429,-100,4,2,1,75,0,1
57608,-100,4,2,1,55,0,0
58858,-100,4,2,1,75,0,0
67608,-100,4,2,1,45,0,0
71358,-100,4,2,1,75,0,0
71715,-100,4,2,1,65,0,0
79572,-125,4,2,1,65,0,0
80286,-100,4,2,1,55,0,0
81358,-100,4,2,1,65,0,0
83143,-100,4,2,1,75,0,0
83322,-100,4,2,1,95,0,0
83679,-100,4,2,1,65,0,0
83858,-100,4,2,1,95,0,0
84215,-100,4,2,1,65,0,0
86000,-100,4,2,1,75,0,0
86179,-100,4,2,1,95,0,0
86536,-100,4,2,1,65,0,0
91179,-100,4,2,1,75,0,0
91715,-100,4,2,1,85,0,1
91893,-100,4,2,1,75,0,1
97429,-100,4,2,1,85,0,1
97608,-100,4,2,1,95,0,1
97786,-100,4,2,1,75,0,1
100286,-100,4,2,1,65,0,1
100822,-100,4,2,1,75,0,1
101715,-100,4,2,1,85,0,1
102250,-100,4,2,1,65,0,1
102429,-100,4,2,1,85,0,1
103054,-100,4,2,1,75,0,0
103143,-100,4,2,1,65,0,1
103233,-100,4,2,1,25,0,1
106000,-100,4,2,1,65,0,0

[Colours]
Combo1 : 255,255,0
Combo2 : 40,255,40
Combo3 : 26,169,255
Combo4 : 149,255,43
Combo5 : 111,62,255
Combo6 : 0,249,63
Combo7 : 9,33,255
Combo8 : 255,128,255

[HitObjects]
28,288,286,6,0,L|144:288,1,100,4|0,0:0|0:0,0:0:0:0:
28,192,643,2,0,L|144:192,1,100,2|0,0:0|0:0,0:0:0:0:
28,96,1000,2,0,L|144:96,1,100,2|0,0:0|0:0,0:0:0:0:
256,96,1358,1,0,0:0:0:0:
384,96,1536,1,0,0:0:0:0:
484,96,1715,6,0,L|368:96,1,100
484,192,2072,2,0,L|368:192,1,100,2|0,0:0|0:0,0:0:0:0:
484,288,2429,2,0,L|368:288,1,100,2|0,0:0|0:0,0:0:0:0:
256,288,2787,1,0,0:0:0:0:
128,288,2965,1,0,0:0:0:0:
17,220,3143,6,0,P|5:171|17:123,1,100,4|0,0:0|0:0,0:0:0:0:
127,63,3500,2,0,P|175:77|211:111,1,100,2|0,0:0|0:0,0:0:0:0:
211,240,3858,2,0,P|174:274|126:288,1,100,2|0,0:0|0:0,0:0:0:0:
118,175,4215,1,0,0:0:0:0:
256,172,4393,1,0,0:0:0:0:
323,282,4572,6,0,P|372:294|420:282,1,100
480,172,4929,2,0,P|466:124|432:88,1,100,2|0,0:0|0:0,0:0:0:0:
303,88,5287,2,0,P|269:125|255:173,1,100,2|0,0:0|0:0,0:0:0:0:
368,181,5644,1,0,0:0:0:0:
371,43,5822,1,0,0:0:0:0:
256,20,6000,6,0,B|208:32|148:16,1,100,4|0,0:0|0:0,0:0:0:0:
84,104,6358,2,0,B|132:116|192:100,1,100,2|0,0:0|0:0,0:0:0:0:
256,192,6715,2,0,B|208:204|148:188,1,100,2|0,0:0|0:0,0:0:0:0:
64,272,7072,1,0,0:0:0:0:
132,376,7250,1,0,0:0:0:0:
256,364,7429,6,0,B|304:352|364:368,1,100
428,280,7786,2,0,B|380:268|320:284,1,100,2|0,0:0|0:0,0:0:0:0:
256,192,8144,2,0,B|304:180|364:196,1,100,2|0,0:0|0:0,0:0:0:0:
448,112,8501,1,0,0:0:0:0:
380,8,8679,1,0,0:0:0:0:
256,92,8858,6,0,P|208:88|144:52,1,100,4|0,0:0|0:0,0:0:0:0:
80,144,9215,2,0,P|68:192|80:240,1,100,2|0,0:0|0:0,0:0:0:0:
161,317,9572,2,0,P|206:296|256:292,1,100,2|0,0:0|0:0,0:0:0:0:
360,248,9929,1,0,0:0:0:0:
360,136,10108,1,0,0:0:0:0:
256,92,10286,5,0,0:0:0:0:
255,241,10465,2,0,L|255:291,2,50,0|0|2,1:2|1:2|1:2,0:0:0:0:
256,92,10822,1,0,1:2:0:0:
144,192,11000,2,0,L|144:244,1,50,2|0,3:2|3:0,0:0:0:0:
177,321,11179,2,0,L|217:361,1,50,0|0,3:0|3:0,0:0:0:0:
300,356,11358,2,0,L|336:321,1,50,0|0,1:2|1:2,0:0:0:0:
368,242,11536,2,0,L|368:192,1,50,0|0,1:2|1:2,0:0:0:0:
404,92,11715,6,0,B|256:56|256:128|108:92,2,300,4|0|0,0:0|1:2|1:2,0:0:0:0:
404,92,12965,1,0,0:0:0:0:
324,191,13143,5,0,0:0:0:0:
332,288,13322,1,2,1:2:0:0:
188,191,13500,1,2,0:0:0:0:
180,288,13679,1,0,0:0:0:0:
340,64,13858,1,2,1:2:0:0:
172,64,14036,1,0,0:0:0:0:
256,224,14215,1,2,1:2:0:0:
340,64,14394,1,0,0:0:0:0:
188,191,14572,6,0,P|255:298|324:192,2,300,6|0|0,0:0|1:2|1:2,0:0:0:0:
188,192,15822,1,0,0:0:0:0:
324,192,16000,6,0,P|312:144|252:100,1,100,2|0,1:2|0:0,0:0:0:0:
188,192,16268,2,0,P|153:226|145:300,1,100,0|0,1:2|0:0,0:0:0:0:
256,312,16536,2,0,P|304:320|336:308,1,50,0|0,1:2|0:2,0:0:0:0:
376,300,16715,1,0,1:0:0:0:
404,192,16893,1,0,0:0:0:0:
256,192,17072,1,2,1:2:0:0:
108,192,17250,1,0,0:0:0:0:
108,92,17429,6,0,B|256:56|256:128|404:92,1,300,2|0,0:0|1:2,0:0:0:0:
408,192,18143,2,0,L|408:316,1,100,2|0,0:0|0:0,0:0:0:0:
332,240,18411,2,0,L|332:290,2,50,0|2|0,0:2|1:2|0:0,0:0:0:0:
256,212,18679,1,0,0:0:0:0:
256,92,18858,6,0,L|256:16,1,75.0000028610231,2|0,1:2|0:0,0:0:0:0:
180,140,19125,2,0,L|180:64,1,75.0000028610231,2|0,1:2|0:0,0:0:0:0:
104,192,19393,1,2,1:2:0:0:
104,192,19483,1,0,0:0:0:0:
104,192,19572,2,0,L|104:280,1,75.0000028610231,2|0,1:2|0:2,0:0:0:0:
180,244,19840,2,0,L|180:336,1,75.0000028610231,0|0,1:2|0:0,0:0:0:0:
256,192,20108,2,0,L|256:152,1,37.5000014305115
192,104,20286,6,0,P|256:71|320:104,2,150,2|0|0,0:0|0:0|1:2,0:0:0:0:
192,240,21000,2,0,P|256:273|320:240,2,150,2|0|0,0:0|1:2|0:0,0:0:0:0:
88,192,21715,5,2,1:2:0:0:
256,192,21983,1,0,1:2:0:0:
424,192,22250,1,0,1:2:0:0:
424,181,22340,1,0,1:2:0:0:
424,171,22429,5,0,1:2:0:0:
283,227,22608,1,0,1:2:0:0:
245,234,22697,1,0,1:2:0:0:
214,211,22787,1,2,1:2:0:0:
214,172,22876,1,0,1:2:0:0:
245,147,22965,1,0,1:2:0:0:
283,155,23055,1,0,1:2:0:0:
300,192,23143,5,0,0:0:0:0:
256,192,23233,12,0,24215,1:2:0:0:
256,192,24572,5,0,0:0:0:0:
192,304,24750,1,0,1:2:0:0:
320,304,24929,1,2,0:0:0:0:
256,192,25108,1,0,0:0:0:0:
256,360,25286,1,2,1:2:0:0:
156,188,25465,1,0,0:0:0:0:
356,188,25643,1,2,1:2:0:0:
256,360,25822,1,0,0:0:0:0:
156,188,26000,6,0,P|256:95|356:188,2,300,6|0|0,0:0|1:2|1:2,0:0:0:0:
156,188,27250,1,0,0:0:0:0:
183,283,27429,6,0,P|178:332|143:368,1,100,2|0,1:2|0:2,0:0:0:0:
256,256,27697,2,0,L|256:356,1,100,0|0,1:2|0:0,0:0:0:0:
328,284,27965,2,0,P|334:333|368:368,1,100,0|0,1:2|1:2,0:0:0:0:
408,296,28322,1,0,0:0:0:0:
320,192,28500,1,2,1:2:0:0:
192,192,28679,1,0,0:0:0:0:
103,295,28858,6,0,P|49:223|192:192,1,300,2|0,0:0|1:2,0:0:0:0:
320,192,29572,2,0,P|376:164|412:68,2,150,2|2|0,0:0|1:2|0:0,0:0:0:0:
295,96,30286,6,0,P|250:118|221:195,1,100,2|0,1:2|0:0,0:0:0:0:
249,256,30554,2,0,P|294:234|320:192,1,100,0|0,1:2|0:0,0:0:0:0:
415,192,30822,2,0,P|441:233|485:255,2,100,2|0|0,1:2|1:2|0:0,0:0:0:0:
391,96,31268,2,0,P|364:54|320:32,1,100,0|0,1:2|0:2,0:0:0:0:
227,32,31536,2,0,L|167:32,1,50
115,104,31715,6,0,B|99:180|131:180|115:252,2,150,2|0|0,0:0|0:0|1:2,0:0:0:0:
115,104,32429,1,2,0:0:0:0:
256,264,32697,1,2,1:2:0:0:
397,104,32965,1,2,0:0:0:0:
256,168,33143,6,0,B|256:128,4,25,2|0|0|0|0,1:2|1:2|1:2|1:2|1:2,1:2:0:0:
180,224,33500,1,0,3:0:0:0:
212,254,33589,1,0,3:0:0:0:
256,264,33678,1,0,3:0:0:0:
299,253,33767,1,0,3:0:0:0:
332,223,33858,1,2,1:2:0:0:
256,192,33880,12,2,34572,0:0:0:0:
256,192,34661,12,2,35643,1:2:0:0:
256,192,35733,12,0,37072,1:2:0:0:
256,192,37250,5,0,0:0:0:0:
256,192,37340,1,0,0:0:0:0:
256,192,37429,2,0,P|244:256|192:284,1,100,4|0,0:0|0:0,0:0:0:0:
180,208,37786,2,0,P|192:144|244:116,1,100,2|0,1:2|0:0,0:0:0:0:
296,108,38143,1,2,0:0:0:0:
364,152,38322,1,0,0:0:0:0:
364,232,38500,1,0,1:2:0:0:
296,276,38679,1,0,0:0:0:0:
216,272,38858,6,0,P|164:263|132:227,1,100
133,155,39215,2,0,P|167:119|215:112,1,100,2|0,1:2|0:0,0:0:0:0:
284,152,39572,1,2,0:0:0:0:
364,232,39750,1,0,0:0:0:0:
364,152,39929,1,0,1:2:0:0:
284,232,40108,1,0,0:0:0:0:
309,307,40286,6,0,P|349:278|364:232,1,100,4|0,0:0|0:0,0:0:0:0:
364,152,40643,2,0,P|349:106|309:77,1,100,2|0,1:2|0:0,0:0:0:0:
256,136,41000,1,2,0:0:0:0:
199,79,41179,1,0,0:0:0:0:
180,156,41358,1,0,1:2:0:0:
123,99,41537,1,0,0:0:0:0:
104,176,41715,6,0,P|140:228|180:236,1,100
249,216,42072,2,0,P|225:173|180:156,1,100,2|0,1:2|0:0,0:0:0:0:
123,99,42429,1,2,0:0:0:0:
192,60,42608,1,0,0:0:0:0:
256,108,42786,1,0,1:2:0:0:
320,60,42965,1,0,0:0:0:0:
389,99,43143,6,0,P|403:144|380:200,1,100,4|0,0:0|0:0,0:0:0:0:
319,237,43500,2,0,P|305:192|328:136,1,100,2|0,1:2|0:0,0:0:0:0:
386,192,43858,1,2,0:0:0:0:
396,272,44036,1,0,0:0:0:0:
332,320,44215,1,0,1:2:0:0:
256,292,44393,1,0,0:0:0:0:
183,234,44572,5,0,3:0:0:0:
184,194,44661,1,0,3:0:0:0:
184,154,44750,1,0,3:0:0:0:
184,114,44840,1,0,3:0:0:0:
184,74,44929,2,0,L|184:18,4,50,2|0|0|0|0,1:2|1:2|1:2|1:0|1:0,0:0:0:0:
104,74,45465,5,0,3:2:0:0:
142,74,45554,1,0,3:2:0:0:
184,74,45643,1,2,1:2:0:0:
224,74,45733,1,0,1:2:0:0:
263,74,45822,1,0,1:2:0:0:
302,74,45911,1,0,1:2:0:0:
341,76,46000,6,0,P|360:116|408:144,1,100,2|0,0:0|1:2,0:0:0:0:
428,240,46358,1,0,3:0:0:0:
416,240,46447,1,0,3:0:0:0:
406,240,46536,2,0,P|363:264|341:308,1,100,0|0,0:0|1:2,0:0:0:0:
256,360,46893,2,0,L|256:300,1,50,0|0,3:0|3:0,0:0:0:0:
180,360,47072,2,0,L|180:252,1,100,0|0,1:2|3:2,0:0:0:0:
256,192,47429,5,0,0:0:0:0:
204,96,47608,1,2,1:2:0:0:
308,96,47786,1,0,0:0:0:0:
256,192,47965,2,0,L|256:242,1,50,0|0,3:0|3:0,0:0:0:0:
256,336,48143,1,2,1:2:0:0:
154,288,48322,2,0,L|204:288,1,50,0|0,3:0|3:0,0:0:0:0:
308,288,48501,1,2,1:2:0:0:
256,192,48680,1,0,0:0:0:0:
296,76,48858,6,0,P|356:100|396:136,2,100,2|0|0,0:0|1:2|3:0,0:0:0:0:
256,68,49304,1,0,3:0:0:0:
216,76,49393,2,0,P|168:93|128:121,1,100,0|0,0:0|1:2,0:0:0:0:
40,76,49750,1,0,3:0:0:0:
48,84,49840,1,0,3:0:0:0:
56,92,49929,1,0,1:2:0:0:
44,180,50108,1,0,0:0:0:0:
180,360,50286,6,0,L|244:360,2,50,2|0|0,1:2|3:0|3:0,0:0:0:0:
256,292,50554,2,0,L|312:292,2,50,0|0|0,1:2|3:0|3:0,0:0:0:0:
332,224,50822,2,0,L|388:224,1,50,0|0,1:2|3:0,0:0:0:0:
408,156,51000,2,0,L|464:156,1,50,0|0,1:2|3:0,0:0:0:0:
382,88,51179,5,2,3:2:0:0:
332,88,51268,1,0,3:2:0:0:
280,88,51358,1,2,1:2:0:0:
232,88,51447,1,0,3:0:0:0:
184,88,51536,1,0,1:2:0:0:
136,88,51625,1,0,1:2:0:0:
84,88,51715,6,0,L|84:196,2,100,2|0|0,0:0|1:2|0:0,0:0:0:0:
84,80,52161,1,0,3:0:0:0:
84,72,52250,1,0,3:0:0:0:
372,120,52429,5,2,1:2:0:0:
256,192,52697,1,0,1:2:0:0:
140,264,52965,1,2,1:2:0:0:
160,356,53143,5,2,1:2:0:0:
172,352,53233,2,0,P|216:316|236:256,1,100,0|2,3:0|1:2,0:0:0:0:
280,280,53500,2,0,P|301:324|341:354,1,100,0|2,3:0|1:2,0:0:0:0:
448,364,53858,1,2,1:2:0:0:
448,320,53947,1,0,3:0:0:0:
448,276,54036,1,0,3:0:0:0:
448,232,54125,1,2,3:2:0:0:
448,188,54215,1,0,1:2:0:0:
448,100,54393,1,2,0:0:0:0:
384,36,54572,5,2,3:2:0:0:
344,56,54661,1,0,3:0:0:0:
304,36,54750,1,0,1:2:0:0:
264,56,54840,1,2,3:2:0:0:
224,36,54929,1,0,3:0:0:0:
184,56,55018,1,0,3:0:0:0:
144,36,55108,2,0,P|96:40|48:64,2,100,2|2|0,3:2|1:2|3:0,0:0:0:0:
264,56,55554,2,0,P|312:52|360:28,1,100,2|0,1:2|3:0,0:0:0:0:
256,142,55822,2,0,L|256:192,1,50,2|0,1:2|0:0,0:0:0:0:
256,264,56000,6,0,L|256:328,2,50,2|0|0,1:2|3:0|3:0,0:0:0:0:
184,222,56268,2,0,L|184:272,2,50,0|0|0,1:2|3:0|3:0,0:0:0:0:
256,184,56536,1,0,1:2:0:0:
296,196,56625,1,0,3:0:0:0:
328,222,56715,2,0,L|328:272,1,50,0|0,1:2|0:0,0:0:0:0:
368,132,56893,1,0,3:0:0:0:
338,97,56982,1,0,3:0:0:0:
300,75,57072,1,0,1:2:0:0:
255,68,57160,1,0,3:0:0:0:
211,75,57250,1,0,3:0:0:0:
173,98,57339,1,0,3:0:0:0:
143,132,57428,5,2,0:0:0:0:
256,192,57518,12,0,58500,1:2:0:0:
256,376,58858,5,0,0:0:0:0:
304,300,59036,1,0,1:2:0:0:
208,300,59215,1,2,0:0:0:0:
256,142,59393,2,0,L|256:192,1,50,0|0,3:0|3:0,0:0:0:0:
256,20,59572,1,2,1:2:0:0:
392,70,59750,2,0,L|392:20,1,50,0|0,3:0|3:0,0:0:0:0:
392,192,59929,1,2,1:2:0:0:
256,20,60108,1,0,0:0:0:0:
124,103,60286,6,0,P|108:151|80:192,1,100,2|0,0:0|1:2,0:0:0:0:
124,280,60643,1,0,3:0:0:0:
124,280,60733,1,0,3:0:0:0:
124,280,60822,2,0,P|108:232|79:191,1,100,0|0,3:0|1:2,0:0:0:0:
216,192,61179,2,0,L|164:192,2,50,0|0|0,3:0|3:0|1:2,0:0:0:0:
316,192,61536,1,0,0:0:0:0:
360,340,61715,5,2,1:2:0:0:
360,352,61804,1,0,1:2:0:0:
456,256,61983,1,0,1:2:0:0:
464,264,62072,1,0,1:2:0:0:
456,128,62250,1,0,1:2:0:0:
464,120,62340,1,0,1:2:0:0:
472,112,62429,1,0,1:2:0:0:
360,44,62608,2,0,L|292:44,1,50,0|0,3:0|3:0,0:0:0:0:
304,118,62786,2,0,L|254:118,1,50,2|0,1:2|3:0,0:0:0:0:
256,192,62965,2,0,L|206:192,1,50,0|0,3:0|3:0,0:0:0:0:
208,266,63143,6,0,L|108:266,2,100,2|0|0,0:2|1:2|0:0,0:0:0:0:
216,316,63590,1,0,3:0:0:0:
216,328,63679,1,0,3:0:0:0:
374,354,63858,1,2,1:2:0:0:
472,192,64125,1,0,1:2:0:0:
374,30,64393,1,2,1:2:0:0:
256,80,64572,6,0,L|256:30,2,50,2|0|0,1:2|3:0|3:0,0:0:0:0:
216,140,64840,2,0,L|216:228,2,50,2|0|0,1:2|3:0|3:0,0:0:0:0:
296,140,65108,2,0,L|296:190,1,50,2|0,1:2|3:0,0:0:0:0:
296,264,65286,2,0,L|331:299,2,50,2|0|0,1:2|3:0|3:0,0:0:0:0:
216,264,65554,2,0,L|160:320,2,50,2|0|0,1:2|3:0|3:0,0:0:0:0:
256,332,65822,5,2,1:2:0:0:
256,340,65911,1,0,1:2:0:0:
256,348,66000,1,2,0:0:0:0:
336,192,66268,1,0,0:0:0:0:
176,192,66536,1,0,1:2:0:0:
255,347,66715,6,0,P|288:310|336:298,1,100,2|0,1:2|0:0,0:0:0:0:
336,192,66983,2,0,P|263:155|249:121,1,100,2|0,1:2|0:0,0:0:0:0:
176,192,67250,2,0,L|176:252,1,50,2|0,1:2|3:0,0:0:0:0:
148,320,67429,5,2,0:0:0:0:
256,192,67474,12,4,68143,1:2:0:0:
256,192,68233,12,0,71358,0:0:0:0:
256,192,71715,6,0,P|220:248|144:296,2,133.333333333333,2|0|2,0:0|0:0|0:0,0:0:0:0:
204,104,72429,2,0,P|240:48|320:0,2,150,0|2|0,1:2|0:0|0:0,0:0:0:0:
256,192,73143,5,0,0:0:0:0:
308,104,73322,1,0,0:0:0:0:
204,104,73500,1,0,0:0:0:0:
204,280,73679,1,0,1:2:0:0:
156,192,73858,1,0,0:0:0:0:
356,192,74036,1,0,1:2:0:0:
256,192,74215,1,0,0:0:0:0:
308,280,74393,1,0,0:0:0:0:
204,280,74572,6,0,P|92:304|44:372,1,200,2|0,0:0|0:0,0:0:0:0:
20,256,75108,1,0,0:0:0:0:
204,280,75286,2,0,P|300:265|363:190,1,200,0|0,1:2|0:0,0:0:0:0:
376,76,75822,1,0,0:0:0:0:
252,192,76000,6,0,P|155:177|92:102,1,200,2|0,0:0|3:0,0:0:0:0:
88,96,76447,1,0,3:0:0:0:
84,88,76536,1,0,1:2:0:0:
168,32,76715,1,2,0:0:0:0:
420,103,76893,1,0,1:2:0:0:
344,32,77072,1,0,0:0:0:0:
256,92,77250,1,0,0:0:0:0:
168,32,77429,6,0,P|156:88|188:144,1,100,0|2,0:0|0:0,0:0:0:0:
340,126,77786,2,0,P|356:79|344:32,1,100,0|2,0:0|3:2,0:0:0:0:
256,92,78143,2,0,L|256:192,1,100,2|0,3:2|3:0,0:0:0:0:
256,192,78411,1,2,3:2:0:0:
256,192,78500,1,0,3:0:0:0:
208,276,78679,1,0,0:0:0:0:
304,276,78858,5,2,0:0:0:0:
188,176,79036,2,0,L|144:132,2,50,0|2|0,1:2|1:2|1:2,0:0:0:0:
324,176,79394,1,0,1:2:0:0:
384,288,79572,5,2,3:2:0:0:
362,321,79661,1,0,3:2:0:0:
331,347,79750,1,0,3:2:0:0:
295,363,79839,1,0,3:2:0:0:
255,368,79929,1,2,1:2:0:0:
216,363,80018,1,0,1:2:0:0:
180,346,80108,1,2,1:2:0:0:
149,320,80197,1,0,1:2:0:0:
127,287,80286,5,0,0:0:0:0:
256,192,80375,12,0,81358,1:2:0:0:
256,192,81715,5,0,0:0:0:0:
200,96,81893,1,2,1:2:0:0:
312,96,82072,1,0,0:0:0:0:
256,192,82250,2,0,L|256:256,1,50,0|0,3:0|3:0,0:0:0:0:
256,376,82429,1,2,1:2:0:0:
152,224,82608,2,0,L|96:224,1,50,0|0,3:0|3:0,0:0:0:0:
360,224,82786,1,2,1:2:0:0:
256,376,82965,1,0,1:2:0:0:
152,224,83143,6,0,P|256:134|360:224,2,300,2|0|0,0:0|1:2|1:2,0:0:0:0:
152,224,84393,1,0,0:0:0:0:
192,348,84572,5,2,1:2:0:0:
192,348,84661,1,0,0:0:0:0:
320,348,84840,1,0,1:2:0:0:
320,348,84929,1,0,0:0:0:0:
360,224,85108,1,0,1:2:0:0:
360,224,85197,1,0,0:0:0:0:
360,224,85286,1,0,1:2:0:0:
428,140,85465,2,0,L|463:104,1,50,0|0,3:0|3:0,0:0:0:0:
324,80,85643,2,0,L|324:30,1,50,2|0,1:2|1:2,1:2:0:0:
192,68,85822,2,0,L|156:32,1,50,0|0,1:2|1:2,0:0:0:0:
40,104,86000,6,0,P|139:191|40:280,1,300,2|0,1:2|0:0,0:0:0:0:
52,192,86715,1,2,1:2:0:0:
256,192,86983,1,0,1:2:0:0:
460,192,87250,1,2,1:2:0:0:
384,120,87429,6,0,L|384:180,2,50,2|0|0,1:2|3:0|3:0,0:0:0:0:
384,264,87697,2,0,L|332:316,2,50,2|0|0,1:2|3:0|3:0,0:0:0:0:
284,360,87965,2,0,L|228:360,1,50,2|0,1:2|3:0,0:0:0:0:
164,299,88143,2,0,L|128:263,2,50,2|0|0,1:2|3:0|3:0,0:0:0:0:
128,170,88411,1,0,1:2:0:0:
128,170,88500,2,0,L|128:40,1,100,0|0,3:2|1:2,0:0:0:0:
208,28,88768,1,0,1:2:0:0:
208,28,88858,6,0,P|258:39|304:28,1,100,2|0,0:0|1:2,0:0:0:0:
380,64,89125,1,0,1:2:0:0:
380,64,89215,1,0,1:2:0:0:
380,64,89304,1,0,1:2:0:0:
380,64,89393,1,0,0:0:0:0:
384,170,89572,1,2,1:2:0:0:
256,272,89840,1,0,1:2:0:0:
128,170,90108,1,0,1:2:0:0:
256,192,90286,12,0,91000,1:2:0:0:
160,140,91179,5,0,3:0:0:0:
160,140,91268,1,0,3:0:0:0:
160,140,91358,1,0,1:2:0:0:
160,140,91447,1,0,1:2:0:0:
160,140,91536,1,0,1:2:0:0:
160,140,91625,1,0,1:2:0:0:
160,140,91715,6,0,P|207:153|246:184,1,100,2|0,0:0|1:2,0:0:0:0:
248,192,91983,1,0,0:0:0:0:
248,192,92072,2,0,P|288:160|352:148,1,100
404,216,92340,1,0,0:0:0:0:
392,232,92429,2,0,P|352:264|288:276,1,100,0|0,1:2|0:0,0:0:0:0:
228,280,92697,1,0,0:0:0:0:
208,276,92786,2,0,P|160:262|121:231,1,100,0|0,1:2|0:0,0:0:0:0:
256,192,93143,5,0,0:0:0:0:
200,96,93322,1,2,1:2:0:0:
312,96,93500,1,2,0:0:0:0:
256,192,93679,1,0,0:0:0:0:
256,4,93858,1,2,1:2:0:0:
80,96,94036,1,0,0:0:0:0:
256,192,94215,1,2,1:2:0:0:
80,288,94393,1,0,0:0:0:0:
256,380,94572,6,0,P|312:368|372:320,1,100,2|0,0:0|1:2,0:0:0:0:
408,296,94840,1,0,3:2:0:0:
416,288,94929,1,0,3:2:0:0:
424,280,95018,1,0,3:2:0:0:
432,272,95108,1,0,3:2:0:0:
328,192,95286,2,0,P|328:148|300:96,1,100,0|0,1:2|0:0,0:0:0:0:
256,192,95554,1,0,3:0:0:0:
256,192,95643,2,0,P|256:236|284:288,1,100,0|0,1:2|0:0,0:0:0:0:
212,352,96000,5,2,1:2:0:0:
200,352,96090,2,0,L|128:352,1,50
172,268,96268,1,0,1:2:0:0:
160,268,96358,2,0,L|108:268,1,50
56,192,96536,2,0,L|116:192,1,50,0|0,1:2|0:0,0:0:0:0:
110,116,96715,2,0,L|160:116,1,50,0|0,1:2|0:0,0:0:0:0:
256,28,96893,2,0,L|306:28,1,50,2|0,0:0|0:0,0:0:0:0:
312,116,97072,2,0,L|360:128,1,50,2|0,1:2|1:2,0:0:0:0:
332,216,97250,2,0,L|375:241,1,50,2|0,1:2|1:2,0:2:0:0:
412,352,97429,6,0,L|524:352,2,100,0|0|0,0:0|1:2|0:0,0:0:0:0:
404,352,97875,1,0,0:0:0:0:
396,352,97965,1,0,0:0:0:0:
288,352,98143,6,0,P|245:326|225:281,1,100,0|0,1:2|0:0,0:0:0:0:
200,200,98411,2,0,P|158:226|138:271,1,100,2|0,1:2|0:0,0:0:0:0:
64,312,98679,2,0,L|64:248,1,50,0|0,1:2|0:0,0:0:0:0:
0,124,98858,6,0,P|12:88|0:28,1,100,2|0,1:2|0:0,0:0:0:0:
96,8,99125,2,0,P|148:28|184:80,1,100,2|0,1:2|0:0,0:0:0:0:
256,112,99393,2,0,L|256:62,1,50,2|0,1:2|0:0,0:0:0:0:
256,228,99572,6,0,P|228:272|176:296,1,100,2|0,1:2|0:0,0:0:0:0:
256,368,99840,2,0,P|304:376|356:364,1,100,2|0,1:2|0:0,0:0:0:0:
396,272,100108,2,0,L|396:222,1,50,0|0,1:2|0:0,0:0:0:0:
340,240,100286,5,2,0:0:0:0:
172,240,100554,1,0,0:0:0:0:
256,102,100822,1,2,1:2:0:0:
256,302,101000,5,2,1:2:0:0:
92,20,101268,1,2,1:2:0:0:
420,20,101536,1,2,1:2:0:0:
256,302,101715,6,0,L|256:96,1,200,2|0,1:2|3:0,0:0:0:0:
256,92,102161,1,0,3:0:0:0:
256,84,102250,1,0,1:2:0:0:
256,76,102340,1,0,3:0:0:0:
208,120,102429,6,0,P|256:11|304:120,1,300,2|0,0:2|0:0,0:0:0:0:
304,128,103054,1,0,0:0:0:0:
304,136,103143,1,4,1:2:0:0:
256,192,103233,12,0,106001,0:0:0:0:
