osu file format v14

[General]
AudioFilename: audio.mp3
AudioLeadIn: 0
PreviewTime: 108
Countdown: 0
SampleSet: Soft
StackLeniency: 0.7
Mode: 0
LetterboxInBreaks: 0
WidescreenStoryboard: 0

[Editor]
Bookmarks: 286,11715,23143,34572,46000,57429,68858,75197,80286,91715,103143
DistanceSpacing: 1.1
BeatDivisor: 2
GridSize: 4
TimelineZoom: 2.200001

[Metadata]
Title:Manatsu no Yousei no Yume
TitleUnicode:真夏の妖精の夢
Artist:ZUN
ArtistUnicode:ZUN
Creator:Parachute
Version:Hard
Source:東方天空璋 ~ Hidden Star in Four Seasons.
Tags:Eternity Larva Touhou 16 Hidden Star in Four Seasons th16 Rin Desu YTYuyu byakugan249 tenkuu akira midsummer fairy night dream
BeatmapID:1420549
BeatmapSetID:624526

[Difficulty]
HPDrainRate:4.6
CircleSize:3
OverallDifficulty:5.6
ApproachRate:7.8
SliderMultiplier:1.7
SliderTickRate:2

[Events]
//Background and Video events
0,0,"LnwpAFp.jpg",0,0
//Break Periods
//Storyboard Layer 0 (Background)
//Storyboard Layer 1 (Fail)
//Storyboard Layer 2 (Pass)
//Storyboard Layer 3 (Foreground)
//Storyboard Sound Samples

[TimingPoints]
286.63203134198,357.142857142857,4,2,1,75,1,0
465,-100,4,2,1,65,0,0
3143,-100,4,2,1,75,0,0
3322,-100,4,2,1,65,0,0
6000,-100,4,2,1,75,0,0
6179,-100,4,2,1,65,0,0
8858,-100,4,2,1,75,0,0
9036,-100,4,2,1,65,0,0
11893,-100,4,2,1,95,0,0
12250,-100,4,2,1,65,0,0
12340,-100,4,2,1,95,0,0
12786,-100,4,2,1,65,0,0
14661,-100,4,2,1,95,0,0
15108,-100,4,2,1,65,0,0
15197,-100,4,2,1,95,0,0
15643,-100,4,2,1,65,0,0
17608,-100,4,2,1,95,0,0
17965,-100,4,2,1,65,0,0
24215,-100,4,2,1,65,0,0
26179,-100,4,2,1,95,0,0
26536,-100,4,2,1,65,0,0
26715,-100,4,2,1,95,0,0
27072,-100,4,2,1,65,0,0
28858,-100,4,2,1,75,0,0
29036,-100,4,2,1,95,0,0
29215,-100,4,2,1,65,0,0
33143,-100,4,2,1,65,0,0
33322,-100,4,2,1,95,0,0
34036,-100,4,2,1,35,0,0
34125,-100,4,2,1,45,0,0
34215,-100,4,2,1,65,0,0
34304,-100,4,2,1,25,0,0
34393,-100,4,2,1,45,0,0
34572,-100,4,2,1,75,0,0
34750,-100,4,2,1,65,0,0
40286,-100,4,2,1,75,0,0
40465,-100,4,2,1,65,0,0
43143,-100,4,2,1,75,0,0
43322,-100,4,2,1,65,0,0
46000,-100,4,2,1,75,0,0
49036,-100,4,2,1,95,0,0
49572,-100,4,2,1,75,0,0
51893,-100,4,2,1,95,0,0
52250,-100,4,2,1,75,0,0
52429,-100,4,2,1,65,0,0
53143,-100,4,2,1,75,0,0
57429,-100,4,2,1,75,0,1
57608,-100,4,2,1,65,0,0
60465,-100,4,2,1,95,0,0
61358,-100,4,2,1,65,0,0
63322,-100,4,2,1,95,0,0
63679,-100,4,2,1,65,0,0
67608,-100,4,2,1,95,0,0
67965,-100,4,2,1,45,0,0
68143,-100,4,2,1,65,0,0
71358,-100,4,2,1,75,0,0
71715,-100,4,2,1,65,0,0
73322,-100,4,2,1,95,0,0
73679,-100,4,2,1,65,0,0
74750,-100,4,2,1,95,0,0
75643,-100,4,2,1,65,0,0
76179,-100,4,2,1,95,0,0
76358,-100,4,2,1,65,0,0
76893,-100,4,2,1,95,0,0
77072,-100,4,2,1,65,0,0
79572,-100,4,2,1,75,0,0
80286,-100,4,2,1,75,0,0
80465,-100,4,2,1,95,0,0
81358,-100,4,2,1,65,0,0
83143,-100,4,2,1,75,0,0
83322,-100,4,2,1,95,0,0
83858,-100,4,2,1,65,0,0
86000,-100,4,2,1,75,0,0
86179,-100,4,2,1,95,0,0
86536,-100,4,2,1,65,0,0
90286,-100,4,2,1,45,0,0
91715,-100,4,2,1,85,0,1
91893,-100,4,2,1,55,0,1
93143,-100,4,2,1,65,0,1
94750,-100,4,2,1,95,0,1
95108,-100,4,2,1,75,0,1
95465,-100,4,2,1,95,0,1
95822,-100,4,2,1,75,0,1
96179,-100,4,2,1,95,0,1
96715,-100,4,2,1,75,0,1
97429,-100,4,2,1,85,0,1
97608,-100,4,2,1,95,0,1
97965,-100,4,2,1,75,0,1
100286,-100,4,2,1,65,0,1
100822,-100,4,2,1,75,0,1
101715,-100,4,2,1,85,0,1
102161,-100,4,2,1,75,0,1
102429,-100,4,2,1,45,0,1
103054,-100,4,2,1,75,0,0
103143,-100,4,2,1,65,0,1
103233,-100,4,2,1,5,0,1
106000,-100,4,2,1,65,0,0

[Colours]
Combo1 : 255,255,0
Combo2 : 40,255,40
Combo3 : 26,169,255
Combo4 : 149,255,43
Combo5 : 111,62,255
Combo6 : 0,249,63
Combo7 : 9,33,255
Combo8 : 255,128,255

[HitObjects]
256,192,286,5,4,0:0:0:0:
196,252,465,1,0,0:0:0:0:
136,192,643,1,2,0:0:0:0:
196,132,822,1,0,0:0:0:0:
120,96,1000,2,0,P|79:114|46:160,1,85,2|0,0:0|0:0,0:0:0:0:
53,240,1358,2,0,P|81:271|120:288,1,85
196,252,1715,5,0,0:0:0:0:
256,312,1893,1,0,0:0:0:0:
316,252,2072,1,2,0:0:0:0:
256,192,2250,1,0,0:0:0:0:
316,132,2429,2,0,P|320:80|296:36,1,85,2|0,0:0|0:0,0:0:0:0:
204,50,2786,2,0,P|190:90|196:132,1,85
256,192,3143,5,4,0:0:0:0:
196,252,3322,1,0,0:0:0:0:
136,192,3500,1,2,0:0:0:0:
76,252,3679,1,0,0:0:0:0:
136,312,3858,2,0,L|204:380,1,85,2|0,0:0|0:0,0:0:0:0:
316,373,4215,2,0,L|376:312,1,85
436,252,4572,5,0,0:0:0:0:
376,192,4750,1,0,0:0:0:0:
316,252,4929,1,2,0:0:0:0:
256,192,5108,1,0,0:0:0:0:
196,252,5286,2,0,L|256:312,1,85,2|0,0:0|0:0,0:0:0:0:
376,313,5643,2,0,L|436:252,1,85
316,252,6000,5,4,0:0:0:0:
256,192,6179,1,0,0:0:0:0:
196,132,6358,1,2,0:0:0:0:
256,72,6536,1,0,0:0:0:0:
316,132,6715,2,0,L|432:132,1,85,2|0,0:0|0:0,0:0:0:0:
401,252,7072,2,0,L|316:252,1,85
256,312,7429,5,0,0:0:0:0:
196,252,7608,1,0,0:0:0:0:
136,192,7786,1,2,0:0:0:0:
76,252,7965,1,0,0:0:0:0:
16,192,8143,2,0,L|16:80,1,85,2|0,0:0|0:0,0:0:0:0:
136,107,8500,2,0,L|136:192,1,85
196,252,8858,5,4,0:0:0:0:
256,312,9036,1,0,0:0:0:0:
316,252,9215,1,2,0:0:0:0:
256,192,9393,1,0,0:0:0:0:
316,132,9572,2,0,L|420:132,1,85,2|0,0:0|0:0,0:0:0:0:
401,252,9929,2,0,L|316:252,1,85
256,192,10286,5,0,0:0:0:0:
168,188,10465,2,0,L|112:188,2,42.5,0|0|2,1:2|1:2|1:2,1:2:0:0:
168,188,10822,1,0,0:0:0:0:
256,108,11000,5,2,3:2:0:0:
340,192,11179,1,0,3:0:0:0:
256,276,11358,1,2,1:2:0:0:
172,192,11536,1,2,1:2:0:0:
124,120,11715,6,0,P|38:192|124:264,2,255,4|2|2,0:2|1:2|1:2,0:0:0:0:
288,148,13143,6,0,L|372:148,1,85,0|2,0:0|1:2,0:0:0:0:
373,236,13500,2,0,L|289:236,1,85
200,288,13858,1,2,1:2:0:0:
108,244,14036,1,0,0:0:0:0:
108,140,14215,1,2,1:2:0:0:
200,96,14393,1,0,0:0:0:0:
296,120,14572,6,0,P|382:192|296:264,2,255,4|2|2,0:2|1:2|1:2,0:0:0:0:
140,192,16000,6,0,L|4:192,2,127.5,2|2|2,1:2|1:2|1:2,0:0:0:0:
140,192,16715,1,2,1:2:0:0:
212,148,16893,1,0,0:0:0:0:
301,148,17072,1,2,1:2:0:0:
256,224,17250,1,0,0:0:0:0:
212,148,17429,6,0,P|256:56|301:149,1,255,2|2,0:0|1:2,0:0:0:0:
300,236,18143,2,0,P|369:204|385:120,2,127.5,0|2|0,0:0|1:2|0:0,0:0:0:0:
213,236,18858,2,0,P|144:204|128:120,2,127.5,2|2|2,1:2|1:2|1:2,0:0:0:0:
256,164,19572,2,0,L|256:36,2,127.5,0|2|0,1:2|0:0|1:2,0:0:0:0:
256,164,20286,5,2,0:0:0:0:
208,312,20554,1,0,0:0:0:0:
332,232,20822,1,2,1:2:0:0:
332,232,21000,5,0,0:0:0:0:
184,228,21268,1,2,1:2:0:0:
304,312,21536,1,0,0:0:0:0:
256,164,21715,5,2,1:2:0:0:
256,192,21893,12,2,24215,1:2:0:0:
300,325,24572,6,0,L|300:240,1,85,0|2,0:0|1:2,0:0:0:0:
212,239,24929,2,0,L|212:324,1,85,2|0,0:0|0:0,0:0:0:0:
136,172,25286,1,2,1:2:0:0:
204,92,25465,1,0,0:0:0:0:
308,92,25643,1,2,1:2:0:0:
376,172,25822,1,0,0:0:0:0:
352,272,26000,6,0,P|256:343|160:272,2,255,4|2|2,0:0|1:2|1:2,0:0:0:0:
256,132,27429,6,0,L|256:-16,2,127.5,2|0|2,1:2|1:2|1:2,0:0:0:0:
256,220,28143,1,2,1:2:0:0:
340,220,28322,1,0,0:0:0:0:
300,296,28500,1,2,1:2:0:0:
212,296,28679,1,0,0:0:0:0:
172,220,28858,6,0,P|196:164|256:220,1,170,0|2,0:0|0:0,0:0:0:0:
256,219,29393,1,0,1:2:0:0:
344,192,29572,2,0,L|492:192,2,127.5,2|0|2,0:0|1:2|0:0,0:0:0:0:
256,219,30286,5,2,1:2:0:0:
144,168,30554,1,2,1:2:0:0:
148,40,30822,1,2,1:2:0:0:
148,40,31000,5,2,1:2:0:0:
256,108,31268,1,0,1:2:0:0:
364,40,31536,1,2,0:0:0:0:
364,40,31715,5,0,0:0:0:0:
364,168,31983,1,0,0:0:0:0:
368,296,32250,1,2,1:2:0:0:
424,232,32429,5,2,0:0:0:0:
296,232,32697,1,2,1:2:0:0:
168,232,32965,1,2,1:2:0:0:
104,176,33143,6,0,P|176:88|232:176,1,255,2|0,1:2|0:2,0:0:0:0:
168,232,33858,6,0,L|168:288,1,42.5,0|0,1:2|0:0,0:0:0:0:
224,280,34036,2,0,L|224:336,1,42.5,2|0,0:0|0:0,0:0:0:0:
288,280,34215,2,0,L|288:336,1,42.5,2|0,0:0|0:0,0:0:0:0:
344,232,34393,2,0,L|344:288,1,42.5
256,192,34572,12,0,35643,1:2:0:0:
256,192,35822,12,0,39929,1:2:0:0:
360,336,40286,5,4,0:0:0:0:
300,276,40465,1,0,0:0:0:0:
216,276,40643,1,2,1:2:0:0:
156,336,40822,1,0,0:0:0:0:
76,312,41000,2,0,P|48:272|40:212,1,85,2|0,0:0|0:0,0:0:0:0:
39,146,41358,2,0,P|50:105|76:72,1,85,0|0,1:2|0:0,0:0:0:0:
156,48,41715,5,0,0:0:0:0:
216,108,41894,1,0,0:0:0:0:
300,108,42072,1,2,1:2:0:0:
360,48,42251,1,0,0:0:0:0:
432,96,42429,2,0,P|472:136|508:148,1,85,2|0,0:0|0:0,0:0:0:0:
497,237,42786,2,0,P|459:256|432:288,1,85,0|0,1:2|0:0,0:0:0:0:
380,356,43143,5,4,0:0:0:0:
300,332,43322,1,0,0:0:0:0:
300,248,43500,1,2,1:2:0:0:
380,224,43679,1,0,0:0:0:0:
316,164,43858,2,0,L|300:80,1,85,2|0,0:0|0:0,0:0:0:0:
212,80,44215,2,0,L|196:164,1,85,0|0,1:2|0:0,0:0:0:0:
132,224,44572,5,0,3:2:0:0:
212,248,44751,1,0,3:2:0:0:
212,332,44929,1,2,1:2:0:0:
132,356,45108,1,0,1:2:0:0:
80,287,45286,2,0,L|16:232,1,85,6|0,1:2|0:0,0:0:0:0:
8,108,45643,2,0,L|72:163,1,85,2|0,1:2|1:2,0:0:0:0:
176,211,46000,6,0,P|218:211|256:192,1,85,4|0,0:0|1:2,0:0:0:0:
196,116,46358,2,0,L|164:84,2,42.5,2|0|0,3:2|3:0|3:0,0:0:0:0:
256,56,46715,1,0,1:2:0:0:
316,116,46893,2,0,L|346:85,2,42.5,0|0|2,3:0|3:0|1:2,0:0:0:0:
256,192,47250,1,0,0:0:0:0:
332,236,47429,6,0,L|332:324,1,85,0|2,0:0|1:2,0:0:0:0:
180,321,47786,2,0,L|180:236,1,85,2|0,3:2|0:0,0:0:0:0:
136,128,48143,1,2,1:2:0:0:
196,24,48322,1,0,0:0:0:0:
316,24,48500,1,2,1:2:0:0:
376,128,48679,1,0,0:0:0:0:
332,236,48858,6,0,P|253:357|180:236,1,340,0|2,1:2|1:2,0:0:0:0:
180,152,49750,2,0,L|180:92,2,42.5,0|0|2,3:0|3:0|1:2,0:0:0:0:
256,192,50108,1,0,0:0:0:0:
348,148,50286,6,0,P|440:124|484:132,2,127.5,2|2|2,1:2|1:2|1:2,0:0:0:0:
340,156,50911,1,0,3:0:0:0:
336,164,51000,1,0,1:2:0:0:
368,248,51179,1,0,3:0:0:0:
308,328,51358,1,2,1:2:0:0:
204,328,51536,1,0,3:0:0:0:
144,248,51715,6,0,P|256:196|368:248,1,255,0|2,1:2|0:0,0:0:0:0:
440,192,52429,2,0,P|492:132|512:88,2,127.5,0|2|0,1:2|1:2|0:0,0:0:0:0:
368,248,53143,5,2,1:2:0:0:
256,304,53411,1,2,1:2:0:0:
144,248,53679,1,0,1:2:0:0:
144,248,53858,5,2,1:2:0:0:
256,192,54125,1,2,1:2:0:0:
144,136,54393,1,0,0:2:0:0:
200,72,54572,6,0,P|257:45|313:72,2,127.5,0|2|0,1:2|0:2|0:0,0:0:0:0:
256,135,55286,2,0,P|199:162|143:135,2,127.5,0|2|0,1:2|1:2|1:2,0:0:0:0:
312,72,56000,5,2,1:2:0:0:
256,192,56045,12,6,57429,0:0:0:0:
256,192,57518,12,0,58500,1:2:0:0:
200,150,58858,6,0,L|200:262,1,85,0|2,0:0|1:2,0:0:0:0:
312,235,59215,2,0,L|312:150,1,85,0|2,0:0|0:0,0:0:0:0:
376,296,59572,1,2,1:2:0:0:
308,368,59750,1,0,0:0:0:0:
204,368,59929,1,2,1:2:0:0:
136,296,60108,1,0,0:0:0:0:
184,212,60286,6,0,P|246:27|327:211,1,510,2|0,1:2|1:2,0:0:0:0:
200,352,61715,6,0,P|256:380|312:352,2,127.5,2|0|2,1:2|1:2|1:2,0:0:0:0:
200,352,62429,1,0,1:2:0:0:
256,276,62608,1,0,0:0:0:0:
200,192,62786,1,2,1:2:0:0:
256,100,62965,1,0,1:2:0:0:
313,191,63143,6,0,P|256:101|200:192,1,255,2|0,1:2|0:0,0:0:0:0:
256,276,63858,2,0,P|186:295|133:264,2,127.5,2|2|2,1:2|0:0|0:0,0:0:0:0:
200,192,64572,2,0,P|218:116|271:91,2,127.5,2|2|2,1:2|1:2|1:2,0:0:0:0:
312,192,65286,2,0,P|368:246|363:304,2,127.5,2|0|0,1:2|0:0|0:0,0:0:0:0:
256,284,66000,5,2,1:2:0:0:
164,192,66268,1,0,0:0:0:0:
256,100,66536,1,2,1:2:0:0:
164,72,66715,5,2,1:2:0:0:
256,192,66983,1,2,1:2:0:0:
348,72,67250,1,2,1:2:0:0:
256,100,67429,6,0,L|256:364,1,255,2|0,1:2|0:0,0:0:0:0:
168,328,68143,5,6,1:2:0:0:
256,192,68233,12,0,71179,1:2:0:0:
196,344,71715,6,0,P|140:308|124:244,2,113.333333333333,2|0|2,0:0|0:0|0:0,0:0:0:0:
316,344,72429,2,0,P|372:308|392:240,2,127.5,0|2|0,1:2|0:0|0:0,0:0:0:0:
312,232,73143,6,0,P|257:141|200:232,1,255,2|0,0:0|1:2,0:0:0:0:
36,192,74036,1,0,1:2:0:0:
36,192,74215,1,0,1:2:0:0:
216,152,74572,6,0,P|396:192|216:232,1,510,2|0,0:0|0:0,0:0:0:0:
302,192,76000,2,0,L|506:192,1,170,2|0,1:2|0:0,0:0:0:0:
210,192,76715,2,0,L|6:192,1,170,2|0,1:2|0:0,0:0:0:0:
192,277,77429,5,0,0:0:0:0:
256,337,77608,1,0,0:0:0:0:
320,277,77786,1,2,3:2:0:0:
256,337,77965,1,0,0:0:0:0:
192,277,78143,2,0,L|192:169,1,85,2|0,3:2|3:2,0:0:0:0:
320,192,78500,2,0,L|320:277,1,85,2|0,3:2|0:0,0:0:0:0:
304,108,78858,5,0,0:0:0:0:
208,108,79036,1,0,1:2:0:0:
320,192,79215,1,2,0:2:0:0:
192,192,79393,1,0,1:2:0:0:
320,277,79572,2,0,L|404:276,1,85,2|2,0:0|0:0,0:0:0:0:
192,277,79929,2,0,L|104:276,1,85,2|0,1:2|1:2,0:0:0:0:
320,192,80286,6,0,P|256:8|192:192,1,510,6|0,0:0|0:0,0:0:0:0:
335,296,81715,6,0,P|329:338|304:372,1,85,0|2,0:0|1:2,0:0:0:0:
208,371,82072,2,0,P|182:338|176:296,1,85,0|2,0:0|0:0,0:0:0:0:
256,128,82429,1,2,1:2:0:0:
192,192,82608,1,0,0:0:0:0:
256,256,82786,1,2,1:2:0:0:
320,192,82965,1,0,0:0:0:0:
384,100,83143,6,0,P|256:6|128:100,1,340,2|0,0:0|1:2,0:0:0:0:
112,192,84036,1,0,0:0:0:0:
127,284,84215,2,0,L|212:284,1,85,0|0,1:2|0:0,0:0:0:0:
314,249,84572,6,0,P|333:190|312:132,2,127.5,2|0|0,1:2|1:2|1:2,0:0:0:0:
314,249,85286,1,0,1:2:0:0:
212,284,85465,2,0,L|92:284,2,85,2|2|2,0:0|1:2|0:0,0:0:0:0:
356,352,86000,6,0,P|440:304|476:136,1,255,2|0,0:0|0:0,0:0:0:0:
440,68,86715,1,2,1:2:0:0:
304,32,86983,1,2,1:2:0:0:
168,68,87250,1,2,1:2:0:0:
168,68,87429,5,2,1:2:0:0:
256,192,87697,1,0,1:2:0:0:
168,316,87965,1,2,1:2:0:0:
168,316,88143,5,2,1:2:0:0:
256,192,88411,1,2,1:2:0:0:
344,316,88679,1,2,0:2:0:0:
356,216,88858,6,0,P|423:252|444:312,2,127.5,2|0|0,0:0|1:2|0:0,0:0:0:0:
256,192,89572,2,0,P|189:156|168:96,2,127.5,0|2|0,1:2|0:0|1:2,0:0:0:0:
256,192,90286,12,6,91715,1:2:0:0:
256,192,91804,12,2,92786,1:2:0:0:
392,368,93143,6,0,L|284:368,1,85,0|2,0:0|1:2,0:0:0:0:
205,368,93500,2,0,L|120:368,1,85,2|0,0:0|0:0,0:0:0:0:
84,260,93858,1,2,1:2:0:0:
172,192,94036,1,0,0:0:0:0:
256,260,94215,1,2,1:2:0:0:
340,192,94393,1,0,0:0:0:0:
428,260,94572,6,0,P|441:144|279:96,1,255,2|0,0:0|0:0,0:0:0:0:
177,78,95286,2,0,P|73:139|84:260,1,255,2|0,1:2|0:0,0:0:0:0:
176,348,96000,6,0,P|260:229|344:348,1,340,2|0,1:2|0:0,0:0:0:0:
256,315,96893,1,2,0:0:0:0:
176,348,97072,1,0,1:2:0:0:
88,344,97250,1,0,0:0:0:0:
40,256,97429,6,0,P|129:192|40:128,1,255,2|0,1:2|0:0,0:0:0:0:
40,127,98143,5,2,1:2:0:0:
256,16,98411,1,2,1:2:0:0:
472,127,98679,1,2,1:2:0:0:
452,240,98858,5,2,1:2:0:0:
256,192,99125,1,0,1:2:0:0:
60,240,99393,1,2,1:2:0:0:
144,280,99572,5,2,1:2:0:0:
256,192,99839,1,0,1:2:0:0:
368,280,100107,1,2,0:0:0:0:
256,192,100286,6,0,L|256:344,2,127.5,2|0|2,0:0|0:0|1:2,0:0:0:0:
256,64,101000,5,2,1:2:0:0:
156,240,101268,1,2,1:2:0:0:
356,240,101536,1,2,1:2:0:0:
256,319,101715,6,0,L|256:139,1,170,6|0,1:2|1:2,0:0:0:0:
256,128,102161,1,0,0:0:0:0:
256,108,102250,1,0,0:0:0:0:
256,88,102340,1,0,0:0:0:0:
256,64,102429,6,0,L|256:20,6,42.5,4|0|0|0|0|0|0,1:2|1:2|1:2|1:2|1:2|1:2|1:2,1:2:0:0:
256,192,103143,12,2,106000,0:0:0:0:
