osu file format v14

[General]
AudioFilename: audio.mp3
AudioLeadIn: 0
PreviewTime: 108
Countdown: 0
SampleSet: Soft
StackLeniency: 0.4
Mode: 0
LetterboxInBreaks: 0
WidescreenStoryboard: 0

[Editor]
Bookmarks: 286,11715,23143,34572,46000,57429,58143,59750,63322,68858,80286,91715,103143
DistanceSpacing: 0.8
BeatDivisor: 4
GridSize: 4
TimelineZoom: 2.400001

[Metadata]
Title:Manatsu no Yousei no Yume
TitleUnicode:真夏の妖精の夢
Artist:ZUN
ArtistUnicode:ZUN
Creator:Parachute
Version:Extra
Source:東方天空璋 ~ Hidden Star in Four Seasons.
Tags:Eternity Larva Touhou 16 Hidden Star in Four Seasons th16 Rin Desu YTYuyu byakugan249 tenkuu akira midsummer fairy night dream
BeatmapID:1316268
BeatmapSetID:624526

[Difficulty]
HPDrainRate:6.2
CircleSize:5.2
OverallDifficulty:8.2
ApproachRate:9.2
SliderMultiplier:1.9
SliderTickRate:2

[Events]
//Background and Video events
0,0,"LnwpAFp.jpg",0,0
//Break Periods
//Storyboard Layer 0 (Background)
//Storyboard Layer 1 (Fail)
//Storyboard Layer 2 (Pass)
//Storyboard Layer 3 (Foreground)
//Storyboard Sound Samples

[TimingPoints]
286.63203134198,357.142857142857,4,2,1,75,1,0
465,-100,4,2,1,65,0,0
3143,-100,4,2,1,75,0,0
3322,-100,4,2,1,65,0,0
6000,-100,4,2,1,75,0,0
6179,-100,4,2,1,65,0,0
8858,-100,4,2,1,75,0,0
9036,-100,4,2,1,65,0,0
11893,-100,4,2,1,95,0,0
12250,-100,4,2,1,65,0,0
12340,-100,4,2,1,95,0,0
12786,-100,4,2,1,65,0,0
14661,-100,4,2,1,95,0,0
15108,-100,4,2,1,65,0,0
15197,-100,4,2,1,95,0,0
15643,-100,4,2,1,65,0,0
17608,-100,4,2,1,95,0,0
17697,-100,4,2,1,65,0,0
23143,-100,4,2,1,75,0,0
23322,-100,4,2,1,95,0,0
23500,-100,4,2,1,65,0,0
23858,-100,4,2,1,95,0,0
24036,-100,4,2,1,65,0,0
26179,-100,4,2,1,95,0,0
26358,-100,4,2,1,65,0,0
26715,-100,4,2,1,95,0,0
26893,-100,4,2,1,65,0,0
28858,-100,4,2,1,75,0,0
29036,-100,4,2,1,95,0,0
29393,-100,4,2,1,65,0,0
33322,-100,4,2,1,95,0,0
33679,-100,4,2,1,65,0,0
33858,-100,4,2,1,25,0,0
34036,-100,4,2,1,35,0,0
34125,-100,4,2,1,45,0,0
34215,-100,4,2,1,65,0,0
34237,-100,4,2,1,25,0,0
34572,-100,4,2,1,75,0,0
34750,-100,4,2,1,65,0,0
37429,-100,4,2,1,75,0,0
37608,-100,4,2,1,65,0,0
40286,-100,4,2,1,75,0,0
40465,-100,4,2,1,65,0,0
43143,-100,4,2,1,75,0,0
43322,-100,4,2,1,65,0,0
46000,-100,4,2,1,75,0,0
46090,-100,4,2,1,65,0,0
57429,-100,4,2,1,75,0,1
57608,-100,4,2,1,65,0,0
67608,-100,4,2,1,95,0,0
67965,-100,4,2,1,65,0,0
68143,-100,4,2,1,25,0,0
68322,-100,4,2,1,35,0,0
68411,-100,4,2,1,45,0,0
68500,-100,4,2,1,65,0,0
68523,-100,4,2,1,45,0,0
70286,-100,4,2,1,35,0,0
71358,-100,4,2,1,75,0,0
71715,-100,4,2,1,65,0,0
80286,-100,4,2,1,75,0,0
80465,-100,4,2,1,95,0,0
80822,-100,4,2,1,65,0,0
81000,-100,4,2,1,95,0,0
81358,-100,4,2,1,65,0,0
83143,-100,4,2,1,75,0,0
83322,-100,4,2,1,95,0,0
83679,-100,4,2,1,65,0,0
83858,-100,4,2,1,95,0,0
84215,-100,4,2,1,65,0,0
86000,-100,4,2,1,75,0,0
86179,-100,4,2,1,95,0,0
86358,-100,4,2,1,65,0,0
91179,-100,4,2,1,75,0,0
91715,-100,4,2,1,85,0,1
91893,-100,4,2,1,75,0,1
97429,-100,4,2,1,85,0,1
97608,-100,4,2,1,95,0,1
97786,-100,4,2,1,75,0,1
100286,-100,4,2,1,65,0,1
100822,-100,4,2,1,75,0,1
101715,-100,4,2,1,85,0,1
102250,-100,4,2,1,75,0,1
102429,-100,4,2,1,85,0,1
103054,-100,4,2,1,75,0,0
103143,-100,4,2,1,65,0,1
103233,-100,4,2,1,5,0,1
106000,-100,4,2,1,65,0,0

[Colours]
Combo1 : 255,255,0
Combo2 : 40,255,40
Combo3 : 26,169,255
Combo4 : 149,255,43
Combo5 : 111,62,255
Combo6 : 0,249,63
Combo7 : 9,33,255
Combo8 : 255,128,255

[HitObjects]
256,352,286,5,4,0:2:0:0:
256,180,465,1,0,0:2:0:0:
172,328,643,1,2,0:2:0:0:
340,328,822,1,0,0:2:0:0:
172,192,1000,2,0,L|77:192,1,95,2|0,0:0|0:2,0:0:0:0:
340,192,1358,2,0,L|435:192,1,95
256,276,1715,5,0,0:2:0:0:
256,108,1893,1,0,0:0:0:0:
340,192,2072,1,2,0:0:0:0:
172,192,2250,1,0,0:0:0:0:
340,328,2429,2,0,P|388:340|428:368,1,95,2|0,0:0|0:0,0:0:0:0:
172,328,2786,2,0,P|126:340|86:366,1,95
256,264,3143,5,4,0:0:0:0:
100,192,3322,1,0,0:0:0:0:
256,120,3500,1,2,0:0:0:0:
100,48,3679,1,0,0:0:0:0:
256,264,3858,2,0,P|302:275|347:259,1,95,2|0,0:0|0:0,0:0:0:0:
256,120,4215,2,0,P|210:109|165:125,1,95
412,48,4572,5,0,0:0:0:0:
256,120,4750,1,0,0:0:0:0:
412,192,4929,1,2,0:0:0:0:
256,264,5108,1,0,0:0:0:0:
478,110,5286,2,0,P|452:71|412:48,1,95,2|0,0:0|0:0,0:0:0:0:
478,273,5643,2,0,P|452:312|412:336,1,95
256,352,6000,5,4,0:0:0:0:
328,192,6179,1,0,0:0:0:0:
256,32,6358,1,2,0:0:0:0:
184,192,6537,1,0,0:0:0:0:
405,238,6715,2,0,P|373:204|328:192,1,95,2|0,0:0|0:0,0:0:0:0:
107,238,7072,2,0,P|139:204|184:192,1,95
256,376,7429,5,0,0:0:0:0:
400,284,7608,1,0,0:0:0:0:
256,192,7787,1,2,0:0:0:0:
112,284,7966,1,0,0:0:0:0:
256,280,8143,2,0,P|314:258|341:209,1,95,2|0,0:0|0:0,0:0:0:0:
257,105,8501,2,0,P|211:117|179:151,1,95
172,344,8858,5,4,0:0:0:0:
340,344,9036,1,0,0:0:0:0:
172,268,9215,1,2,0:0:0:0:
340,264,9393,1,0,0:0:0:0:
168,192,9572,2,0,L|64:192,1,95,2|0,0:0|0:0,0:0:0:0:
344,192,9929,2,0,L|448:192,1,95
138,82,10286,5,0,0:0:0:0:
374,82,10465,1,0,1:2:0:0:
374,82,10554,1,0,1:2:0:0:
374,82,10643,2,0,L|374:150,1,47.5,2|0,1:2|0:0,0:0:0:0:
256,280,10822,1,0,1:2:0:0:
138,82,11000,6,0,L|172:116,1,47.5,2|0,3:2|3:0,3:0:0:0:
205,32,11179,2,0,L|224:76,1,47.5,0|0,3:0|3:0,3:0:0:0:
288,76,11358,2,0,L|306:32,1,47.5,0|0,1:2|1:2,0:0:0:0:
340,116,11536,2,0,L|373:82,1,47.5,2|0,1:2|1:2,0:0:0:0:
383,192,11715,6,0,P|255:245|128:192,2,285,4|0|0,0:0|1:2|1:2,0:0:0:0:
384,192,13143,5,0,0:0:0:0:
336,68,13322,1,2,1:2:0:0:
128,192,13500,1,2,0:0:0:0:
176,68,13679,1,0,0:0:0:0:
176,316,13858,1,0,1:2:0:0:
384,192,14036,1,0,0:0:0:0:
128,192,14215,1,2,1:2:0:0:
336,316,14393,1,0,0:0:0:0:
256,51,14572,6,0,B|280:192|232:192|256:336,2,285,4|2|0,0:0|1:2|1:2,0:0:0:0:
256,51,16000,5,2,1:2:0:0:
136,280,16268,1,0,1:2:0:0:
376,280,16536,1,2,1:2:0:0:
376,280,16625,1,0,0:0:0:0:
376,280,16715,1,0,1:2:0:0:
256,276,16893,1,0,0:0:0:0:
256,108,17072,1,2,1:2:0:0:
172,192,17250,1,0,0:0:0:0:
336,212,17429,6,0,P|404:191|336:172,1,190,2|0,0:0|0:0,0:0:0:0:
256,108,17965,1,0,1:2:0:0:
256,276,18143,2,0,P|192:320|108:304,2,142.5,2|0|0,0:0|1:2|0:0,0:0:0:0:
256,108,18858,6,0,P|320:64|404:80,2,142.5,2|0|0,1:2|1:2|0:0,0:0:0:0:
256,276,19572,1,2,1:2:0:0:
131,68,19840,1,0,1:2:0:0:
381,68,20108,1,0,1:2:0:0:
131,316,20286,5,2,0:0:0:0:
384,192,20554,1,0,0:0:0:0:
131,68,20822,1,0,1:2:0:0:
381,316,21000,5,0,0:0:0:0:
128,192,21268,1,0,1:2:0:0:
381,68,21536,1,0,0:0:0:0:
256,192,21715,6,0,L|256:32,2,142.5,0|0|0,1:2|1:2|1:2,0:0:0:0:
256,192,22340,1,0,0:0:0:0:
256,192,22429,1,0,1:2:0:0:
364,264,22608,1,0,1:2:0:0:
335,295,22697,1,0,1:2:0:0:
298,315,22786,1,0,1:2:0:0:
256,322,22875,1,0,1:2:0:0:
214,315,22965,1,0,1:2:0:0:
176,295,23054,1,0,1:2:0:0:
148,264,23143,6,0,P|172:180|144:68,1,190,6|0,0:2|0:0,0:0:0:0:
360,81,23679,2,0,P|339:173|364:264,1,190,0|0,1:2|0:0,0:0:0:0:
256,192,24125,1,0,0:0:0:0:
256,192,24215,2,0,L|256:97,1,95,0|0,1:2|0:0,0:0:0:0:
216,260,24572,5,0,0:0:0:0:
133,307,24750,1,0,1:2:0:0:
296,260,24929,1,2,0:0:0:0:
379,307,25108,1,0,0:0:0:0:
256,97,25286,1,2,1:2:0:0:
133,307,25465,1,0,0:0:0:0:
379,307,25643,1,0,1:2:0:0:
256,97,25822,1,0,0:0:0:0:
256,287,26000,6,0,L|256:97,1,190,6|0,0:0|0:0,0:0:0:0:
336,41,26536,2,0,P|256:-3|176:41,1,190,0|0,1:2|0:0,0:0:0:0:
256,97,26983,1,0,0:0:0:0:
256,97,27072,2,0,L|256:205,1,95,0|0,1:2|0:0,0:0:0:0:
256,0,27429,5,2,1:2:0:0:
128,220,27697,1,0,1:2:0:0:
384,220,27965,1,0,1:2:0:0:
384,220,28054,1,0,0:0:0:0:
384,220,28143,1,0,1:2:0:0:
200,132,28322,1,0,0:0:0:0:
312,132,28501,1,2,1:2:0:0:
128,220,28679,1,0,0:0:0:0:
384,220,28858,6,0,P|270:273|128:220,1,285,6|0,0:0|1:2,0:0:0:0:
256,50,29572,2,0,B|272:121|240:121|256:192,2,142.5,0|0|0,0:0|1:2|0:0,0:0:0:0:
428,192,30286,5,2,1:2:0:0:
340,336,30554,1,0,1:2:0:0:
172,336,30822,1,0,1:2:0:0:
172,336,30911,1,0,0:0:0:0:
172,336,31000,1,2,1:2:0:0:
84,192,31268,1,0,1:2:0:0:
256,192,31536,1,0,0:0:0:0:
256,192,31625,1,0,0:0:0:0:
256,192,31715,6,0,P|332:144|344:56,2,142.5,2|0|0,0:0|0:0|1:2,0:0:0:0:
176,97,32429,2,0,P|113:128|83:191,2,142.5,2|0|0,0:0|1:2|1:2,0:0:0:0:
348,96,33143,6,0,P|436:193|348:289,1,285,2|0,1:2|0:0,0:0:0:0:
191,192,33858,2,0,L|151:192,6,23.75,0|0|0|0|0|0|0,1:2|1:2|1:2|1:2|1:2|1:2|1:2,1:2:0:0:
320,192,34215,2,0,L|343:192,6,23.75,2|0|0|0|0|0|0,1:2|1:2|1:2|1:2|1:2|1:2|1:2,1:2:0:0:
256,116,34572,6,0,P|232:64|188:44,1,95,4|0,0:0|0:0,0:0:0:0:
256,268,34929,2,0,P|280:320|324:340,1,95,2|0,1:2|0:0,0:0:0:0:
180,120,35286,1,2,0:0:0:0:
344,192,35465,1,0,0:0:0:0:
168,192,35644,1,0,1:2:0:0:
332,264,35822,1,0,0:0:0:0:
196,264,36000,6,0,P|152:279|120:316,1,95
316,120,36358,2,0,P|360:105|392:68,1,95,2|0,1:2|0:0,0:0:0:0:
168,192,36715,1,2,0:0:0:0:
344,192,36893,1,0,0:0:0:0:
180,120,37072,1,0,1:2:0:0:
332,264,37250,1,0,0:0:0:0:
168,192,37429,6,0,B|116:180|120:204|72:192,1,95,4|0,0:0|0:0,0:0:0:0:
344,192,37786,2,0,B|396:180|392:204|440:192,1,95,2|0,1:2|0:0,0:0:0:0:
256,280,38143,1,2,0:0:0:0:
168,192,38322,1,0,0:0:0:0:
256,352,38500,1,0,1:2:0:0:
344,192,38679,1,0,0:0:0:0:
112,236,38858,6,0,P|96:192|112:148,1,95
400,148,39215,2,0,P|415:191|399:235,1,95,2|0,1:2|0:0,0:0:0:0:
256,32,39572,1,2,0:0:0:0:
168,192,39751,1,0,0:0:0:0:
344,192,39929,1,0,1:2:0:0:
256,104,40108,1,0,0:0:0:0:
256,375,40286,6,0,L|256:280,1,95,4|0,0:0|0:0,0:0:0:0:
256,9,40643,2,0,L|256:104,1,95,2|0,1:2|0:0,0:0:0:0:
172,256,41000,1,2,0:0:0:0:
340,256,41179,1,0,0:0:0:0:
368,64,41358,1,0,1:2:0:0:
144,64,41537,1,0,0:0:0:0:
439,192,41715,6,0,L|344:192,1,95
73,192,42072,2,0,L|168:192,1,95,2|0,1:2|0:0,0:0:0:0:
324,124,42429,1,2,0:0:0:0:
188,260,42608,1,0,0:0:0:0:
351,287,42786,1,0,1:2:0:0:
160,96,42965,1,0,0:0:0:0:
343,34,43143,6,0,P|344:81|324:124,1,95,4|0,0:0|0:0,0:0:0:0:
168,349,43500,2,0,P|167:302|188:260,1,95,2|0,1:2|0:0,0:0:0:0:
329,211,43858,1,2,0:0:0:0:
181,172,44036,1,0,0:0:0:0:
280,284,44215,1,0,1:2:0:0:
231,99,44393,1,0,0:0:0:0:
380,108,44572,5,0,3:0:0:0:
380,108,44661,1,0,3:0:0:0:
380,108,44750,1,0,1:0:0:0:
380,108,44839,1,0,3:0:0:0:
356,140,44929,1,2,1:2:0:0:
320,148,45018,1,0,1:0:0:0:
284,148,45107,1,0,1:0:0:0:
252,132,45196,1,0,1:0:0:0:
232,100,45286,6,0,L|156:100,1,47.5,4|0,0:0|0:0,0:0:0:0:
232,284,45465,2,0,L|184:284,1,47.5,0|0,3:0|3:0,3:0:0:0:
28,192,45643,1,0,1:2:0:0:
68,192,45733,1,0,1:2:0:0:
104,192,45822,1,0,1:2:0:0:
140,192,45911,1,0,1:2:0:0:
176,192,46000,6,0,B|224:180|224:204|269:192,2,95,6|0|0,0:0|1:2|3:3,0:0:0:0:
176,192,46447,1,0,3:3:0:0:
176,192,46536,1,0,3:3:0:0:
280,104,46715,2,0,P|332:128|356:184,1,95,2|0,1:2|3:3,0:0:0:0:
351,225,46983,1,0,3:3:0:0:
351,225,47072,2,0,P|323:263|280:280,1,95,0|0,1:2|0:0,0:0:0:0:
436,188,47429,5,2,0:0:0:0:
280,104,47608,1,0,1:2:0:0:
436,188,47786,1,0,0:0:0:0:
224,320,47965,1,0,3:0:0:0:
224,320,48054,1,0,3:0:0:0:
224,320,48143,1,2,1:2:0:0:
224,64,48323,1,0,3:0:0:0:
224,64,48411,1,0,3:0:0:0:
224,64,48501,1,0,1:2:0:0:
64,192,48680,1,0,0:0:0:0:
308,192,48858,6,0,P|350:220|371:282,2,95,2|0|0,0:0|1:2|3:0,0:0:0:0:
304,192,49304,1,0,3:0:0:0:
300,192,49393,1,0,3:0:0:0:
204,192,49572,2,0,P|162:164|141:102,1,95,2|0,1:2|3:0,0:0:0:0:
142,259,49840,1,0,3:0:0:0:
142,259,49929,2,0,P|164:217|204:192,1,95,0|0,1:2|0:0,0:0:0:0:
64,192,50286,6,0,L|0:192,2,47.5,2|0|0,1:2|3:0|3:0,0:0:0:0:
142,259,50554,2,0,L|78:259,2,47.5,0|0|0,1:2|3:0|3:0,0:0:0:0:
204,191,50822,2,0,L|140:191,1,47.5,0|0,1:2|3:0,0:0:0:0:
142,125,51000,2,0,L|78:125,1,47.5,2|0,1:2|3:0,0:0:0:0:
222,81,51179,2,0,L|256:48,1,47.5,0|0,3:0|3:0,0:0:0:0:
328,124,51358,2,0,L|376:124,1,47.5,0|0,1:2|3:0,0:0:0:0:
328,260,51536,2,0,L|361:293,1,47.5,0|0,3:0|3:0,0:0:0:0:
256,336,51715,6,0,P|208:344|172:388,2,95,2|0|0,0:0|1:2|3:0,0:0:0:0:
256,336,52161,1,0,3:0:0:0:
256,336,52250,1,0,3:0:0:0:
388,292,52429,2,0,P|436:284|472:240,1,95,2|0,1:2|0:2,0:0:0:0:
467,133,52697,2,0,P|433:99|387:92,1,95,2|0,1:2|0:2,0:0:0:0:
303,192,52965,2,0,L|256:192,1,47.5,0|0,3:0|3:0,0:0:0:0:
144,148,53143,6,0,P|128:192|144:236,1,95,2|0,1:2|0:0,0:0:0:0:
256,288,53411,2,0,L|256:335,2,47.5,0|0|0,1:2|3:0|3:0,0:0:0:0:
256,144,53679,2,0,L|256:192,1,47.5,0|0,1:2|3:0,0:0:0:0:
217,68,53858,2,0,P|181:105|172:156,1,95,2|0,1:2|3:0,0:0:0:0:
340,146,54125,2,0,P|328:100|295:68,1,95,0|0,1:2|3:0,0:0:0:0:
360,224,54393,2,0,L|360:292,1,47.5,0|0,3:2|3:0,0:0:0:0:
304,328,54572,6,0,L|209:328,1,95,2|0,0:0|1:2,0:0:0:0:
152,271,54840,2,0,L|152:223,2,47.5,0|0|0,3:0|3:0|3:0,0:0:0:0:
256,191,55108,2,0,L|256:119,1,47.5,0|0,3:0|3:0,0:0:0:0:
192,100,55286,2,0,P|180:53|192:9,1,95,2|0,1:2|0:0,0:0:0:0:
320,9,55554,2,0,P|332:54|320:100,1,95,0|0,1:2|0:0,0:0:0:0:
256,191,55822,2,0,L|256:143,1,47.5,0|0,1:2|3:0,0:0:0:0:
452,108,56000,5,2,1:2:0:0:
453,150,56089,1,0,3:0:0:0:
446,192,56178,1,0,3:2:0:0:
430,232,56267,1,0,1:2:0:0:
406,267,56357,1,0,3:0:0:0:
375,296,56446,1,0,3:0:0:0:
339,318,56535,1,0,1:2:0:0:
298,332,56625,1,0,3:0:0:0:
256,336,56714,1,2,1:2:0:0:
213,332,56804,1,0,3:0:0:0:
173,318,56892,1,0,1:2:0:0:
136,297,56982,1,0,1:2:0:0:
105,267,57072,1,2,1:2:0:0:
81,232,57160,1,0,1:2:0:0:
65,193,57250,1,0,1:2:0:0:
58,151,57339,1,0,1:2:0:0:
59,108,57429,6,0,P|104:132|148:132,1,95,6|0,0:0|1:2,0:0:0:0:
255,32,57786,2,0,L|255:80,2,47.5,0|0|0,3:0|3:0|3:0,0:0:0:0:
364,132,58143,2,0,P|411:131|453:108,1,95,0|0,1:2|3:0,0:0:0:0:
344,56,58411,1,0,3:0:0:0:
344,56,58500,2,0,P|296:57|255:80,1,95,0|0,1:2|0:0,0:0:0:0:
256,232,58858,5,2,0:0:0:0:
180,364,59036,1,0,1:2:0:0:
332,364,59215,1,2,0:0:0:0:
384,239,59393,2,0,L|384:192,1,47.5,0|0,3:0|3:0,0:0:0:0:
256,80,59572,1,0,1:2:0:0:
128,192,59750,2,0,L|128:240,1,47.5,0|0,3:0|3:0,0:0:0:0:
256,336,59929,1,0,1:2:0:0:
384,239,60108,1,0,0:0:0:0:
428,104,60286,6,0,P|384:84|344:32,1,95,2|0,0:0|1:2,0:0:0:0:
256,156,60643,1,0,3:0:0:0:
256,156,60733,1,0,3:0:0:0:
256,156,60822,1,0,3:0:0:0:
159,50,61000,2,0,P|127:84|84:104,1,95,0|0,1:2|3:0,0:0:0:0:
83,279,61268,1,0,3:0:0:0:
83,279,61358,2,0,P|127:299|159:333,1,95,0|0,1:2|0:0,0:0:0:0:
4,192,61715,6,0,L|60:192,2,47.5,2|0|0,1:2|3:0|3:0,0:0:0:0:
156,192,61983,2,0,L|203:192,2,47.5,0|0|0,1:2|3:0|3:0,0:0:0:0:
309,192,62250,2,0,L|356:192,1,47.5,0|0,1:2|3:0,0:0:0:0:
461,192,62428,2,0,L|508:192,1,47.5,0|0,1:2|3:0,0:0:0:0:
372,92,62608,2,0,L|424:144,1,47.5,0|0,3:0|3:0,0:0:0:0:
356,308,62786,2,0,L|304:360,1,47.5,2|0,3:2|3:0,0:0:0:0:
140,292,62965,2,0,L|88:240,1,47.5,0|0,3:0|3:0,0:0:0:0:
156,76,63143,6,0,P|163:121|203:143,1,95,2|0,3:2|1:2,0:0:0:0:
309,143,63411,1,0,3:0:0:0:
309,143,63500,2,0,P|349:121|357:76,1,95,0|0,3:0|0:0,0:0:0:0:
298,262,63858,2,0,B|345:276|329:303|376:312,1,95,2|0,1:2|0:0,0:0:0:0:
214,262,64125,2,0,B|166:275|182:303|136:311,1,95,0|0,1:2|0:0,0:0:0:0:
256,188,64393,2,0,L|256:140,1,47.5,0|0,3:0|3:0,0:0:0:0:
172,188,64572,6,0,P|160:120|180:84,1,95,2|0,1:2|0:0,0:0:0:0:
342,98,64840,2,0,P|354:143|340:188,1,95,0|0,1:2|3:0,0:0:0:0:
256,48,65108,2,0,L|256:0,1,47.5,0|0,1:2|0:0,0:0:0:0:
340,188,65286,2,0,P|344:248|384:280,1,95,2|0,1:2|3:0,0:0:0:0:
145,271,65554,2,0,P|173:234|172:188,1,95,0|0,1:2|3:0,0:0:0:0:
280,312,65822,2,0,L|220:312,1,47.5,0|0,3:0|3:0,0:0:0:0:
360,364,66000,5,2,3:2:0:0:
152,364,66268,1,0,3:0:0:0:
256,192,66536,1,0,1:2:0:0:
256,368,66715,5,2,1:2:0:0:
104,104,66983,1,0,1:2:0:0:
408,104,67250,1,0,1:2:0:0:
256,368,67429,6,0,B|280:224|232:224|256:84,1,285,2|0,1:2|0:0,0:0:0:0:
208,4,68143,2,0,L|168:4,6,23.75,0|0|0|0|0|0|0,1:2|1:2|1:2|1:2|1:2|1:2|1:2,1:2:0:0:
304,4,68500,2,0,L|344:4,6,23.75,0|0|0|0|0|0|0,1:2|1:2|1:2|1:2|1:2|1:2|1:2,1:2:0:0:
256,192,68858,12,4,71358,0:0:0:0:
255,316,71715,6,0,B|235:256|275:256|255:192,2,126.666666666667,2|0|2,0:0|0:0|0:0,0:0:0:0:
320,120,72429,2,0,P|254:93|191:119,2,142.5,0|2|0,1:2|0:0|0:0,0:0:0:0:
256,192,73143,5,2,0:0:0:0:
214,280,73322,1,0,0:0:0:0:
158,200,73500,1,0,0:0:0:0:
354,200,73679,1,0,1:2:0:0:
298,280,73858,1,0,0:0:0:0:
158,200,74037,1,0,1:2:0:0:
214,280,74215,1,0,0:0:0:0:
256,192,74394,1,0,0:0:0:0:
256,368,74572,5,2,0:0:0:0:
298,280,74750,1,0,0:0:0:0:
256,192,74929,1,0,0:0:0:0:
298,104,75108,1,0,0:0:0:0:
214,280,75286,1,0,1:2:0:0:
256,192,75465,1,0,0:0:0:0:
214,104,75643,1,0,0:0:0:0:
256,16,75822,1,0,0:0:0:0:
256,192,76000,5,2,0:0:0:0:
214,280,76179,1,0,0:0:0:0:
298,280,76358,2,0,L|362:280,1,47.5,0|0,3:0|3:0,0:0:0:0:
444,280,76536,1,0,1:2:0:0:
392,192,76715,1,2,0:0:0:0:
214,280,76893,1,0,1:2:0:0:
176,192,77072,1,0,0:0:0:0:
214,104,77250,1,0,0:0:0:0:
148,84,77429,5,2,0:0:0:0:
148,300,77608,1,0,0:0:0:0:
364,300,77786,2,0,L|364:220,1,47.5,2|0,3:2|3:3,0:0:0:0:
364,84,77965,1,0,3:0:0:0:
256,288,78143,1,2,3:2:0:0:
160,192,78322,2,0,L|193:158,1,47.5,0|0,0:0|3:0,0:0:0:0:
256,96,78501,1,2,3:2:0:0:
352,192,78679,1,0,3:0:0:0:
256,288,78858,5,2,3:2:0:0:
256,96,79036,1,0,1:2:0:0:
256,96,79125,1,0,1:2:0:0:
256,96,79215,1,0,1:2:0:0:
352,192,79393,1,0,1:2:0:0:
160,192,79572,2,0,L|127:226,1,47.5,2|0,3:2|3:0,0:0:0:0:
256,288,79750,2,0,L|290:321,1,47.5,0|0,3:0|3:0,0:0:0:0:
352,192,79929,2,0,L|385:158,1,47.5,2|0,1:2|1:2,0:0:0:0:
256,96,80108,2,0,L|222:63,1,47.5,0|0,1:2|1:2,0:0:0:0:
56,48,80286,6,0,B|32:192|80:192|56:332,2,285,6|0|0,0:0|1:2|1:2,0:0:0:0:
56,48,81536,1,0,0:0:0:0:
208,28,81715,5,0,0:0:0:0:
336,156,81893,1,0,1:2:0:0:
176,156,82072,1,2,0:0:0:0:
304,28,82250,2,0,L|304:88,1,47.5
256,192,82429,1,2,1:2:0:0:
256,376,82608,2,0,L|256:316,1,47.5
364,256,82786,1,0,1:2:0:0:
148,256,82965,1,0,0:0:0:0:
456,336,83143,6,0,B|480:192|432:192|456:52,2,285,6|0|0,0:0|1:2|1:2,0:0:0:0:
456,336,84393,1,0,0:0:0:0:
351,272,84572,6,0,L|256:272,1,95,2|0,1:2|0:0,0:0:0:0:
161,192,84840,2,0,L|256:192,1,95,2|0,1:2|0:0,0:0:0:0:
351,112,85108,2,0,L|288:112,1,47.5,2|0,1:2|0:0,0:0:0:0:
256,112,85286,1,2,1:2:0:0:
446,50,85465,2,0,L|398:50,1,47.5
512,140,85643,2,0,L|452:140,1,47.5,2|0,1:2|0:0,0:0:0:0:
512,244,85822,2,0,L|464:244,1,47.5
446,334,86000,6,0,L|256:334,1,190,6|0,0:0|1:2,0:0:0:0:
66,334,86536,1,0,0:0:0:0:
256,334,86715,2,0,L|256:192,2,142.5,0|2|0,1:2|1:2|0:0,0:0:0:0:
398,192,87429,5,2,1:2:0:0:
256,50,87697,1,0,1:2:0:0:
114,192,87965,1,2,1:2:0:0:
256,334,88143,5,2,1:2:0:0:
256,50,88411,1,0,1:2:0:0:
256,334,88679,1,2,0:0:0:0:
256,50,88858,5,2,0:0:0:0:
66,334,89125,1,0,1:2:0:0:
446,334,89393,1,0,0:0:0:0:
66,50,89572,5,2,1:2:0:0:
446,50,89840,1,0,1:2:0:0:
256,334,90108,1,0,0:0:0:0:
256,50,90286,5,2,1:2:0:0:
256,192,90331,12,0,91000,1:2:0:0:
256,192,91179,5,0,0:0:0:0:
256,196,91268,1,0,0:0:0:0:
256,200,91358,1,0,1:2:0:0:
256,204,91447,1,0,0:0:0:0:
256,208,91536,1,0,1:2:0:0:
256,212,91625,1,0,0:0:0:0:
256,264,91715,6,0,P|272:308|312:340,1,95,6|0,0:0|1:2,0:0:0:0:
256,120,92072,2,0,P|240:76|200:44,1,95,0|0,0:0|0:2,0:0:0:0:
100,192,92429,2,0,L|192:228,1,95,2|0,1:2|0:0,0:0:0:0:
324,226,92697,1,0,0:0:0:0:
324,226,92786,2,0,L|412:191,1,95,2|2,1:2|0:0,0:0:0:0:
256,312,93143,5,0,0:0:0:0:
120,356,93322,1,0,1:2:0:0:
392,356,93500,1,0,0:0:0:0:
256,312,93679,1,0,0:0:0:0:
384,88,93858,1,2,1:2:0:0:
128,88,94036,1,0,0:0:0:0:
256,312,94215,1,2,1:2:0:0:
384,88,94393,1,2,0:0:0:0:
162,169,94572,6,0,P|131:134|128:88,1,95,0|0,0:0|1:2,0:0:0:0:
384,88,94929,2,0,P|380:134|349:169,1,95
100,332,95286,2,0,B|144:316|144:348|192:332,1,95,2|0,1:2|0:0,0:0:0:0:
412,332,95554,1,0,0:0:0:0:
412,332,95643,2,0,B|368:316|368:348|320:332,1,95,2|2,1:2|0:0,0:0:0:0:
188,253,96000,6,0,L|164:212,2,47.5,0|0|0,1:2|0:0|0:0,0:0:0:0:
280,104,96268,2,0,L|232:104,2,47.5,0|0|0,1:2|0:0|0:0,0:0:0:0:
324,253,96536,2,0,L|348:211,1,47.5,0|0,1:2|0:0,0:0:0:0:
256,192,96715,1,2,1:2:0:0:
172,340,96893,1,0,0:0:0:0:
340,340,97072,1,2,1:2:0:0:
116,264,97250,1,2,0:0:0:0:
396,264,97429,6,0,P|448:192|396:120,1,190,4|2,0:0|0:0,0:0:0:0:
372,192,97965,1,0,0:0:0:0:
396,264,98143,1,0,1:2:0:0:
112,340,98411,1,0,1:2:0:0:
112,44,98679,1,2,1:2:0:0:
395,119,98858,5,0,1:2:0:0:
256,192,99126,1,2,1:2:0:0:
117,265,99394,1,0,1:2:0:0:
395,265,99572,1,2,1:2:0:0:
256,192,99840,1,0,1:2:0:0:
117,119,100108,1,2,0:0:0:0:
395,119,100286,5,0,0:0:0:0:
256,192,100554,1,0,0:0:0:0:
395,265,100822,1,0,1:2:0:0:
40,40,101000,5,2,1:2:0:0:
472,192,101268,1,0,1:2:0:0:
40,344,101536,1,0,1:2:0:0:
472,344,101715,6,0,P|337:305|256:192,1,285,2|0,1:2|0:0,0:0:0:0:
40,40,102429,2,0,P|174:78|256:192,1,285,4|0,1:2|0:0,0:0:0:0:
256,192,103054,1,0,0:0:0:0:
256,192,103143,1,2,0:0:0:0:
256,192,103233,12,2,106000,0:0:0:0:
