osu file format v14

[General]
AudioFilename: audio.mp3
AudioLeadIn: 0
PreviewTime: 82112
Countdown: 0
SampleSet: Normal
StackLeniency: 0.7
Mode: 1
LetterboxInBreaks: 0
WidescreenStoryboard: 0

[Editor]
DistanceSpacing: 1.3
BeatDivisor: 4
GridSize: 32
TimelineZoom: 2.1

[Metadata]
Title:Machiwabita Oumagatoki
TitleUnicode:待ちわびた逢魔が時
Artist:ZUN
ArtistUnicode:ZUN
Creator:CallMeLyra
Version:Inner Oni
Source:東方虹龍洞 〜 Unconnected Marketeers.
Tags:The Long-Awaited Long Awaited Omagatoki th18 UM 菅牧典 Tsukasa Kudamaki Stage 5 Theme rainbow dragon cave Kouryuudou Kouryudou Antti Team Shanghai Alice 東方project touhou 上海アリス幻楽団 Video Game Instrumental
BeatmapID:3355953
BeatmapSetID:1644098

[Difficulty]
HPDrainRate:6
CircleSize:5
OverallDifficulty:6
ApproachRate:5
SliderMultiplier:1.4
SliderTickRate:1

[Events]
//Background and Video events
0,0,"Tsukasa.jpg",0,50
//Break Periods
//Storyboard Layer 0 (Background)
//Storyboard Layer 1 (Fail)
//Storyboard Layer 2 (Pass)
//Storyboard Layer 3 (Foreground)
//Storyboard Layer 4 (Overlay)
//Storyboard Sound Samples

[TimingPoints]
703,363.636363636364,5,1,0,70,1,0
7930,-100,5,1,0,60,0,0
22475,-100,5,1,0,70,0,0
58886,363.636363636364,4,1,0,70,1,0
82158,363.636363636364,5,1,0,70,1,0
111248,363.636363636364,4,1,0,70,1,0
134520,-100,4,1,0,75,0,1
169429,-100,4,1,0,75,0,0

[HitObjects]
256,192,703,5,0,0:0:0:0:
256,192,884,1,0,0:0:0:0:
256,192,1066,1,0,0:0:0:0:
256,192,1248,1,8,0:0:0:0:
256,192,1430,1,0,0:0:0:0:
256,192,1612,1,8,0:0:0:0:
256,192,1703,1,8,0:0:0:0:
256,192,1793,1,0,0:0:0:0:
256,192,1975,1,8,0:0:0:0:
256,192,2157,1,0,0:0:0:0:
256,192,2521,1,0,0:0:0:0:
256,192,2703,1,0,0:0:0:0:
256,192,2884,1,0,0:0:0:0:
256,192,3066,1,8,0:0:0:0:
256,192,3248,1,0,0:0:0:0:
256,192,3430,1,8,0:0:0:0:
256,192,3521,1,8,0:0:0:0:
256,192,3612,1,0,0:0:0:0:
256,192,3793,1,8,0:0:0:0:
256,192,3975,1,0,0:0:0:0:
256,192,4157,1,0,0:0:0:0:
256,192,4339,1,0,0:0:0:0:
256,192,4521,1,0,0:0:0:0:
256,192,4703,1,8,0:0:0:0:
256,192,4884,1,8,0:0:0:0:
256,192,5066,1,0,0:0:0:0:
256,192,5248,1,8,0:0:0:0:
256,192,5339,1,8,0:0:0:0:
256,192,5430,1,0,0:0:0:0:
256,192,5612,1,8,0:0:0:0:
256,192,5793,1,0,0:0:0:0:
256,192,5975,1,8,0:0:0:0:
256,192,6066,1,0,0:0:0:0:
256,192,6157,1,0,0:0:0:0:
256,192,6339,1,0,0:0:0:0:
256,192,6521,1,8,0:0:0:0:
256,192,6703,1,8,0:0:0:0:
256,192,6884,1,0,0:0:0:0:
256,192,7066,1,8,0:0:0:0:
256,192,7157,1,8,0:0:0:0:
256,192,7248,1,0,0:0:0:0:
256,192,7430,1,8,0:0:0:0:
256,192,7612,1,0,0:0:0:0:
256,192,7703,1,0,0:0:0:0:
256,192,7793,1,8,0:0:0:0:
256,192,7975,5,0,0:0:0:0:
256,192,8157,5,8,0:0:0:0:
256,192,8339,1,8,0:0:0:0:
256,192,8521,1,0,0:0:0:0:
256,192,8703,1,8,0:0:0:0:
256,192,8884,1,8,0:0:0:0:
256,192,9066,1,0,0:0:0:0:
256,192,9430,1,0,0:0:0:0:
256,192,9793,1,0,0:0:0:0:
256,192,9975,5,0,0:0:0:0:
256,192,10157,1,8,0:0:0:0:
256,192,10339,1,0,0:0:0:0:
256,192,10521,1,0,0:0:0:0:
256,192,10703,1,8,0:0:0:0:
256,192,10884,1,0,0:0:0:0:
256,192,11248,1,0,0:0:0:0:
256,192,11612,5,0,0:0:0:0:
256,192,11793,5,8,0:0:0:0:
256,192,11975,1,8,0:0:0:0:
256,192,12157,1,0,0:0:0:0:
256,192,12339,1,8,0:0:0:0:
256,192,12521,1,8,0:0:0:0:
256,192,12703,1,0,0:0:0:0:
256,192,13066,1,0,0:0:0:0:
256,192,13430,1,0,0:0:0:0:
256,192,13612,5,0,0:0:0:0:
256,192,13793,1,8,0:0:0:0:
256,192,13975,1,0,0:0:0:0:
256,192,14157,1,8,0:0:0:0:
256,192,14339,1,0,0:0:0:0:
256,192,14521,1,8,0:0:0:0:
256,192,14884,1,8,0:0:0:0:
256,192,15066,1,8,0:0:0:0:
256,192,15157,1,8,0:0:0:0:
256,192,15248,5,0,0:0:0:0:
256,192,15430,5,8,0:0:0:0:
256,192,15612,1,8,0:0:0:0:
256,192,15793,1,0,0:0:0:0:
256,192,15975,1,8,0:0:0:0:
256,192,16157,1,0,0:0:0:0:
256,192,16339,1,8,0:0:0:0:
256,192,16521,1,8,0:0:0:0:
256,192,16703,1,0,0:0:0:0:
256,192,16884,1,8,0:0:0:0:
256,192,17066,1,0,0:0:0:0:
256,192,17248,5,0,0:0:0:0:
256,192,17430,1,8,0:0:0:0:
256,192,17612,1,8,0:0:0:0:
256,192,17793,1,0,0:0:0:0:
256,192,17975,1,8,0:0:0:0:
256,192,18157,1,0,0:0:0:0:
256,192,18339,1,8,0:0:0:0:
256,192,18521,1,0,0:0:0:0:
256,192,18703,5,8,0:0:0:0:
256,192,18884,5,0,0:0:0:0:
256,192,19066,5,8,0:0:0:0:
256,192,19248,1,8,0:0:0:0:
256,192,19430,1,0,0:0:0:0:
256,192,19612,1,8,0:0:0:0:
256,192,19793,1,8,0:0:0:0:
256,192,19975,1,0,0:0:0:0:
256,192,20339,1,8,0:0:0:0:
256,192,20521,1,0,0:0:0:0:
256,192,20703,1,0,0:0:0:0:
256,192,20884,5,0,0:0:0:0:
256,192,21066,1,8,0:0:0:0:
256,192,21248,1,8,0:0:0:0:
256,192,21430,5,0,0:0:0:0:
256,192,21612,1,8,0:0:0:0:
256,192,21793,1,8,0:0:0:0:
256,192,21884,1,8,0:0:0:0:
256,192,21975,1,0,0:0:0:0:
256,192,22066,1,0,0:0:0:0:
256,192,22157,1,8,0:0:0:0:
256,192,22248,1,8,0:0:0:0:
256,192,22339,1,8,0:0:0:0:
256,192,22430,1,8,0:0:0:0:
256,192,22521,5,0,0:0:0:0:
256,192,22703,1,0,0:0:0:0:
256,192,22884,1,0,0:0:0:0:
256,192,23066,1,8,0:0:0:0:
256,192,23248,1,0,0:0:0:0:
256,192,23430,1,8,0:0:0:0:
256,192,23521,1,8,0:0:0:0:
256,192,23612,1,0,0:0:0:0:
256,192,23793,1,8,0:0:0:0:
256,192,23975,1,0,0:0:0:0:
256,192,24339,1,0,0:0:0:0:
256,192,24521,1,0,0:0:0:0:
256,192,24703,1,0,0:0:0:0:
256,192,24884,1,8,0:0:0:0:
256,192,25066,1,0,0:0:0:0:
256,192,25248,1,8,0:0:0:0:
256,192,25339,1,0,0:0:0:0:
256,192,25430,1,8,0:0:0:0:
256,192,25612,1,8,0:0:0:0:
256,192,25793,1,0,0:0:0:0:
256,192,25975,1,0,0:0:0:0:
256,192,26157,1,0,0:0:0:0:
256,192,26339,1,0,0:0:0:0:
256,192,26521,1,8,0:0:0:0:
256,192,26703,1,8,0:0:0:0:
256,192,26884,1,0,0:0:0:0:
256,192,27066,1,8,0:0:0:0:
256,192,27157,1,8,0:0:0:0:
256,192,27248,1,0,0:0:0:0:
256,192,27430,1,8,0:0:0:0:
256,192,27612,1,0,0:0:0:0:
256,192,27793,1,8,0:0:0:0:
256,192,27884,1,0,0:0:0:0:
256,192,27975,1,0,0:0:0:0:
256,192,28157,1,0,0:0:0:0:
256,192,28339,1,8,0:0:0:0:
256,192,28521,1,8,0:0:0:0:
256,192,28703,1,0,0:0:0:0:
256,192,28884,1,8,0:0:0:0:
256,192,28975,1,0,0:0:0:0:
256,192,29066,1,8,0:0:0:0:
256,192,29248,1,8,0:0:0:0:
256,192,29430,1,0,0:0:0:0:
256,192,29521,1,8,0:0:0:0:
256,192,29612,1,0,0:0:0:0:
256,192,29793,5,0,0:0:0:0:
256,192,29884,1,0,0:0:0:0:
256,192,29975,1,8,0:0:0:0:
256,192,30157,1,8,0:0:0:0:
256,192,30339,1,0,0:0:0:0:
256,192,30430,1,0,0:0:0:0:
256,192,30521,1,8,0:0:0:0:
256,192,30703,1,8,0:0:0:0:
256,192,30884,1,0,0:0:0:0:
256,192,31066,1,8,0:0:0:0:
256,192,31157,1,8,0:0:0:0:
256,192,31248,1,0,0:0:0:0:
256,192,31430,1,8,0:0:0:0:
256,192,31521,1,8,0:0:0:0:
256,192,31612,1,0,0:0:0:0:
256,192,31703,1,8,0:0:0:0:
256,192,31793,1,0,0:0:0:0:
256,192,31975,1,8,0:0:0:0:
256,192,32157,1,8,0:0:0:0:
256,192,32248,1,0,0:0:0:0:
256,192,32339,1,0,0:0:0:0:
256,192,32521,1,0,0:0:0:0:
256,192,32703,1,8,0:0:0:0:
256,192,32884,1,8,0:0:0:0:
256,192,32975,1,8,0:0:0:0:
256,192,33066,1,0,0:0:0:0:
256,192,33248,1,0,0:0:0:0:
256,192,33339,1,8,0:0:0:0:
256,192,33430,1,0,0:0:0:0:
256,192,33521,1,0,0:0:0:0:
256,192,33612,1,8,0:0:0:0:
256,192,33793,1,8,0:0:0:0:
256,192,33975,1,0,0:0:0:0:
256,192,34066,1,0,0:0:0:0:
256,192,34157,1,8,0:0:0:0:
256,192,34339,1,0,0:0:0:0:
256,192,34521,1,8,0:0:0:0:
256,192,34703,1,0,0:0:0:0:
256,192,34793,1,0,0:0:0:0:
256,192,34884,1,8,0:0:0:0:
256,192,35066,1,8,0:0:0:0:
256,192,35157,1,8,0:0:0:0:
256,192,35248,1,0,0:0:0:0:
256,192,35339,1,8,0:0:0:0:
256,192,35430,1,0,0:0:0:0:
256,192,35612,1,8,0:0:0:0:
256,192,35793,1,0,0:0:0:0:
256,192,35884,1,0,0:0:0:0:
256,192,35975,1,8,0:0:0:0:
256,192,36157,1,0,0:0:0:0:
256,192,36339,1,0,0:0:0:0:
256,192,36521,1,8,0:0:0:0:
256,192,36612,1,8,0:0:0:0:
256,192,36703,1,0,0:0:0:0:
256,192,36793,1,0,0:0:0:0:
256,192,36884,1,8,0:0:0:0:
256,192,37066,5,0,0:0:0:0:
256,192,37157,1,0,0:0:0:0:
256,192,37248,1,8,0:0:0:0:
256,192,37430,1,8,0:0:0:0:
256,192,37612,1,0,0:0:0:0:
256,192,37703,1,0,0:0:0:0:
256,192,37793,1,8,0:0:0:0:
256,192,37975,1,0,0:0:0:0:
256,192,38157,1,8,0:0:0:0:
256,192,38339,1,8,0:0:0:0:
256,192,38430,1,8,0:0:0:0:
256,192,38521,1,0,0:0:0:0:
256,192,38703,1,8,0:0:0:0:
256,192,38793,1,0,0:0:0:0:
256,192,38884,1,0,0:0:0:0:
256,192,38975,1,0,0:0:0:0:
256,192,39066,1,8,0:0:0:0:
256,192,39248,1,8,0:0:0:0:
256,192,39430,1,8,0:0:0:0:
256,192,39521,1,8,0:0:0:0:
256,192,39612,1,0,0:0:0:0:
256,192,39793,1,8,0:0:0:0:
256,192,39975,1,0,0:0:0:0:
256,192,40157,1,0,0:0:0:0:
256,192,40248,1,0,0:0:0:0:
256,192,40339,1,8,0:0:0:0:
256,192,40521,1,8,0:0:0:0:
256,192,40612,1,8,0:0:0:0:
256,192,40703,1,0,0:0:0:0:
256,192,40793,1,0,0:0:0:0:
256,192,40884,1,8,0:0:0:0:
256,192,41066,1,8,0:0:0:0:
256,192,41248,1,0,0:0:0:0:
256,192,41339,1,8,0:0:0:0:
256,192,41430,1,0,0:0:0:0:
256,192,41612,1,0,0:0:0:0:
256,192,41793,1,8,0:0:0:0:
256,192,41975,1,8,0:0:0:0:
256,192,42066,1,8,0:0:0:0:
256,192,42157,1,0,0:0:0:0:
256,192,42339,1,0,0:0:0:0:
256,192,42430,1,8,0:0:0:0:
256,192,42521,1,0,0:0:0:0:
256,192,42612,1,0,0:0:0:0:
256,192,42703,1,8,0:0:0:0:
256,192,42884,1,0,0:0:0:0:
256,192,43066,1,8,0:0:0:0:
256,192,43157,1,0,0:0:0:0:
256,192,43248,1,8,0:0:0:0:
256,192,43430,1,0,0:0:0:0:
256,192,43612,1,8,0:0:0:0:
256,192,43793,1,8,0:0:0:0:
256,192,43884,1,8,0:0:0:0:
256,192,43975,1,0,0:0:0:0:
256,192,44157,1,0,0:0:0:0:
256,192,44248,1,8,0:0:0:0:
256,192,44339,5,0,0:0:0:0:
256,192,44430,1,0,0:0:0:0:
256,192,44521,1,8,0:0:0:0:
256,192,44703,1,8,0:0:0:0:
256,192,44884,1,0,0:0:0:0:
256,192,44975,1,0,0:0:0:0:
256,192,45066,1,8,0:0:0:0:
256,192,45248,1,8,0:0:0:0:
256,192,45430,1,0,0:0:0:0:
256,192,45612,1,8,0:0:0:0:
256,192,45703,1,8,0:0:0:0:
256,192,45793,1,0,0:0:0:0:
256,192,45975,1,8,0:0:0:0:
256,192,46066,1,8,0:0:0:0:
256,192,46157,1,0,0:0:0:0:
256,192,46248,1,8,0:0:0:0:
256,192,46339,1,0,0:0:0:0:
256,192,46521,1,8,0:0:0:0:
256,192,46703,1,8,0:0:0:0:
256,192,46793,1,0,0:0:0:0:
256,192,46884,1,0,0:0:0:0:
256,192,47066,1,0,0:0:0:0:
256,192,47248,1,8,0:0:0:0:
256,192,47430,1,8,0:0:0:0:
256,192,47521,1,8,0:0:0:0:
256,192,47612,1,0,0:0:0:0:
256,192,47793,1,0,0:0:0:0:
256,192,47884,1,8,0:0:0:0:
256,192,47975,1,0,0:0:0:0:
256,192,48066,1,0,0:0:0:0:
256,192,48157,1,8,0:0:0:0:
256,192,48339,1,8,0:0:0:0:
256,192,48521,1,0,0:0:0:0:
256,192,48612,1,0,0:0:0:0:
256,192,48703,1,8,0:0:0:0:
256,192,48884,1,0,0:0:0:0:
256,192,49066,1,8,0:0:0:0:
256,192,49248,1,0,0:0:0:0:
256,192,49339,1,0,0:0:0:0:
256,192,49430,1,8,0:0:0:0:
256,192,49612,1,8,0:0:0:0:
256,192,49703,1,8,0:0:0:0:
256,192,49793,1,0,0:0:0:0:
256,192,49884,1,8,0:0:0:0:
256,192,49975,1,0,0:0:0:0:
256,192,50157,1,8,0:0:0:0:
256,192,50339,1,0,0:0:0:0:
256,192,50430,1,0,0:0:0:0:
256,192,50521,1,8,0:0:0:0:
256,192,50703,1,0,0:0:0:0:
256,192,50884,1,0,0:0:0:0:
256,192,51066,1,8,0:0:0:0:
256,192,51157,1,8,0:0:0:0:
256,192,51248,1,0,0:0:0:0:
256,192,51339,1,0,0:0:0:0:
256,192,51430,1,8,0:0:0:0:
256,192,51612,5,0,0:0:0:0:
256,192,51703,1,0,0:0:0:0:
256,192,51793,1,8,0:0:0:0:
256,192,51975,1,8,0:0:0:0:
256,192,52157,1,0,0:0:0:0:
256,192,52248,1,0,0:0:0:0:
256,192,52339,1,8,0:0:0:0:
256,192,52521,1,0,0:0:0:0:
256,192,52703,1,8,0:0:0:0:
256,192,52884,1,8,0:0:0:0:
256,192,52975,1,8,0:0:0:0:
256,192,53066,1,0,0:0:0:0:
256,192,53248,1,8,0:0:0:0:
256,192,53339,1,0,0:0:0:0:
256,192,53430,1,0,0:0:0:0:
256,192,53521,1,0,0:0:0:0:
256,192,53612,1,8,0:0:0:0:
256,192,53793,1,8,0:0:0:0:
256,192,53975,1,8,0:0:0:0:
256,192,54066,1,8,0:0:0:0:
256,192,54157,1,0,0:0:0:0:
256,192,54339,1,8,0:0:0:0:
256,192,54521,1,0,0:0:0:0:
256,192,54703,1,0,0:0:0:0:
256,192,54793,1,0,0:0:0:0:
256,192,54884,1,8,0:0:0:0:
256,192,55066,1,8,0:0:0:0:
256,192,55157,1,8,0:0:0:0:
256,192,55248,1,0,0:0:0:0:
256,192,55339,1,0,0:0:0:0:
256,192,55430,1,8,0:0:0:0:
256,192,55612,1,8,0:0:0:0:
256,192,55793,5,0,0:0:0:0:
256,192,55884,1,8,0:0:0:0:
256,192,55975,1,0,0:0:0:0:
256,192,56157,1,0,0:0:0:0:
256,192,56339,1,8,0:0:0:0:
256,192,56521,1,8,0:0:0:0:
256,192,56612,1,8,0:0:0:0:
256,192,56703,1,0,0:0:0:0:
256,192,56884,5,0,0:0:0:0:
256,192,56975,5,8,0:0:0:0:
256,192,57066,5,0,0:0:0:0:
256,192,57248,5,8,0:0:0:0:
256,192,57430,5,8,0:0:0:0:
256,192,57612,5,8,0:0:0:0:
256,192,57793,5,0,0:0:0:0:
256,192,57975,5,0,0:0:0:0:
256,192,58066,5,0,0:0:0:0:
256,192,58157,5,8,0:0:0:0:
256,192,58248,5,8,0:0:0:0:
256,192,58339,5,0,0:0:0:0:
256,192,58430,5,0,0:0:0:0:
256,192,58521,5,8,0:0:0:0:
256,192,58612,5,8,0:0:0:0:
256,192,58703,5,0,0:0:0:0:
256,192,58793,5,8,0:0:0:0:
256,192,58884,5,0,0:0:0:0:
256,192,59067,1,8,0:0:0:0:
256,192,59249,1,0,0:0:0:0:
256,192,59340,1,0,0:0:0:0:
256,192,59431,1,8,0:0:0:0:
256,192,59613,1,0,0:0:0:0:
256,192,59795,1,8,0:0:0:0:
256,192,59886,1,0,0:0:0:0:
256,192,59976,1,8,0:0:0:0:
256,192,60067,1,8,0:0:0:0:
256,192,60158,1,0,0:0:0:0:
256,192,60340,1,0,0:0:0:0:
256,192,60431,1,0,0:0:0:0:
256,192,60522,1,8,0:0:0:0:
256,192,60704,1,0,0:0:0:0:
256,192,60795,1,0,0:0:0:0:
256,192,60886,1,8,0:0:0:0:
256,192,61067,1,0,0:0:0:0:
256,192,61249,1,0,0:0:0:0:
256,192,61340,1,0,0:0:0:0:
256,192,61431,1,8,0:0:0:0:
256,192,61522,1,0,0:0:0:0:
256,192,61613,1,8,0:0:0:0:
256,192,61795,1,0,0:0:0:0:
256,192,61976,1,0,0:0:0:0:
256,192,62158,1,8,0:0:0:0:
256,192,62249,1,0,0:0:0:0:
256,192,62340,1,8,0:0:0:0:
256,192,62522,1,0,0:0:0:0:
256,192,62704,1,0,0:0:0:0:
256,192,62795,1,8,0:0:0:0:
256,192,62886,1,0,0:0:0:0:
256,192,62976,1,0,0:0:0:0:
256,192,63067,1,8,0:0:0:0:
256,192,63158,1,8,0:0:0:0:
256,192,63249,1,0,0:0:0:0:
256,192,63431,1,8,0:0:0:0:
256,192,63613,5,0,0:0:0:0:
256,192,63795,1,8,0:0:0:0:
256,192,63886,1,8,0:0:0:0:
256,192,63976,1,0,0:0:0:0:
256,192,64158,1,0,0:0:0:0:
256,192,64249,1,0,0:0:0:0:
256,192,64340,1,8,0:0:0:0:
256,192,64431,1,8,0:0:0:0:
256,192,64522,1,0,0:0:0:0:
256,192,64704,5,0,0:0:0:0:
256,192,64795,1,8,0:0:0:0:
256,192,64886,1,0,0:0:0:0:
256,192,65067,1,0,0:0:0:0:
256,192,65158,1,0,0:0:0:0:
256,192,65249,1,8,0:0:0:0:
256,192,65431,1,0,0:0:0:0:
256,192,65613,1,0,0:0:0:0:
256,192,65704,1,8,0:0:0:0:
256,192,65886,1,0,0:0:0:0:
256,192,65976,1,8,0:0:0:0:
256,192,66158,1,0,0:0:0:0:
256,192,66340,1,8,0:0:0:0:
256,192,66522,1,0,0:0:0:0:
256,192,66704,1,8,0:0:0:0:
256,192,66795,1,8,0:0:0:0:
256,192,66886,1,0,0:0:0:0:
256,192,67067,1,0,0:0:0:0:
256,192,67158,1,0,0:0:0:0:
256,192,67249,1,8,0:0:0:0:
256,192,67340,1,0,0:0:0:0:
256,192,67431,1,8,0:0:0:0:
256,192,67613,1,8,0:0:0:0:
256,192,67704,1,0,0:0:0:0:
256,192,67795,1,0,0:0:0:0:
256,192,67976,1,8,0:0:0:0:
256,192,68158,1,8,0:0:0:0:
256,192,68249,1,8,0:0:0:0:
256,192,68340,1,0,0:0:0:0:
256,192,68522,1,0,0:0:0:0:
256,192,68613,1,8,0:0:0:0:
256,192,68704,1,0,0:0:0:0:
256,192,68795,1,8,0:0:0:0:
256,192,68886,1,0,0:0:0:0:
256,192,68976,1,0,0:0:0:0:
256,192,69067,1,8,0:0:0:0:
256,192,69249,1,0,0:0:0:0:
256,192,69431,1,8,0:0:0:0:
256,192,69613,1,0,0:0:0:0:
256,192,69704,1,8,0:0:0:0:
256,192,69795,1,0,0:0:0:0:
256,192,69886,1,8,0:0:0:0:
256,192,69976,1,0,0:0:0:0:
256,192,70067,1,0,0:0:0:0:
256,192,70158,1,8,0:0:0:0:
256,192,70249,1,0,0:0:0:0:
256,192,70340,1,8,0:0:0:0:
256,192,70431,1,8,0:0:0:0:
256,192,70522,1,0,0:0:0:0:
256,192,70704,1,8,0:0:0:0:
256,192,70886,1,0,0:0:0:0:
256,192,70976,1,0,0:0:0:0:
256,192,71067,1,8,0:0:0:0:
256,192,71158,1,8,0:0:0:0:
256,192,71249,1,0,0:0:0:0:
256,192,71522,1,8,0:0:0:0:
256,192,71704,1,0,0:0:0:0:
256,192,71795,1,8,0:0:0:0:
256,192,71976,1,0,0:0:0:0:
256,192,72158,1,8,0:0:0:0:
256,192,72340,1,8,0:0:0:0:
256,192,72431,1,8,0:0:0:0:
256,192,72522,1,0,0:0:0:0:
256,192,72613,1,8,0:0:0:0:
256,192,72704,1,0,0:0:0:0:
256,192,72976,1,8,0:0:0:0:
256,192,73158,1,0,0:0:0:0:
256,192,73249,1,8,0:0:0:0:
256,192,73431,1,0,0:0:0:0:
256,192,73613,1,8,0:0:0:0:
256,192,73795,1,0,0:0:0:0:
256,192,73886,1,0,0:0:0:0:
256,192,73976,1,8,0:0:0:0:
256,192,74067,1,8,0:0:0:0:
256,192,74158,1,0,0:0:0:0:
256,192,74431,1,8,0:0:0:0:
256,192,74613,1,0,0:0:0:0:
256,192,74704,1,8,0:0:0:0:
256,192,74886,1,8,0:0:0:0:
256,192,74976,1,8,0:0:0:0:
256,192,75067,1,0,0:0:0:0:
256,192,75158,1,0,0:0:0:0:
256,192,75249,1,8,0:0:0:0:
256,192,75340,1,8,0:0:0:0:
256,192,75431,1,0,0:0:0:0:
256,192,75522,1,0,0:0:0:0:
256,192,75613,1,8,0:0:0:0:
256,192,75704,1,8,0:0:0:0:
256,192,75795,1,0,0:0:0:0:
256,192,75886,1,8,0:0:0:0:
256,192,75976,1,0,0:0:0:0:
256,192,76067,1,0,0:0:0:0:
256,192,76158,1,8,0:0:0:0:
256,192,76249,1,8,0:0:0:0:
256,192,76340,1,0,0:0:0:0:
256,192,76522,1,8,0:0:0:0:
256,192,76704,1,0,0:0:0:0:
256,192,76795,1,0,0:0:0:0:
256,192,76886,1,8,0:0:0:0:
256,192,76976,1,8,0:0:0:0:
256,192,77067,1,0,0:0:0:0:
256,192,77340,1,8,0:0:0:0:
256,192,77522,1,0,0:0:0:0:
256,192,77613,1,8,0:0:0:0:
256,192,77795,1,0,0:0:0:0:
256,192,77976,1,8,0:0:0:0:
256,192,78158,1,8,0:0:0:0:
256,192,78249,1,8,0:0:0:0:
256,192,78340,1,0,0:0:0:0:
256,192,78431,1,8,0:0:0:0:
256,192,78522,1,0,0:0:0:0:
256,192,78795,1,8,0:0:0:0:
256,192,78976,1,0,0:0:0:0:
256,192,79067,1,8,0:0:0:0:
256,192,79249,1,0,0:0:0:0:
256,192,79431,1,8,0:0:0:0:
256,192,79613,1,0,0:0:0:0:
256,192,79704,1,0,0:0:0:0:
256,192,79795,1,8,0:0:0:0:
256,192,79886,1,8,0:0:0:0:
256,192,79976,1,0,0:0:0:0:
256,192,80249,1,8,0:0:0:0:
256,192,80431,1,0,0:0:0:0:
256,192,80522,1,8,0:0:0:0:
256,192,80704,1,8,0:0:0:0:
256,192,80795,1,0,0:0:0:0:
256,192,80886,1,8,0:0:0:0:
256,192,80976,1,8,0:0:0:0:
256,192,81067,1,0,0:0:0:0:
256,192,81158,1,0,0:0:0:0:
256,192,81249,1,8,0:0:0:0:
256,192,81340,1,0,0:0:0:0:
256,192,81431,1,8,0:0:0:0:
256,192,81522,1,0,0:0:0:0:
256,192,81613,1,8,0:0:0:0:
256,192,81704,1,8,0:0:0:0:
256,192,81795,1,0,0:0:0:0:
256,192,81886,1,0,0:0:0:0:
256,192,81976,1,8,0:0:0:0:
256,192,82067,1,8,0:0:0:0:
256,192,82158,1,0,0:0:0:0:
256,192,82248,1,0,0:0:0:0:
256,192,82339,1,8,0:0:0:0:
256,192,82521,1,8,0:0:0:0:
256,192,82703,1,0,0:0:0:0:
256,192,82794,1,8,0:0:0:0:
256,192,82885,1,8,0:0:0:0:
256,192,83067,1,8,0:0:0:0:
256,192,83248,1,0,0:0:0:0:
256,192,83430,1,8,0:0:0:0:
256,192,83521,1,8,0:0:0:0:
256,192,83612,1,0,0:0:0:0:
256,192,83794,1,8,0:0:0:0:
256,192,83885,1,8,0:0:0:0:
256,192,83976,1,0,0:0:0:0:
256,192,84067,1,8,0:0:0:0:
256,192,84158,1,0,0:0:0:0:
256,192,84339,1,8,0:0:0:0:
256,192,84521,1,8,0:0:0:0:
256,192,84612,1,8,0:0:0:0:
256,192,84703,1,0,0:0:0:0:
256,192,84885,1,0,0:0:0:0:
256,192,85067,1,8,0:0:0:0:
256,192,85248,1,8,0:0:0:0:
256,192,85339,1,8,0:0:0:0:
256,192,85430,1,0,0:0:0:0:
256,192,85612,1,0,0:0:0:0:
256,192,85703,1,8,0:0:0:0:
256,192,85794,1,0,0:0:0:0:
256,192,85885,1,0,0:0:0:0:
256,192,85976,1,8,0:0:0:0:
256,192,86158,1,8,0:0:0:0:
256,192,86339,1,0,0:0:0:0:
256,192,86430,1,8,0:0:0:0:
256,192,86521,1,8,0:0:0:0:
256,192,86703,1,0,0:0:0:0:
256,192,86885,1,8,0:0:0:0:
256,192,87067,1,0,0:0:0:0:
256,192,87158,1,8,0:0:0:0:
256,192,87248,1,8,0:0:0:0:
256,192,87430,1,8,0:0:0:0:
256,192,87521,1,8,0:0:0:0:
256,192,87612,1,0,0:0:0:0:
256,192,87703,1,8,0:0:0:0:
256,192,87794,1,0,0:0:0:0:
256,192,87976,1,8,0:0:0:0:
256,192,88158,1,8,0:0:0:0:
256,192,88248,1,0,0:0:0:0:
256,192,88339,1,8,0:0:0:0:
256,192,88521,1,0,0:0:0:0:
256,192,88703,1,0,0:0:0:0:
256,192,88885,1,8,0:0:0:0:
256,192,88976,1,8,0:0:0:0:
256,192,89067,1,0,0:0:0:0:
256,192,89158,1,0,0:0:0:0:
256,192,89248,1,8,0:0:0:0:
256,192,89430,5,0,0:0:0:0:
256,192,89521,1,0,0:0:0:0:
256,192,89612,1,8,0:0:0:0:
256,192,89794,1,8,0:0:0:0:
256,192,89976,1,0,0:0:0:0:
256,192,90067,1,8,0:0:0:0:
256,192,90158,1,8,0:0:0:0:
256,192,90339,1,0,0:0:0:0:
256,192,90521,1,8,0:0:0:0:
256,192,90703,1,8,0:0:0:0:
256,192,90794,1,8,0:0:0:0:
256,192,90885,1,0,0:0:0:0:
256,192,91067,1,8,0:0:0:0:
256,192,91158,1,8,0:0:0:0:
256,192,91248,1,0,0:0:0:0:
256,192,91339,1,0,0:0:0:0:
256,192,91430,1,8,0:0:0:0:
256,192,91612,1,8,0:0:0:0:
256,192,91794,1,8,0:0:0:0:
256,192,91885,1,8,0:0:0:0:
256,192,91976,1,0,0:0:0:0:
256,192,92158,1,8,0:0:0:0:
256,192,92339,1,0,0:0:0:0:
256,192,92521,1,0,0:0:0:0:
256,192,92612,1,0,0:0:0:0:
256,192,92703,1,8,0:0:0:0:
256,192,92885,1,8,0:0:0:0:
256,192,92976,1,8,0:0:0:0:
256,192,93067,1,0,0:0:0:0:
256,192,93158,1,0,0:0:0:0:
256,192,93248,1,8,0:0:0:0:
256,192,93430,1,8,0:0:0:0:
256,192,93612,1,0,0:0:0:0:
256,192,93703,1,8,0:0:0:0:
256,192,93794,1,8,0:0:0:0:
256,192,93976,1,0,0:0:0:0:
256,192,94158,1,8,0:0:0:0:
256,192,94339,1,8,0:0:0:0:
256,192,94430,1,8,0:0:0:0:
256,192,94521,1,0,0:0:0:0:
256,192,94703,1,0,0:0:0:0:
256,192,94794,1,8,0:0:0:0:
256,192,94885,1,0,0:0:0:0:
256,192,94976,1,0,0:0:0:0:
256,192,95067,1,8,0:0:0:0:
256,192,95248,1,0,0:0:0:0:
256,192,95430,1,8,0:0:0:0:
256,192,95521,1,8,0:0:0:0:
256,192,95612,1,8,0:0:0:0:
256,192,95794,1,0,0:0:0:0:
256,192,95976,1,8,0:0:0:0:
256,192,96158,1,8,0:0:0:0:
256,192,96248,1,8,0:0:0:0:
256,192,96339,1,0,0:0:0:0:
256,192,96521,1,0,0:0:0:0:
256,192,96612,1,8,0:0:0:0:
256,192,96703,1,0,0:0:0:0:
256,192,96794,1,0,0:0:0:0:
256,192,96885,1,8,0:0:0:0:
256,192,97067,1,8,0:0:0:0:
256,192,97248,1,0,0:0:0:0:
256,192,97339,1,8,0:0:0:0:
256,192,97430,1,8,0:0:0:0:
256,192,97612,1,8,0:0:0:0:
256,192,97794,1,0,0:0:0:0:
256,192,97976,1,8,0:0:0:0:
256,192,98067,1,8,0:0:0:0:
256,192,98158,1,0,0:0:0:0:
256,192,98339,1,8,0:0:0:0:
256,192,98430,1,8,0:0:0:0:
256,192,98521,1,0,0:0:0:0:
256,192,98612,1,8,0:0:0:0:
256,192,98703,1,0,0:0:0:0:
256,192,98885,1,8,0:0:0:0:
256,192,99067,1,8,0:0:0:0:
256,192,99158,1,8,0:0:0:0:
256,192,99248,1,0,0:0:0:0:
256,192,99430,1,0,0:0:0:0:
256,192,99612,1,8,0:0:0:0:
256,192,99794,1,8,0:0:0:0:
256,192,99885,1,8,0:0:0:0:
256,192,99976,1,0,0:0:0:0:
256,192,100158,1,0,0:0:0:0:
256,192,100248,1,8,0:0:0:0:
256,192,100339,1,0,0:0:0:0:
256,192,100430,1,0,0:0:0:0:
256,192,100521,1,8,0:0:0:0:
256,192,100703,1,8,0:0:0:0:
256,192,100885,1,0,0:0:0:0:
256,192,100976,1,8,0:0:0:0:
256,192,101067,1,8,0:0:0:0:
256,192,101248,1,0,0:0:0:0:
256,192,101430,1,8,0:0:0:0:
256,192,101612,1,0,0:0:0:0:
256,192,101703,1,8,0:0:0:0:
256,192,101794,1,8,0:0:0:0:
256,192,101976,1,8,0:0:0:0:
256,192,102067,1,8,0:0:0:0:
256,192,102158,1,0,0:0:0:0:
256,192,102248,1,8,0:0:0:0:
256,192,102339,1,0,0:0:0:0:
256,192,102521,1,8,0:0:0:0:
256,192,102703,1,8,0:0:0:0:
256,192,102794,1,0,0:0:0:0:
256,192,102885,1,8,0:0:0:0:
256,192,103067,1,0,0:0:0:0:
256,192,103248,1,0,0:0:0:0:
256,192,103430,1,8,0:0:0:0:
256,192,103521,1,8,0:0:0:0:
256,192,103612,1,0,0:0:0:0:
256,192,103703,1,0,0:0:0:0:
256,192,103794,1,8,0:0:0:0:
256,192,103976,5,0,0:0:0:0:
256,192,104067,1,0,0:0:0:0:
256,192,104158,1,8,0:0:0:0:
256,192,104339,1,8,0:0:0:0:
256,192,104521,1,0,0:0:0:0:
256,192,104612,1,8,0:0:0:0:
256,192,104703,1,8,0:0:0:0:
256,192,104885,1,0,0:0:0:0:
256,192,105067,1,8,0:0:0:0:
256,192,105248,1,8,0:0:0:0:
256,192,105339,1,8,0:0:0:0:
256,192,105430,1,0,0:0:0:0:
256,192,105612,1,8,0:0:0:0:
256,192,105703,1,8,0:0:0:0:
256,192,105794,1,0,0:0:0:0:
256,192,105885,1,0,0:0:0:0:
256,192,105976,1,8,0:0:0:0:
256,192,106158,1,8,0:0:0:0:
256,192,106339,1,8,0:0:0:0:
256,192,106430,1,8,0:0:0:0:
256,192,106521,1,0,0:0:0:0:
256,192,106703,1,8,0:0:0:0:
256,192,106885,1,0,0:0:0:0:
256,192,107067,1,0,0:0:0:0:
256,192,107158,1,0,0:0:0:0:
256,192,107248,1,8,0:0:0:0:
256,192,107430,1,8,0:0:0:0:
256,192,107521,1,8,0:0:0:0:
256,192,107612,1,0,0:0:0:0:
256,192,107703,1,0,0:0:0:0:
256,192,107794,1,8,0:0:0:0:
256,192,107976,1,8,0:0:0:0:
256,192,108158,1,0,0:0:0:0:
256,192,108248,1,8,0:0:0:0:
256,192,108339,1,8,0:0:0:0:
256,192,108521,1,0,0:0:0:0:
256,192,108703,1,8,0:0:0:0:
256,192,108885,1,8,0:0:0:0:
256,192,108976,1,8,0:0:0:0:
256,192,109067,1,0,0:0:0:0:
256,192,109248,5,0,0:0:0:0:
256,192,109339,1,8,0:0:0:0:
256,192,109430,1,0,0:0:0:0:
256,192,109521,1,0,0:0:0:0:
256,192,109612,1,8,0:0:0:0:
256,192,109794,1,0,0:0:0:0:
256,192,109976,1,8,0:0:0:0:
256,192,110067,1,8,0:0:0:0:
256,192,110158,1,8,0:0:0:0:
256,192,110339,5,0,0:0:0:0:
256,192,110430,5,0,0:0:0:0:
256,192,110521,5,8,0:0:0:0:
256,192,110612,5,8,0:0:0:0:
256,192,110703,5,0,0:0:0:0:
256,192,110794,5,0,0:0:0:0:
256,192,110885,5,8,0:0:0:0:
256,192,110976,5,8,0:0:0:0:
256,192,111067,5,0,0:0:0:0:
256,192,111158,5,8,0:0:0:0:
256,192,111248,5,0,0:0:0:0:
256,192,111429,1,8,0:0:0:0:
256,192,111611,1,0,0:0:0:0:
256,192,111702,1,8,0:0:0:0:
256,192,111793,1,8,0:0:0:0:
256,192,111975,1,0,0:0:0:0:
256,192,112157,1,8,0:0:0:0:
256,192,112248,1,0,0:0:0:0:
256,192,112338,1,8,0:0:0:0:
256,192,112429,1,8,0:0:0:0:
256,192,112520,1,0,0:0:0:0:
256,192,112702,1,0,0:0:0:0:
256,192,112793,1,0,0:0:0:0:
256,192,112884,1,8,0:0:0:0:
256,192,113066,1,0,0:0:0:0:
256,192,113157,1,8,0:0:0:0:
256,192,113248,1,8,0:0:0:0:
256,192,113429,1,0,0:0:0:0:
256,192,113611,1,8,0:0:0:0:
256,192,113702,1,0,0:0:0:0:
256,192,113793,1,8,0:0:0:0:
256,192,113884,1,0,0:0:0:0:
256,192,113975,1,8,0:0:0:0:
256,192,114157,1,0,0:0:0:0:
256,192,114338,1,0,0:0:0:0:
256,192,114520,1,8,0:0:0:0:
256,192,114611,1,0,0:0:0:0:
256,192,114702,1,8,0:0:0:0:
256,192,114884,1,0,0:0:0:0:
256,192,115066,1,0,0:0:0:0:
256,192,115157,1,8,0:0:0:0:
256,192,115248,1,0,0:0:0:0:
256,192,115338,1,0,0:0:0:0:
256,192,115429,1,8,0:0:0:0:
256,192,115520,1,8,0:0:0:0:
256,192,115611,1,0,0:0:0:0:
256,192,115793,1,8,0:0:0:0:
256,192,115975,5,0,0:0:0:0:
256,192,116157,1,8,0:0:0:0:
256,192,116248,1,8,0:0:0:0:
256,192,116338,1,0,0:0:0:0:
256,192,116520,1,0,0:0:0:0:
256,192,116611,1,0,0:0:0:0:
256,192,116702,1,8,0:0:0:0:
256,192,116793,1,8,0:0:0:0:
256,192,116884,1,0,0:0:0:0:
256,192,117066,5,0,0:0:0:0:
256,192,117157,1,8,0:0:0:0:
256,192,117248,1,0,0:0:0:0:
256,192,117429,1,0,0:0:0:0:
256,192,117520,1,0,0:0:0:0:
256,192,117611,1,8,0:0:0:0:
256,192,117793,1,0,0:0:0:0:
256,192,117975,1,0,0:0:0:0:
256,192,118066,1,8,0:0:0:0:
256,192,118248,1,0,0:0:0:0:
256,192,118338,1,8,0:0:0:0:
256,192,118520,1,0,0:0:0:0:
256,192,118611,1,0,0:0:0:0:
256,192,118702,1,8,0:0:0:0:
256,192,118884,1,0,0:0:0:0:
256,192,119066,1,8,0:0:0:0:
256,192,119157,1,8,0:0:0:0:
256,192,119248,1,0,0:0:0:0:
256,192,119429,1,0,0:0:0:0:
256,192,119520,1,0,0:0:0:0:
256,192,119611,1,8,0:0:0:0:
256,192,119702,1,0,0:0:0:0:
256,192,119793,1,8,0:0:0:0:
256,192,119975,1,8,0:0:0:0:
256,192,120066,1,0,0:0:0:0:
256,192,120157,1,0,0:0:0:0:
256,192,120338,1,8,0:0:0:0:
256,192,120520,1,8,0:0:0:0:
256,192,120611,1,8,0:0:0:0:
256,192,120702,1,0,0:0:0:0:
256,192,120884,5,0,0:0:0:0:
256,192,120975,1,8,0:0:0:0:
256,192,121066,1,8,0:0:0:0:
256,192,121157,1,8,0:0:0:0:
256,192,121248,1,0,0:0:0:0:
256,192,121338,1,0,0:0:0:0:
256,192,121429,1,8,0:0:0:0:
256,192,121611,1,0,0:0:0:0:
256,192,121793,1,8,0:0:0:0:
256,192,121975,1,0,0:0:0:0:
256,192,122066,1,8,0:0:0:0:
256,192,122157,1,0,0:0:0:0:
256,192,122248,1,8,0:0:0:0:
256,192,122338,1,0,0:0:0:0:
256,192,122429,1,0,0:0:0:0:
256,192,122520,1,8,0:0:0:0:
256,192,122611,1,8,0:0:0:0:
256,192,122702,1,0,0:0:0:0:
256,192,122793,1,8,0:0:0:0:
256,192,122884,1,0,0:0:0:0:
256,192,123066,1,8,0:0:0:0:
256,192,123248,1,0,0:0:0:0:
256,192,123338,1,0,0:0:0:0:
256,192,123429,1,8,0:0:0:0:
256,192,123520,1,8,0:0:0:0:
256,192,123611,1,0,0:0:0:0:
256,192,123884,1,8,0:0:0:0:
256,192,124066,1,0,0:0:0:0:
256,192,124157,1,8,0:0:0:0:
256,192,124338,1,0,0:0:0:0:
256,192,124520,1,8,0:0:0:0:
256,192,124702,1,8,0:0:0:0:
256,192,124793,1,8,0:0:0:0:
256,192,124884,1,0,0:0:0:0:
256,192,124975,1,8,0:0:0:0:
256,192,125066,1,0,0:0:0:0:
256,192,125338,1,8,0:0:0:0:
256,192,125520,1,0,0:0:0:0:
256,192,125611,1,8,0:0:0:0:
256,192,125793,1,0,0:0:0:0:
256,192,125975,1,8,0:0:0:0:
256,192,126157,1,0,0:0:0:0:
256,192,126248,1,0,0:0:0:0:
256,192,126338,1,8,0:0:0:0:
256,192,126429,1,8,0:0:0:0:
256,192,126520,1,0,0:0:0:0:
256,192,126793,1,8,0:0:0:0:
256,192,126975,1,0,0:0:0:0:
256,192,127066,1,8,0:0:0:0:
256,192,127248,1,8,0:0:0:0:
256,192,127338,1,8,0:0:0:0:
256,192,127429,1,0,0:0:0:0:
256,192,127520,1,0,0:0:0:0:
256,192,127611,1,8,0:0:0:0:
256,192,127702,1,8,0:0:0:0:
256,192,127793,1,0,0:0:0:0:
256,192,127884,1,0,0:0:0:0:
256,192,127975,1,8,0:0:0:0:
256,192,128066,1,8,0:0:0:0:
256,192,128157,1,0,0:0:0:0:
256,192,128248,1,8,0:0:0:0:
256,192,128338,1,0,0:0:0:0:
256,192,128429,1,0,0:0:0:0:
256,192,128520,1,8,0:0:0:0:
256,192,128611,1,8,0:0:0:0:
256,192,128702,1,0,0:0:0:0:
256,192,128884,1,8,0:0:0:0:
256,192,129066,1,0,0:0:0:0:
256,192,129157,1,0,0:0:0:0:
256,192,129248,1,8,0:0:0:0:
256,192,129338,1,8,0:0:0:0:
256,192,129429,1,0,0:0:0:0:
256,192,129702,1,8,0:0:0:0:
256,192,129884,1,0,0:0:0:0:
256,192,129975,1,8,0:0:0:0:
256,192,130157,1,0,0:0:0:0:
256,192,130338,1,8,0:0:0:0:
256,192,130520,1,8,0:0:0:0:
256,192,130611,1,8,0:0:0:0:
256,192,130702,1,0,0:0:0:0:
256,192,130793,1,8,0:0:0:0:
256,192,130884,1,0,0:0:0:0:
256,192,131157,1,8,0:0:0:0:
256,192,131338,1,0,0:0:0:0:
256,192,131429,1,8,0:0:0:0:
256,192,131611,1,0,0:0:0:0:
256,192,131793,1,8,0:0:0:0:
256,192,131975,1,0,0:0:0:0:
256,192,132066,1,0,0:0:0:0:
256,192,132157,1,8,0:0:0:0:
256,192,132248,1,8,0:0:0:0:
256,192,132338,1,0,0:0:0:0:
256,192,132611,1,8,0:0:0:0:
256,192,132793,1,0,0:0:0:0:
256,192,132884,1,8,0:0:0:0:
256,192,133066,1,8,0:0:0:0:
256,192,133157,1,0,0:0:0:0:
256,192,133248,1,8,0:0:0:0:
256,192,133338,1,8,0:0:0:0:
256,192,133429,1,0,0:0:0:0:
256,192,133520,1,0,0:0:0:0:
256,192,133611,1,8,0:0:0:0:
256,192,133702,1,0,0:0:0:0:
256,192,133793,1,8,0:0:0:0:
256,192,133884,1,0,0:0:0:0:
256,192,133975,1,8,0:0:0:0:
256,192,134066,1,8,0:0:0:0:
256,192,134157,1,0,0:0:0:0:
256,192,134248,1,0,0:0:0:0:
256,192,134338,1,8,0:0:0:0:
256,192,134429,1,8,0:0:0:0:
256,192,134520,1,0,0:0:0:0:
256,192,134611,1,0,0:0:0:0:
256,192,134702,1,8,0:0:0:0:
256,192,134884,1,8,0:0:0:0:
256,192,134975,1,0,0:0:0:0:
256,192,135066,1,8,0:0:0:0:
256,192,135157,1,8,0:0:0:0:
256,192,135248,1,0,0:0:0:0:
256,192,135520,1,8,0:0:0:0:
256,192,135702,1,0,0:0:0:0:
256,192,135793,1,8,0:0:0:0:
256,192,135975,1,0,0:0:0:0:
256,192,136066,1,8,0:0:0:0:
256,192,136157,1,8,0:0:0:0:
256,192,136338,1,8,0:0:0:0:
256,192,136429,1,8,0:0:0:0:
256,192,136520,1,0,0:0:0:0:
256,192,136611,1,8,0:0:0:0:
256,192,136702,1,0,0:0:0:0:
256,192,136975,1,8,0:0:0:0:
256,192,137157,1,0,0:0:0:0:
256,192,137248,1,8,0:0:0:0:
256,192,137429,1,0,0:0:0:0:
256,192,137520,1,0,0:0:0:0:
256,192,137611,1,8,0:0:0:0:
256,192,137793,1,8,0:0:0:0:
256,192,137884,1,0,0:0:0:0:
256,192,137975,1,8,0:0:0:0:
256,192,138066,1,8,0:0:0:0:
256,192,138157,1,0,0:0:0:0:
256,192,138429,1,8,0:0:0:0:
256,192,138611,1,0,0:0:0:0:
256,192,138702,1,8,0:0:0:0:
256,192,138884,1,8,0:0:0:0:
256,192,138975,1,8,0:0:0:0:
256,192,139066,1,0,0:0:0:0:
256,192,139157,1,0,0:0:0:0:
256,192,139248,1,0,0:0:0:0:
256,192,139338,1,8,0:0:0:0:
256,192,139429,1,0,0:0:0:0:
256,192,139520,1,0,0:0:0:0:
256,192,139611,1,8,0:0:0:0:
256,192,139702,1,8,0:0:0:0:
256,192,139793,1,0,0:0:0:0:
256,192,139884,1,8,0:0:0:0:
256,192,139975,1,0,0:0:0:0:
256,192,140066,1,0,0:0:0:0:
256,192,140157,1,8,0:0:0:0:
256,192,140248,1,8,0:0:0:0:
256,192,140338,1,0,0:0:0:0:
256,192,140429,1,0,0:0:0:0:
256,192,140520,1,8,0:0:0:0:
256,192,140702,1,8,0:0:0:0:
256,192,140793,1,0,0:0:0:0:
256,192,140884,1,8,0:0:0:0:
256,192,140975,1,8,0:0:0:0:
256,192,141066,1,0,0:0:0:0:
256,192,141338,1,8,0:0:0:0:
256,192,141520,1,0,0:0:0:0:
256,192,141611,1,8,0:0:0:0:
256,192,141793,1,0,0:0:0:0:
256,192,141884,1,8,0:0:0:0:
256,192,141975,1,8,0:0:0:0:
256,192,142157,1,8,0:0:0:0:
256,192,142248,1,8,0:0:0:0:
256,192,142338,1,0,0:0:0:0:
256,192,142429,1,8,0:0:0:0:
256,192,142520,1,0,0:0:0:0:
256,192,142793,1,8,0:0:0:0:
256,192,142975,1,0,0:0:0:0:
256,192,143066,1,8,0:0:0:0:
256,192,143248,1,0,0:0:0:0:
256,192,143338,1,0,0:0:0:0:
256,192,143429,1,8,0:0:0:0:
256,192,143611,1,8,0:0:0:0:
256,192,143702,1,0,0:0:0:0:
256,192,143793,1,8,0:0:0:0:
256,192,143884,1,8,0:0:0:0:
256,192,143975,1,0,0:0:0:0:
256,192,144248,1,8,0:0:0:0:
256,192,144429,1,0,0:0:0:0:
256,192,144520,1,8,0:0:0:0:
256,192,144702,1,8,0:0:0:0:
256,192,144793,1,0,0:0:0:0:
256,192,144884,1,8,0:0:0:0:
256,192,144975,1,8,0:0:0:0:
256,192,145066,1,0,0:0:0:0:
256,192,145157,1,0,0:0:0:0:
256,192,145248,1,8,0:0:0:0:
256,192,145338,1,0,0:0:0:0:
256,192,145429,1,8,0:0:0:0:
256,192,145520,1,0,0:0:0:0:
256,192,145611,1,8,0:0:0:0:
256,192,145702,1,8,0:0:0:0:
256,192,145793,1,8,0:0:0:0:
256,192,145884,1,0,0:0:0:0:
256,192,145975,1,8,0:0:0:0:
256,192,146066,1,8,0:0:0:0:
256,192,146157,1,0,0:0:0:0:
256,192,146248,1,0,0:0:0:0:
256,192,146338,1,8,0:0:0:0:
256,192,146520,1,0,0:0:0:0:
256,192,146611,1,0,0:0:0:0:
256,192,146702,1,8,0:0:0:0:
256,192,146793,1,8,0:0:0:0:
256,192,146884,1,0,0:0:0:0:
256,192,147157,1,8,0:0:0:0:
256,192,147248,1,0,0:0:0:0:
256,192,147338,1,0,0:0:0:0:
256,192,147429,1,8,0:0:0:0:
256,192,147611,1,8,0:0:0:0:
256,192,147702,1,0,0:0:0:0:
256,192,147793,1,8,0:0:0:0:
256,192,147975,1,8,0:0:0:0:
256,192,148066,1,8,0:0:0:0:
256,192,148157,1,0,0:0:0:0:
256,192,148248,1,8,0:0:0:0:
256,192,148338,1,0,0:0:0:0:
256,192,148611,1,8,0:0:0:0:
256,192,148702,1,0,0:0:0:0:
256,192,148793,1,0,0:0:0:0:
256,192,148884,1,8,0:0:0:0:
256,192,149066,1,8,0:0:0:0:
256,192,149157,1,0,0:0:0:0:
256,192,149248,1,8,0:0:0:0:
256,192,149429,1,0,0:0:0:0:
256,192,149520,1,0,0:0:0:0:
256,192,149611,1,8,0:0:0:0:
256,192,149702,1,8,0:0:0:0:
256,192,149793,1,0,0:0:0:0:
256,192,150066,1,8,0:0:0:0:
256,192,150157,1,0,0:0:0:0:
256,192,150248,1,0,0:0:0:0:
256,192,150338,1,8,0:0:0:0:
256,192,150520,1,0,0:0:0:0:
256,192,150611,1,8,0:0:0:0:
256,192,150702,1,0,0:0:0:0:
256,192,150793,1,0,0:0:0:0:
256,192,150884,1,8,0:0:0:0:
256,192,150975,1,8,0:0:0:0:
256,192,151066,1,0,0:0:0:0:
256,192,151157,1,0,0:0:0:0:
256,192,151248,1,8,0:0:0:0:
256,192,151338,1,8,0:0:0:0:
256,192,151429,1,0,0:0:0:0:
256,192,151520,1,8,0:0:0:0:
256,192,151611,1,0,0:0:0:0:
256,192,151702,1,0,0:0:0:0:
256,192,151793,1,8,0:0:0:0:
256,192,151884,1,8,0:0:0:0:
256,192,151975,1,0,0:0:0:0:
256,192,152066,1,0,0:0:0:0:
256,192,152157,1,8,0:0:0:0:
256,192,152338,1,0,0:0:0:0:
256,192,152429,1,0,0:0:0:0:
256,192,152520,1,8,0:0:0:0:
256,192,152611,1,0,0:0:0:0:
256,192,152702,1,8,0:0:0:0:
256,192,152975,1,8,0:0:0:0:
256,192,153066,1,0,0:0:0:0:
256,192,153157,1,0,0:0:0:0:
256,192,153248,1,8,0:0:0:0:
256,192,153429,1,0,0:0:0:0:
256,192,153520,1,8,0:0:0:0:
256,192,153611,1,8,0:0:0:0:
256,192,153793,1,8,0:0:0:0:
256,192,153884,1,8,0:0:0:0:
256,192,153975,1,0,0:0:0:0:
256,192,154066,1,8,0:0:0:0:
256,192,154157,1,0,0:0:0:0:
256,192,154338,1,0,0:0:0:0:
256,192,154429,1,8,0:0:0:0:
256,192,154611,1,0,0:0:0:0:
256,192,154702,1,8,0:0:0:0:
256,192,154793,1,0,0:0:0:0:
256,192,154884,1,8,0:0:0:0:
256,192,155066,1,8,0:0:0:0:
256,192,155248,1,0,0:0:0:0:
256,192,155338,1,0,0:0:0:0:
256,192,155429,1,8,0:0:0:0:
256,192,155520,1,8,0:0:0:0:
256,192,155611,1,0,0:0:0:0:
256,192,155884,1,8,0:0:0:0:
256,192,155975,1,0,0:0:0:0:
256,192,156066,1,0,0:0:0:0:
256,192,156157,1,8,0:0:0:0:
256,192,156338,1,8,0:0:0:0:
256,192,156520,1,0,0:0:0:0:
256,192,156611,1,8,0:0:0:0:
256,192,156702,1,0,0:0:0:0:
256,192,156793,1,0,0:0:0:0:
256,192,156884,1,8,0:0:0:0:
256,192,156975,1,0,0:0:0:0:
256,192,157066,1,8,0:0:0:0:
256,192,157157,1,0,0:0:0:0:
256,192,157248,1,8,0:0:0:0:
256,192,157338,1,8,0:0:0:0:
256,192,157429,1,0,0:0:0:0:
256,192,157520,1,8,0:0:0:0:
256,192,157611,1,0,0:0:0:0:
256,192,157702,1,8,0:0:0:0:
256,192,157793,1,0,0:0:0:0:
256,192,157884,1,0,0:0:0:0:
256,192,157975,1,8,0:0:0:0:
256,192,158157,1,0,0:0:0:0:
256,192,158248,1,0,0:0:0:0:
256,192,158338,1,8,0:0:0:0:
256,192,158429,1,8,0:0:0:0:
256,192,158520,1,0,0:0:0:0:
256,192,158793,1,8,0:0:0:0:
256,192,158884,1,0,0:0:0:0:
256,192,158975,1,0,0:0:0:0:
256,192,159066,1,8,0:0:0:0:
256,192,159248,1,8,0:0:0:0:
256,192,159338,1,0,0:0:0:0:
256,192,159429,1,8,0:0:0:0:
256,192,159611,1,8,0:0:0:0:
256,192,159702,1,8,0:0:0:0:
256,192,159793,1,0,0:0:0:0:
256,192,159884,1,8,0:0:0:0:
256,192,159975,1,0,0:0:0:0:
256,192,160248,1,8,0:0:0:0:
256,192,160338,1,0,0:0:0:0:
256,192,160429,1,0,0:0:0:0:
256,192,160520,1,8,0:0:0:0:
256,192,160702,1,8,0:0:0:0:
256,192,160793,1,0,0:0:0:0:
256,192,160884,1,8,0:0:0:0:
256,192,161066,1,0,0:0:0:0:
256,192,161157,1,0,0:0:0:0:
256,192,161248,1,8,0:0:0:0:
256,192,161338,1,8,0:0:0:0:
256,192,161429,1,0,0:0:0:0:
256,192,161702,1,8,0:0:0:0:
256,192,161793,1,0,0:0:0:0:
256,192,161884,1,0,0:0:0:0:
256,192,161975,1,8,0:0:0:0:
256,192,162157,1,0,0:0:0:0:
256,192,162248,1,8,0:0:0:0:
256,192,162338,1,0,0:0:0:0:
256,192,162429,1,0,0:0:0:0:
256,192,162520,1,8,0:0:0:0:
256,192,162611,1,8,0:0:0:0:
256,192,162702,1,0,0:0:0:0:
256,192,162793,1,0,0:0:0:0:
256,192,162884,1,8,0:0:0:0:
256,192,162975,1,8,0:0:0:0:
256,192,163066,1,0,0:0:0:0:
256,192,163157,1,8,0:0:0:0:
256,192,163248,1,0,0:0:0:0:
256,192,163338,1,0,0:0:0:0:
256,192,163429,1,8,0:0:0:0:
256,192,163520,1,8,0:0:0:0:
256,192,163611,1,0,0:0:0:0:
256,192,163702,1,0,0:0:0:0:
256,192,163793,1,8,0:0:0:0:
256,192,163975,1,0,0:0:0:0:
256,192,164066,1,0,0:0:0:0:
256,192,164157,1,8,0:0:0:0:
256,192,164248,1,0,0:0:0:0:
256,192,164338,1,8,0:0:0:0:
256,192,164611,1,8,0:0:0:0:
256,192,164702,1,0,0:0:0:0:
256,192,164793,1,0,0:0:0:0:
256,192,164884,1,8,0:0:0:0:
256,192,165066,1,0,0:0:0:0:
256,192,165157,1,8,0:0:0:0:
256,192,165248,1,8,0:0:0:0:
256,192,165429,1,8,0:0:0:0:
256,192,165520,1,8,0:0:0:0:
256,192,165611,1,0,0:0:0:0:
256,192,165702,1,8,0:0:0:0:
256,192,165793,1,0,0:0:0:0:
256,192,166066,1,8,0:0:0:0:
256,192,166157,1,8,0:0:0:0:
256,192,166248,1,0,0:0:0:0:
256,192,166338,1,8,0:0:0:0:
256,192,166429,1,0,0:0:0:0:
256,192,166520,1,8,0:0:0:0:
256,192,166702,1,8,0:0:0:0:
256,192,166884,1,0,0:0:0:0:
256,192,166975,1,0,0:0:0:0:
256,192,167066,1,8,0:0:0:0:
256,192,167157,1,8,0:0:0:0:
256,192,167248,1,0,0:0:0:0:
256,192,167520,1,8,0:0:0:0:
256,192,167611,1,0,0:0:0:0:
256,192,167702,1,0,0:0:0:0:
256,192,167793,1,8,0:0:0:0:
256,192,167975,1,0,0:0:0:0:
256,192,168066,1,0,0:0:0:0:
256,192,168157,1,8,0:0:0:0:
256,192,168248,1,0,0:0:0:0:
256,192,168338,1,8,0:0:0:0:
256,192,168429,1,8,0:0:0:0:
256,192,168520,1,0,0:0:0:0:
256,192,168611,1,8,0:0:0:0:
256,192,168702,1,0,0:0:0:0:
256,192,168793,1,0,0:0:0:0:
256,192,168884,1,8,0:0:0:0:
256,192,168975,1,0,0:0:0:0:
256,192,169066,1,8,0:0:0:0:
256,192,169157,1,8,0:0:0:0:
256,192,169248,1,0,0:0:0:0:
256,192,169429,1,12,0:0:0:0:
