osu file format v14

[General]
AudioFilename: audio.mp3
AudioLeadIn: 0
PreviewTime: 82112
Countdown: 0
SampleSet: Normal
StackLeniency: 0.7
Mode: 1
LetterboxInBreaks: 0
WidescreenStoryboard: 1

[Editor]
DistanceSpacing: 1.3
BeatDivisor: 4
GridSize: 32
TimelineZoom: 1.8

[Metadata]
Title:Machiwabita Oumagatoki
TitleUnicode:待ちわびた逢魔が時
Artist:ZUN
ArtistUnicode:ZUN
Creator:CallMeLyra
Version:Futsuu
Source:東方虹龍洞 〜 Unconnected Marketeers.
Tags:The Long-Awaited Long Awaited Omagatoki th18 UM 菅牧典 Tsukasa Kudamaki Stage 5 Theme rainbow dragon cave Kouryuudou Kouryudou Antti Team Shanghai Alice 東方project touhou 上海アリス幻楽団 Video Game Instrumental
BeatmapID:3362685
BeatmapSetID:1644098

[Difficulty]
HPDrainRate:7
CircleSize:5
OverallDifficulty:4
ApproachRate:5
SliderMultiplier:1.4
SliderTickRate:1

[Events]
//Background and Video events
0,0,"Tsukasa.jpg",0,50
//Break Periods
//Storyboard Layer 0 (Background)
//Storyboard Layer 1 (Fail)
//Storyboard Layer 2 (Pass)
//Storyboard Layer 3 (Foreground)
//Storyboard Layer 4 (Overlay)
//Storyboard Sound Samples

[TimingPoints]
703,363.636363636364,5,1,0,70,1,0
7930,-100,5,1,0,60,0,0
22475,-100,5,1,0,70,0,0
58886,363.636363636364,4,1,0,70,1,0
82158,363.636363636364,5,1,0,70,1,0
111248,363.636363636364,4,1,0,70,1,0
134520,-100,4,1,0,75,0,1
169429,-100,4,1,0,75,0,0

[HitObjects]
256,192,703,5,0,0:0:0:0:
256,192,1066,1,8,0:0:0:0:
256,192,1430,1,0,0:0:0:0:
256,192,1793,1,0,0:0:0:0:
256,192,2157,1,0,0:0:0:0:
256,192,2521,1,0,0:0:0:0:
256,192,2884,1,8,0:0:0:0:
256,192,3248,1,0,0:0:0:0:
256,192,3612,1,0,0:0:0:0:
256,192,3975,1,0,0:0:0:0:
256,192,4339,1,0,0:0:0:0:
256,192,4521,1,0,0:0:0:0:
256,192,4703,1,8,0:0:0:0:
256,192,5066,1,0,0:0:0:0:
256,192,5430,1,0,0:0:0:0:
256,192,5793,1,0,0:0:0:0:
256,192,6157,1,0,0:0:0:0:
256,192,6339,1,0,0:0:0:0:
256,192,6521,1,8,0:0:0:0:
256,192,6884,1,0,0:0:0:0:
256,192,7248,1,0,0:0:0:0:
256,192,7975,5,0,0:0:0:0:
256,192,8521,1,0,0:0:0:0:
256,192,9066,1,8,0:0:0:0:
256,192,9430,1,0,0:0:0:0:
256,192,9793,1,0,0:0:0:0:
256,192,10339,1,8,0:0:0:0:
256,192,10884,1,8,0:0:0:0:
256,192,11248,1,0,0:0:0:0:
256,192,11612,5,0,0:0:0:0:
256,192,12157,1,8,0:0:0:0:
256,192,12703,1,8,0:0:0:0:
256,192,13066,1,8,0:0:0:0:
256,192,13430,1,0,0:0:0:0:
256,192,13793,1,8,0:0:0:0:
256,192,14157,1,8,0:0:0:0:
256,192,14521,1,0,0:0:0:0:
256,192,15248,5,0,0:0:0:0:
256,192,15975,1,8,0:0:0:0:
256,192,16339,1,8,0:0:0:0:
256,192,16703,1,0,0:0:0:0:
256,192,17066,1,0,0:0:0:0:
256,192,17430,1,8,0:0:0:0:
256,192,17793,1,0,0:0:0:0:
256,192,18157,1,0,0:0:0:0:
256,192,18703,1,8,0:0:0:0:
256,192,18884,5,0,0:0:0:0:
256,192,19248,1,8,0:0:0:0:
256,192,19612,1,8,0:0:0:0:
256,192,19975,1,0,0:0:0:0:
256,192,20339,1,8,0:0:0:0:
256,192,20703,1,0,0:0:0:0:
256,192,21248,1,8,0:0:0:0:
256,192,21793,1,0,0:0:0:0:
256,192,22521,5,0,0:0:0:0:
256,192,22703,1,0,0:0:0:0:
256,192,22884,1,8,0:0:0:0:
256,192,23248,1,0,0:0:0:0:
256,192,23612,1,0,0:0:0:0:
256,192,23975,1,0,0:0:0:0:
256,192,24339,1,0,0:0:0:0:
256,192,24521,1,0,0:0:0:0:
256,192,24703,1,8,0:0:0:0:
256,192,25066,1,0,0:0:0:0:
256,192,25430,1,8,0:0:0:0:
256,192,25793,1,0,0:0:0:0:
256,192,26157,1,0,0:0:0:0:
256,192,26339,1,8,0:0:0:0:
256,192,26521,1,8,0:0:0:0:
256,192,26884,1,0,0:0:0:0:
256,192,27248,1,0,0:0:0:0:
256,192,27612,1,0,0:0:0:0:
256,192,27975,1,0,0:0:0:0:
256,192,28157,1,8,0:0:0:0:
256,192,28339,1,8,0:0:0:0:
256,192,28703,1,0,0:0:0:0:
256,192,29066,1,8,0:0:0:0:
256,192,29793,5,0,0:0:0:0:
256,192,30157,1,8,0:0:0:0:
256,192,30339,1,0,0:0:0:0:
256,192,30521,1,8,0:0:0:0:
256,192,30884,1,8,0:0:0:0:
256,192,31248,1,0,0:0:0:0:
256,192,31612,1,0,0:0:0:0:
256,192,31975,1,8,0:0:0:0:
256,192,32157,1,0,0:0:0:0:
256,192,32339,1,0,0:0:0:0:
256,192,32703,1,8,0:0:0:0:
256,192,33066,1,0,0:0:0:0:
256,192,33430,1,0,0:0:0:0:
256,192,33793,1,8,0:0:0:0:
256,192,33975,1,8,0:0:0:0:
256,192,34157,1,0,0:0:0:0:
256,192,34521,1,8,0:0:0:0:
256,192,34884,1,0,0:0:0:0:
256,192,35248,1,0,0:0:0:0:
256,192,35612,1,8,0:0:0:0:
256,192,35793,1,0,0:0:0:0:
256,192,35975,1,8,0:0:0:0:
256,192,36339,1,0,0:0:0:0:
256,192,36703,5,0,0:0:0:0:
256,192,37066,1,0,0:0:0:0:
256,192,37793,1,8,0:0:0:0:
256,192,38157,1,8,0:0:0:0:
256,192,38339,1,8,0:0:0:0:
256,192,38521,1,0,0:0:0:0:
256,192,38884,1,0,0:0:0:0:
256,192,39248,1,8,0:0:0:0:
256,192,39612,1,0,0:0:0:0:
256,192,39975,1,0,0:0:0:0:
256,192,40521,1,8,0:0:0:0:
256,192,40703,1,0,0:0:0:0:
256,192,41066,1,8,0:0:0:0:
256,192,41430,1,8,0:0:0:0:
256,192,41793,1,0,0:0:0:0:
256,192,42157,1,8,0:0:0:0:
256,192,42339,1,0,0:0:0:0:
256,192,42521,1,0,0:0:0:0:
256,192,43066,1,8,0:0:0:0:
256,192,43612,1,8,0:0:0:0:
256,192,44339,5,0,0:0:0:0:
256,192,44703,1,8,0:0:0:0:
256,192,44884,1,0,0:0:0:0:
256,192,45066,1,8,0:0:0:0:
256,192,45430,1,8,0:0:0:0:
256,192,45793,1,0,0:0:0:0:
256,192,46157,1,0,0:0:0:0:
256,192,46521,1,8,0:0:0:0:
256,192,46703,1,0,0:0:0:0:
256,192,46884,1,0,0:0:0:0:
256,192,47248,1,8,0:0:0:0:
256,192,47612,1,0,0:0:0:0:
256,192,47975,1,0,0:0:0:0:
256,192,48339,1,8,0:0:0:0:
256,192,48521,1,8,0:0:0:0:
256,192,48703,1,0,0:0:0:0:
256,192,49066,1,8,0:0:0:0:
256,192,49430,1,0,0:0:0:0:
256,192,49793,1,0,0:0:0:0:
256,192,50157,1,8,0:0:0:0:
256,192,50339,1,0,0:0:0:0:
256,192,50521,1,8,0:0:0:0:
256,192,50884,1,0,0:0:0:0:
256,192,51248,5,0,0:0:0:0:
256,192,51612,1,0,0:0:0:0:
256,192,52339,1,8,0:0:0:0:
256,192,52703,1,8,0:0:0:0:
256,192,52884,1,8,0:0:0:0:
256,192,53066,1,0,0:0:0:0:
256,192,53430,1,0,0:0:0:0:
256,192,53793,1,8,0:0:0:0:
256,192,54157,1,0,0:0:0:0:
256,192,54521,1,0,0:0:0:0:
256,192,55066,1,8,0:0:0:0:
256,192,55248,1,0,0:0:0:0:
256,192,55612,1,8,0:0:0:0:
256,192,55975,1,8,0:0:0:0:
256,192,56339,1,0,0:0:0:0:
256,192,56703,1,8,0:0:0:0:
256,192,56884,1,0,0:0:0:0:
256,192,57066,1,0,0:0:0:0:
256,192,57612,1,8,0:0:0:0:
256,192,58157,1,8,0:0:0:0:
256,192,58884,5,0,0:0:0:0:
256,192,59249,1,0,0:0:0:0:
256,192,59431,1,8,0:0:0:0:
256,192,59795,1,0,0:0:0:0:
256,192,60158,1,0,0:0:0:0:
256,192,60340,1,0,0:0:0:0:
256,192,60704,1,0,0:0:0:0:
256,192,60886,1,8,0:0:0:0:
256,192,61249,1,0,0:0:0:0:
256,192,61431,1,8,0:0:0:0:
256,192,61613,1,8,0:0:0:0:
256,192,61976,1,0,0:0:0:0:
256,192,62158,1,8,0:0:0:0:
256,192,62522,1,0,0:0:0:0:
256,192,62886,1,0,0:0:0:0:
256,192,63067,1,8,0:0:0:0:
256,192,63249,1,0,0:0:0:0:
256,192,63613,5,0,0:0:0:0:
256,192,63795,1,8,0:0:0:0:
256,192,63976,1,8,0:0:0:0:
256,192,64340,1,0,0:0:0:0:
256,192,64886,1,8,0:0:0:0:
256,192,65067,1,0,0:0:0:0:
256,192,65431,1,0,0:0:0:0:
256,192,65704,1,8,0:0:0:0:
256,192,65976,1,8,0:0:0:0:
256,192,66158,1,0,0:0:0:0:
256,192,66522,1,0,0:0:0:0:
256,192,67067,1,0,0:0:0:0:
256,192,67249,1,8,0:0:0:0:
256,192,67613,1,8,0:0:0:0:
256,192,68522,1,0,0:0:0:0:
256,192,68704,1,8,0:0:0:0:
256,192,69067,1,0,0:0:0:0:
256,192,69431,1,8,0:0:0:0:
256,192,69795,1,0,0:0:0:0:
256,192,69976,1,0,0:0:0:0:
256,192,70158,1,8,0:0:0:0:
256,192,70522,1,0,0:0:0:0:
256,192,70886,1,0,0:0:0:0:
256,192,71249,1,0,0:0:0:0:
256,192,71522,1,8,0:0:0:0:
256,192,71795,1,8,0:0:0:0:
256,192,71976,1,0,0:0:0:0:
256,192,72340,1,8,0:0:0:0:
256,192,72704,1,0,0:0:0:0:
256,192,72976,1,8,0:0:0:0:
256,192,73249,1,8,0:0:0:0:
256,192,73431,1,0,0:0:0:0:
256,192,73795,1,0,0:0:0:0:
256,192,74158,1,8,0:0:0:0:
256,192,74431,1,8,0:0:0:0:
256,192,74704,1,8,0:0:0:0:
256,192,74886,1,8,0:0:0:0:
256,192,75613,1,8,0:0:0:0:
256,192,75795,1,8,0:0:0:0:
256,192,75976,1,0,0:0:0:0:
256,192,76340,1,0,0:0:0:0:
256,192,76704,1,0,0:0:0:0:
256,192,77067,1,0,0:0:0:0:
256,192,77340,1,8,0:0:0:0:
256,192,77613,1,8,0:0:0:0:
256,192,77795,1,0,0:0:0:0:
256,192,78158,1,8,0:0:0:0:
256,192,78522,1,0,0:0:0:0:
256,192,78795,1,8,0:0:0:0:
256,192,79067,1,8,0:0:0:0:
256,192,79249,1,0,0:0:0:0:
256,192,79613,1,0,0:0:0:0:
256,192,79976,1,8,0:0:0:0:
256,192,80249,1,8,0:0:0:0:
256,192,80522,1,8,0:0:0:0:
256,192,80704,1,8,0:0:0:0:
256,192,81431,1,8,0:0:0:0:
256,192,81613,1,8,0:0:0:0:
256,192,81795,1,0,0:0:0:0:
256,192,82158,5,0,0:0:0:0:
256,192,82521,1,8,0:0:0:0:
256,192,82703,1,0,0:0:0:0:
256,192,82885,1,8,0:0:0:0:
256,192,83248,1,8,0:0:0:0:
256,192,83612,1,0,0:0:0:0:
256,192,83976,1,0,0:0:0:0:
256,192,84339,1,8,0:0:0:0:
256,192,84521,1,0,0:0:0:0:
256,192,84703,1,0,0:0:0:0:
256,192,85067,1,8,0:0:0:0:
256,192,85430,1,0,0:0:0:0:
256,192,85794,1,0,0:0:0:0:
256,192,86158,1,8,0:0:0:0:
256,192,86339,1,8,0:0:0:0:
256,192,86521,1,0,0:0:0:0:
256,192,86885,1,8,0:0:0:0:
256,192,87248,1,0,0:0:0:0:
256,192,87612,1,0,0:0:0:0:
256,192,87976,1,8,0:0:0:0:
256,192,88158,1,0,0:0:0:0:
256,192,88339,1,8,0:0:0:0:
256,192,88703,1,0,0:0:0:0:
256,192,89067,1,0,0:0:0:0:
256,192,89248,1,8,0:0:0:0:
256,192,89430,5,0,0:0:0:0:
256,192,90158,1,8,0:0:0:0:
256,192,90521,1,8,0:0:0:0:
256,192,90703,1,8,0:0:0:0:
256,192,90885,1,0,0:0:0:0:
256,192,91067,1,8,0:0:0:0:
256,192,91248,1,0,0:0:0:0:
256,192,91612,1,8,0:0:0:0:
256,192,91976,1,0,0:0:0:0:
256,192,92339,1,0,0:0:0:0:
256,192,92885,1,8,0:0:0:0:
256,192,93067,1,0,0:0:0:0:
256,192,93430,1,8,0:0:0:0:
256,192,93612,1,0,0:0:0:0:
256,192,93794,1,8,0:0:0:0:
256,192,94158,1,0,0:0:0:0:
256,192,94521,1,8,0:0:0:0:
256,192,94703,1,0,0:0:0:0:
256,192,94885,1,0,0:0:0:0:
256,192,95430,1,8,0:0:0:0:
256,192,95976,1,8,0:0:0:0:
256,192,96703,5,0,0:0:0:0:
256,192,97067,1,8,0:0:0:0:
256,192,97248,1,0,0:0:0:0:
256,192,97430,1,8,0:0:0:0:
256,192,97794,1,8,0:0:0:0:
256,192,98158,1,0,0:0:0:0:
256,192,98521,1,0,0:0:0:0:
256,192,98885,1,8,0:0:0:0:
256,192,99067,1,0,0:0:0:0:
256,192,99248,1,0,0:0:0:0:
256,192,99612,1,8,0:0:0:0:
256,192,99976,1,0,0:0:0:0:
256,192,100339,1,0,0:0:0:0:
256,192,100703,1,8,0:0:0:0:
256,192,100885,1,8,0:0:0:0:
256,192,101067,1,0,0:0:0:0:
256,192,101430,1,8,0:0:0:0:
256,192,101794,1,0,0:0:0:0:
256,192,102158,1,0,0:0:0:0:
256,192,102521,1,8,0:0:0:0:
256,192,102703,1,0,0:0:0:0:
256,192,102885,1,8,0:0:0:0:
256,192,103248,1,0,0:0:0:0:
256,192,103612,1,0,0:0:0:0:
256,192,103794,1,8,0:0:0:0:
256,192,103976,5,0,0:0:0:0:
256,192,104703,1,8,0:0:0:0:
256,192,105067,1,8,0:0:0:0:
256,192,105248,1,8,0:0:0:0:
256,192,105430,1,0,0:0:0:0:
256,192,105612,1,8,0:0:0:0:
256,192,105794,1,0,0:0:0:0:
256,192,106158,1,8,0:0:0:0:
256,192,106521,1,0,0:0:0:0:
256,192,106885,1,0,0:0:0:0:
256,192,107430,1,8,0:0:0:0:
256,192,107612,1,0,0:0:0:0:
256,192,107976,1,8,0:0:0:0:
256,192,108158,1,0,0:0:0:0:
256,192,108339,1,8,0:0:0:0:
256,192,108703,1,0,0:0:0:0:
256,192,109067,1,8,0:0:0:0:
256,192,109248,1,0,0:0:0:0:
256,192,109430,1,0,0:0:0:0:
256,192,109976,1,8,0:0:0:0:
256,192,110521,1,8,0:0:0:0:
256,192,111248,5,0,0:0:0:0:
256,192,111611,1,0,0:0:0:0:
256,192,111793,1,8,0:0:0:0:
256,192,112157,1,0,0:0:0:0:
256,192,112520,1,0,0:0:0:0:
256,192,112702,1,0,0:0:0:0:
256,192,113066,1,0,0:0:0:0:
256,192,113248,1,8,0:0:0:0:
256,192,113611,1,0,0:0:0:0:
256,192,113793,1,8,0:0:0:0:
256,192,113975,1,8,0:0:0:0:
256,192,114338,1,0,0:0:0:0:
256,192,114520,1,8,0:0:0:0:
256,192,114884,1,0,0:0:0:0:
256,192,115248,1,0,0:0:0:0:
256,192,115429,1,8,0:0:0:0:
256,192,115611,1,0,0:0:0:0:
256,192,115975,5,0,0:0:0:0:
256,192,116157,1,8,0:0:0:0:
256,192,116338,1,8,0:0:0:0:
256,192,116702,1,0,0:0:0:0:
256,192,117248,1,8,0:0:0:0:
256,192,117429,1,0,0:0:0:0:
256,192,117793,1,0,0:0:0:0:
256,192,118066,1,8,0:0:0:0:
256,192,118338,1,8,0:0:0:0:
256,192,118520,1,0,0:0:0:0:
256,192,118884,1,0,0:0:0:0:
256,192,119429,1,0,0:0:0:0:
256,192,119611,1,8,0:0:0:0:
256,192,119975,1,8,0:0:0:0:
256,192,120884,1,0,0:0:0:0:
256,192,121066,1,8,0:0:0:0:
256,192,121429,1,0,0:0:0:0:
256,192,121793,1,0,0:0:0:0:
256,192,122157,1,0,0:0:0:0:
256,192,122338,1,0,0:0:0:0:
256,192,122520,1,8,0:0:0:0:
256,192,122884,1,0,0:0:0:0:
256,192,123248,1,0,0:0:0:0:
256,192,123611,1,0,0:0:0:0:
256,192,123884,1,8,0:0:0:0:
256,192,124157,1,8,0:0:0:0:
256,192,124338,1,0,0:0:0:0:
256,192,124702,1,8,0:0:0:0:
256,192,125066,1,0,0:0:0:0:
256,192,125338,1,8,0:0:0:0:
256,192,125611,1,8,0:0:0:0:
256,192,125793,1,0,0:0:0:0:
256,192,126157,1,0,0:0:0:0:
256,192,126520,1,8,0:0:0:0:
256,192,126793,1,8,0:0:0:0:
256,192,127066,1,8,0:0:0:0:
256,192,127248,1,8,0:0:0:0:
256,192,127975,1,8,0:0:0:0:
256,192,128157,1,8,0:0:0:0:
256,192,128338,1,0,0:0:0:0:
256,192,128702,1,0,0:0:0:0:
256,192,129066,1,0,0:0:0:0:
256,192,129429,1,0,0:0:0:0:
256,192,129702,1,8,0:0:0:0:
256,192,129975,1,8,0:0:0:0:
256,192,130157,1,0,0:0:0:0:
256,192,130520,1,8,0:0:0:0:
256,192,130884,1,0,0:0:0:0:
256,192,131157,1,8,0:0:0:0:
256,192,131429,1,8,0:0:0:0:
256,192,131611,1,0,0:0:0:0:
256,192,131975,1,0,0:0:0:0:
256,192,132338,1,8,0:0:0:0:
256,192,132611,1,8,0:0:0:0:
256,192,132884,1,8,0:0:0:0:
256,192,133066,1,8,0:0:0:0:
256,192,133793,5,8,0:0:0:0:
256,192,133975,1,8,0:0:0:0:
256,192,134157,1,0,0:0:0:0:
256,192,134520,1,0,0:0:0:0:
256,192,134884,1,0,0:0:0:0:
256,192,135248,1,0,0:0:0:0:
256,192,135520,1,8,0:0:0:0:
256,192,135793,1,8,0:0:0:0:
256,192,135975,1,0,0:0:0:0:
256,192,136338,1,8,0:0:0:0:
256,192,136702,1,0,0:0:0:0:
256,192,136975,1,8,0:0:0:0:
256,192,137248,1,8,0:0:0:0:
256,192,137429,1,0,0:0:0:0:
256,192,137793,1,0,0:0:0:0:
256,192,138157,1,8,0:0:0:0:
256,192,138429,1,8,0:0:0:0:
256,192,138702,1,8,0:0:0:0:
256,192,138884,1,8,0:0:0:0:
256,192,139611,1,8,0:0:0:0:
256,192,139793,1,8,0:0:0:0:
256,192,139975,1,0,0:0:0:0:
256,192,140157,1,8,0:0:0:0:
256,192,140338,1,0,0:0:0:0:
256,192,140702,1,0,0:0:0:0:
256,192,141066,1,0,0:0:0:0:
256,192,141338,1,8,0:0:0:0:
256,192,141611,1,8,0:0:0:0:
256,192,141793,1,0,0:0:0:0:
256,192,142157,1,8,0:0:0:0:
256,192,142520,1,0,0:0:0:0:
256,192,142793,1,8,0:0:0:0:
256,192,143066,1,8,0:0:0:0:
256,192,143248,1,0,0:0:0:0:
256,192,143611,1,0,0:0:0:0:
256,192,143975,1,8,0:0:0:0:
256,192,144248,1,8,0:0:0:0:
256,192,144520,1,8,0:0:0:0:
256,192,144702,1,8,0:0:0:0:
256,192,145429,5,8,0:0:0:0:
256,192,145611,1,8,0:0:0:0:
256,192,145793,1,0,0:0:0:0:
256,192,145975,1,8,0:0:0:0:
256,192,146157,1,0,0:0:0:0:
256,192,146520,1,0,0:0:0:0:
256,192,146884,1,0,0:0:0:0:
256,192,147157,1,8,0:0:0:0:
256,192,147429,1,8,0:0:0:0:
256,192,147611,1,0,0:0:0:0:
256,192,147975,1,8,0:0:0:0:
256,192,148338,1,0,0:0:0:0:
256,192,148611,1,8,0:0:0:0:
256,192,148884,1,8,0:0:0:0:
256,192,149066,1,0,0:0:0:0:
256,192,149429,1,0,0:0:0:0:
256,192,149793,1,8,0:0:0:0:
256,192,150066,1,8,0:0:0:0:
256,192,150338,1,8,0:0:0:0:
256,192,150520,1,8,0:0:0:0:
256,192,151248,1,0,0:0:0:0:
256,192,151520,1,8,0:0:0:0:
256,192,151793,1,8,0:0:0:0:
256,192,151975,1,0,0:0:0:0:
256,192,152338,1,0,0:0:0:0:
256,192,152702,1,0,0:0:0:0:
256,192,152975,1,8,0:0:0:0:
256,192,153248,1,8,0:0:0:0:
256,192,153429,1,0,0:0:0:0:
256,192,153793,1,8,0:0:0:0:
256,192,154157,1,0,0:0:0:0:
256,192,154429,1,8,0:0:0:0:
256,192,154702,1,8,0:0:0:0:
256,192,154884,1,0,0:0:0:0:
256,192,155248,1,0,0:0:0:0:
256,192,155611,1,8,0:0:0:0:
256,192,155884,1,8,0:0:0:0:
256,192,156157,1,8,0:0:0:0:
256,192,156338,1,8,0:0:0:0:
256,192,157066,5,8,0:0:0:0:
256,192,157248,1,8,0:0:0:0:
256,192,157429,1,0,0:0:0:0:
256,192,157611,1,8,0:0:0:0:
256,192,157793,1,0,0:0:0:0:
256,192,158157,1,0,0:0:0:0:
256,192,158520,1,0,0:0:0:0:
256,192,158793,1,8,0:0:0:0:
256,192,159066,1,8,0:0:0:0:
256,192,159248,1,0,0:0:0:0:
256,192,159611,1,8,0:0:0:0:
256,192,159975,1,0,0:0:0:0:
256,192,160248,1,8,0:0:0:0:
256,192,160520,1,8,0:0:0:0:
256,192,160702,1,0,0:0:0:0:
256,192,161066,1,0,0:0:0:0:
256,192,161429,1,8,0:0:0:0:
256,192,161702,1,8,0:0:0:0:
256,192,161975,1,8,0:0:0:0:
256,192,162157,1,8,0:0:0:0:
256,192,162884,1,8,0:0:0:0:
256,192,163066,1,8,0:0:0:0:
256,192,163248,1,0,0:0:0:0:
256,192,163611,1,8,0:0:0:0:
256,192,163975,1,0,0:0:0:0:
256,192,164338,1,0,0:0:0:0:
256,192,164611,1,8,0:0:0:0:
256,192,164884,1,8,0:0:0:0:
256,192,165066,1,0,0:0:0:0:
256,192,165429,1,8,0:0:0:0:
256,192,165793,1,0,0:0:0:0:
256,192,166066,1,8,0:0:0:0:
256,192,166338,1,8,0:0:0:0:
256,192,166520,1,0,0:0:0:0:
256,192,166884,5,0,0:0:0:0:
256,192,167248,1,8,0:0:0:0:
256,192,167520,1,8,0:0:0:0:
256,192,167793,1,8,0:0:0:0:
256,192,167975,1,0,0:0:0:0:
256,192,168248,1,0,0:0:0:0:
256,192,168520,1,0,0:0:0:0:
256,192,168702,1,0,0:0:0:0:
256,192,168975,1,0,0:0:0:0:
256,192,169429,5,12,0:0:0:0:
