osu file format v14

[General]
AudioFilename: Luna Dial.mp3
AudioLeadIn: 0
PreviewTime: 39738
Countdown: 0
SampleSet: Normal
StackLeniency: 0.7
Mode: 3
LetterboxInBreaks: 0
SpecialStyle: 0
WidescreenStoryboard: 0

[Editor]
DistanceSpacing: 0.8
BeatDivisor: 4
GridSize: 32
TimelineZoom: 1.4

[Metadata]
Title:Tsukidokei ~ Luna Dial
TitleUnicode:月時計 ~ ルナ・ダイアル
Artist:ZUN
ArtistUnicode:ZUN
Creator:Mage
Version:Hard
Source:東方紅魔郷 ~ the Embodiment of Scarlet Devil.
Tags:lunar clock runa daiaru touhou project eosd sakuya izayoi
BeatmapID:810829
BeatmapSetID:369857

[Difficulty]
HPDrainRate:8
CircleSize:8
OverallDifficulty:8
ApproachRate:5
SliderMultiplier:1.4
SliderTickRate:1

[Events]
//Background and Video events
0,0,"BG.jpg",0,0
//Break Periods
//Storyboard Layer 0 (Background)
//Storyboard Layer 1 (Fail)
//Storyboard Layer 2 (Pass)
//Storyboard Layer 3 (Foreground)
//Storyboard Sound Samples

[TimingPoints]
286.193277310924,410.958904109589,4,1,1,25,1,0
52888,-100,4,1,1,25,0,1
79190,-100,4,1,1,25,0,0

[HitObjects]
96,192,286,5,0,0:0:0:0:
480,192,286,1,0,0:0:0:0:
416,192,697,1,0,0:0:0:0:
352,192,799,1,0,0:0:0:0:
160,192,902,1,0,0:0:0:0:
224,192,1005,1,0,0:0:0:0:
352,192,1416,1,0,0:0:0:0:
96,192,1519,1,0,0:0:0:0:
224,192,1621,1,0,0:0:0:0:
480,192,1724,1,0,0:0:0:0:
352,192,1827,1,0,0:0:0:0:
96,192,1930,1,0,0:0:0:0:
224,192,1930,1,0,0:0:0:0:
416,192,2340,1,0,0:0:0:0:
32,192,2546,1,4,0:0:0:0:
224,192,2546,1,8,0:0:0:0:
32,192,2751,1,4,0:0:0:0:
352,192,2751,1,8,0:0:0:0:
224,192,2957,1,8,0:0:0:0:
32,192,2957,1,4,0:0:0:0:
352,192,3162,1,8,0:0:0:0:
32,192,3162,1,4,0:0:0:0:
224,192,3368,1,8,0:0:0:0:
32,192,3368,1,4,0:0:0:0:
32,192,3573,1,4,0:0:0:0:
480,192,3573,1,0,0:0:0:0:
352,192,3573,1,8,0:0:0:0:
96,192,3984,1,0,0:0:0:0:
160,192,4087,1,0,0:0:0:0:
480,192,4190,1,0,0:0:0:0:
416,192,4293,1,0,0:0:0:0:
480,192,4704,1,0,0:0:0:0:
352,192,4806,1,0,0:0:0:0:
96,192,4909,1,0,0:0:0:0:
224,192,5012,1,0,0:0:0:0:
480,192,5012,1,0,0:0:0:0:
352,192,5114,1,0,0:0:0:0:
224,192,5217,1,0,0:0:0:0:
96,192,5217,1,0,0:0:0:0:
160,192,5628,1,0,0:0:0:0:
32,192,5834,1,4,0:0:0:0:
352,192,5834,1,8,0:0:0:0:
32,192,6039,1,4,0:0:0:0:
224,192,6039,1,8,0:0:0:0:
32,192,6245,1,4,0:0:0:0:
352,192,6245,1,8,0:0:0:0:
32,192,6450,1,4,0:0:0:0:
224,192,6450,1,8,0:0:0:0:
32,192,6656,1,4,0:0:0:0:
352,192,6656,1,8,0:0:0:0:
480,192,6861,1,0,0:0:0:0:
96,192,6861,1,0,0:0:0:0:
288,192,6861,1,0,0:0:0:0:
32,192,6861,1,4,0:0:0:0:
416,192,7067,1,8,0:0:0:0:
96,192,7272,1,0,0:0:0:0:
160,192,7375,1,0,0:0:0:0:
224,192,7477,1,0,0:0:0:0:
352,192,7477,1,8,0:0:0:0:
160,192,7683,1,0,0:0:0:0:
480,192,7888,1,8,0:0:0:0:
416,192,7991,1,0,0:0:0:0:
352,192,8094,1,0,0:0:0:0:
96,192,8094,1,0,0:0:0:0:
160,192,8197,1,0,0:0:0:0:
224,192,8299,1,8,0:0:0:0:
352,192,8505,1,0,0:0:0:0:
160,192,8710,1,8,0:0:0:0:
480,192,8916,1,0,0:0:0:0:
416,192,9019,1,0,0:0:0:0:
352,192,9121,1,4,0:0:0:0:
224,192,9121,1,8,0:0:0:0:
96,192,9327,1,4,0:0:0:0:
480,192,9327,1,0,0:0:0:0:
224,192,9532,1,4,0:0:0:0:
288,192,9532,1,8,0:0:0:0:
96,192,9738,1,4,0:0:0:0:
480,192,9738,1,0,0:0:0:0:
224,192,9943,1,8,0:0:0:0:
288,192,9943,1,4,0:0:0:0:
32,192,10149,1,4,0:0:0:0:
352,192,10149,1,8,0:0:0:0:
96,192,10149,1,0,0:0:0:0:
224,192,10354,1,8,0:0:0:0:
480,192,10354,1,0,0:0:0:0:
352,192,10560,1,8,0:0:0:0:
96,192,10560,1,0,0:0:0:0:
224,192,10765,1,8,0:0:0:0:
480,192,10971,1,0,0:0:0:0:
352,192,10971,1,8,0:0:0:0:
32,192,10971,1,4,0:0:0:0:
224,192,11176,1,8,0:0:0:0:
96,192,11382,1,8,0:0:0:0:
480,192,11382,1,0,0:0:0:0:
352,192,11587,1,8,0:0:0:0:
480,192,11793,1,8,0:0:0:0:
96,192,11793,1,0,0:0:0:0:
32,192,11793,1,4,0:0:0:0:
352,192,11998,1,8,0:0:0:0:
224,192,12204,1,8,0:0:0:0:
96,192,12204,1,0,0:0:0:0:
352,192,12409,1,8,0:0:0:0:
96,192,12614,1,0,0:0:0:0:
480,192,12614,1,8,0:0:0:0:
32,192,12614,1,4,0:0:0:0:
160,192,12820,1,8,0:0:0:0:
416,192,12820,1,0,0:0:0:0:
224,192,13025,1,0,0:0:0:0:
352,192,13025,1,8,0:0:0:0:
480,192,13231,1,0,0:0:0:0:
288,192,13231,1,8,0:0:0:0:
160,192,13436,1,0,0:0:0:0:
32,192,13436,1,4,0:0:0:0:
352,192,13847,1,8,0:0:0:0:
224,192,14053,1,8,0:0:0:0:
224,192,14430,1,0,0:0:0:0:
96,192,14532,1,0,0:0:0:0:
288,192,14635,1,0,0:0:0:0:
160,192,14738,1,0,0:0:0:0:
352,192,14840,1,0,0:0:0:0:
224,192,14943,1,0,0:0:0:0:
32,192,15080,1,4,0:0:0:0:
480,192,15080,1,0,0:0:0:0:
160,192,15491,1,8,0:0:0:0:
416,192,15697,1,8,0:0:0:0:
352,192,16073,1,0,0:0:0:0:
480,192,16176,1,0,0:0:0:0:
288,192,16279,1,0,0:0:0:0:
416,192,16382,1,0,0:0:0:0:
224,192,16484,1,0,0:0:0:0:
352,192,16587,1,0,0:0:0:0:
32,192,16724,1,4,0:0:0:0:
96,192,16724,1,0,0:0:0:0:
352,192,17135,1,8,0:0:0:0:
224,192,17340,1,8,0:0:0:0:
288,192,17717,1,0,0:0:0:0:
96,192,17820,1,0,0:0:0:0:
352,192,17923,1,0,0:0:0:0:
160,192,18025,1,0,0:0:0:0:
416,192,18128,1,0,0:0:0:0:
224,192,18231,1,0,0:0:0:0:
32,192,18368,1,4,0:0:0:0:
480,192,18368,1,0,0:0:0:0:
224,192,18779,1,8,0:0:0:0:
352,192,18984,1,8,0:0:0:0:
288,192,19361,1,0,0:0:0:0:
480,192,19464,1,0,0:0:0:0:
224,192,19567,1,0,0:0:0:0:
416,192,19669,1,0,0:0:0:0:
160,192,19772,1,0,0:0:0:0:
352,192,19875,1,0,0:0:0:0:
32,192,20012,1,4,0:0:0:0:
96,192,20012,1,0,0:0:0:0:
352,192,20320,1,0,0:0:0:0:
288,192,20320,1,8,0:0:0:0:
96,192,20628,1,0,0:0:0:0:
160,192,20834,1,0,0:0:0:0:
224,192,21039,1,0,0:0:0:0:
352,192,21039,1,8,0:0:0:0:
480,192,21245,1,0,0:0:0:0:
416,192,21450,1,0,0:0:0:0:
352,192,21656,1,8,0:0:0:0:
288,192,21656,1,0,0:0:0:0:
96,192,21861,1,0,0:0:0:0:
224,192,21964,1,8,0:0:0:0:
416,192,21964,1,0,0:0:0:0:
352,192,22272,1,0,0:0:0:0:
160,192,22477,1,8,0:0:0:0:
32,192,22477,1,4,0:0:0:0:
224,192,22683,1,0,0:0:0:0:
480,192,22888,1,0,0:0:0:0:
352,192,22991,1,0,0:0:0:0:
224,192,23094,1,8,0:0:0:0:
32,192,23094,1,4,0:0:0:0:
288,192,23299,1,0,0:0:0:0:
160,192,23505,1,0,0:0:0:0:
416,192,23710,1,0,0:0:0:0:
32,192,23710,1,4,0:0:0:0:
288,192,24019,1,0,0:0:0:0:
352,192,24121,1,8,0:0:0:0:
96,192,24121,1,0,0:0:0:0:
224,192,24327,1,0,0:0:0:0:
288,192,24532,1,0,0:0:0:0:
96,192,24738,1,0,0:0:0:0:
416,192,24738,1,8,0:0:0:0:
160,192,24840,1,8,0:0:0:0:
224,192,24943,1,0,0:0:0:0:
32,192,24943,1,4,0:0:0:0:
352,192,25251,1,8,0:0:0:0:
96,192,25251,1,0,0:0:0:0:
480,192,25560,1,0,0:0:0:0:
224,192,25765,1,0,0:0:0:0:
288,192,25971,1,8,0:0:0:0:
416,192,25971,1,0,0:0:0:0:
96,192,26176,1,0,0:0:0:0:
160,192,26382,1,0,0:0:0:0:
224,192,26587,1,8,0:0:0:0:
480,192,26587,1,0,0:0:0:0:
416,192,26793,1,0,0:0:0:0:
352,192,26895,1,8,0:0:0:0:
160,192,26895,1,0,0:0:0:0:
224,192,26998,1,0,0:0:0:0:
96,192,27204,1,0,0:0:0:0:
288,192,27409,1,0,0:0:0:0:
224,192,27614,1,0,0:0:0:0:
416,192,27820,1,0,0:0:0:0:
352,192,27923,1,0,0:0:0:0:
288,192,28025,1,0,0:0:0:0:
32,192,28025,1,8,0:0:0:0:
160,192,28231,1,0,0:0:0:0:
288,192,28436,1,0,0:0:0:0:
416,192,28642,1,0,0:0:0:0:
32,192,28642,1,8,0:0:0:0:
352,192,28847,1,0,0:0:0:0:
160,192,28950,1,0,0:0:0:0:
288,192,29053,1,0,0:0:0:0:
416,192,29156,1,0,0:0:0:0:
224,192,29258,1,0,0:0:0:0:
32,192,29258,1,8,0:0:0:0:
352,192,29464,1,0,0:0:0:0:
288,192,29669,1,0,0:0:0:0:
480,192,29772,1,0,0:0:0:0:
416,192,29875,1,0,0:0:0:0:
32,192,29875,1,12,0:0:0:0:
160,192,30080,1,0,0:0:0:0:
352,192,30183,1,8,0:0:0:0:
224,192,30183,1,0,0:0:0:0:
480,192,30388,1,0,0:0:0:0:
416,192,30491,1,0,0:0:0:0:
288,192,30697,1,0,0:0:0:0:
96,192,30902,1,0,0:0:0:0:
160,192,30902,1,8,0:0:0:0:
224,192,31005,1,0,0:0:0:0:
480,192,31108,1,0,0:0:0:0:
288,192,31313,1,0,0:0:0:0:
160,192,31416,1,0,0:0:0:0:
224,192,31519,1,0,0:0:0:0:
96,192,31724,1,0,0:0:0:0:
416,192,31724,1,8,0:0:0:0:
480,192,31930,1,0,0:0:0:0:
288,192,32032,1,0,0:0:0:0:
416,192,32135,1,0,0:0:0:0:
160,192,32340,1,0,0:0:0:0:
32,192,32340,1,4,0:0:0:0:
352,192,32546,1,0,0:0:0:0:
288,192,32649,1,8,0:0:0:0:
96,192,32649,1,0,0:0:0:0:
480,192,32854,1,0,0:0:0:0:
352,192,32957,1,0,0:0:0:0:
32,192,32957,1,4,0:0:0:0:
160,192,33162,1,0,0:0:0:0:
224,192,33368,1,8,0:0:0:0:
416,192,33368,1,0,0:0:0:0:
352,192,33471,1,0,0:0:0:0:
480,192,33573,1,0,0:0:0:0:
32,192,33573,1,4,0:0:0:0:
288,192,33676,1,0,0:0:0:0:
416,192,33779,1,8,0:0:0:0:
160,192,33882,1,0,0:0:0:0:
288,192,33984,1,0,0:0:0:0:
96,192,34087,1,0,0:0:0:0:
224,192,34190,1,8,0:0:0:0:
352,192,34293,1,0,0:0:0:0:
160,192,34395,1,0,0:0:0:0:
416,192,34498,1,0,0:0:0:0:
224,192,34601,1,8,0:0:0:0:
480,192,34704,1,0,0:0:0:0:
352,192,34806,1,0,0:0:0:0:
32,192,34806,1,4,0:0:0:0:
224,192,35012,1,0,0:0:0:0:
288,192,35114,1,8,0:0:0:0:
416,192,35114,1,0,0:0:0:0:
352,192,35320,1,0,0:0:0:0:
160,192,35423,1,0,0:0:0:0:
96,192,35628,1,0,0:0:0:0:
288,192,35834,1,8,0:0:0:0:
480,192,35834,1,0,0:0:0:0:
224,192,35936,1,0,0:0:0:0:
416,192,36039,1,0,0:0:0:0:
352,192,36245,1,8,0:0:0:0:
96,192,36245,1,0,0:0:0:0:
416,192,36347,1,0,0:0:0:0:
160,192,36450,1,0,0:0:0:0:
480,192,36656,1,0,0:0:0:0:
288,192,36656,1,8,0:0:0:0:
416,192,36861,1,0,0:0:0:0:
224,192,36964,1,0,0:0:0:0:
352,192,37067,1,0,0:0:0:0:
32,192,37272,1,12,0:0:0:0:
480,192,37272,1,0,0:0:0:0:
352,192,37375,1,0,0:0:0:0:
224,192,37477,1,0,0:0:0:0:
96,192,37580,1,0,0:0:0:0:
224,192,37683,1,0,0:0:0:0:
352,192,37786,1,0,0:0:0:0:
32,192,37888,1,12,0:0:0:0:
480,192,37888,1,0,0:0:0:0:
160,192,37991,1,0,0:0:0:0:
288,192,38094,1,0,0:0:0:0:
416,192,38197,1,0,0:0:0:0:
288,192,38299,1,0,0:0:0:0:
160,192,38402,1,0,0:0:0:0:
32,192,38505,1,12,0:0:0:0:
480,192,38505,1,0,0:0:0:0:
352,192,38608,1,0,0:0:0:0:
224,192,38710,1,0,0:0:0:0:
96,192,38813,1,0,0:0:0:0:
224,192,38916,1,0,0:0:0:0:
352,192,39019,1,0,0:0:0:0:
32,192,39121,1,12,0:0:0:0:
480,192,39121,1,0,0:0:0:0:
160,192,39224,1,0,0:0:0:0:
288,192,39327,1,0,0:0:0:0:
416,192,39430,1,0,0:0:0:0:
288,192,39532,1,0,0:0:0:0:
160,192,39635,1,0,0:0:0:0:
352,192,39738,1,0,0:0:0:0:
96,192,39738,1,4,0:0:0:0:
224,192,39943,1,0,0:0:0:0:
160,192,40149,1,0,0:0:0:0:
416,192,40149,1,8,0:0:0:0:
352,192,40354,1,0,0:0:0:0:
288,192,40560,1,0,0:0:0:0:
480,192,40560,1,0,0:0:0:0:
32,192,40560,1,0,0:0:0:0:
96,192,40765,1,0,0:0:0:0:
160,192,40868,1,0,0:0:0:0:
480,192,40971,1,0,0:0:0:0:
224,192,40971,1,8,0:0:0:0:
416,192,41073,1,0,0:0:0:0:
352,192,41176,1,0,0:0:0:0:
480,192,41382,1,0,0:0:0:0:
288,192,41382,1,0,0:0:0:0:
416,192,41587,1,0,0:0:0:0:
96,192,41793,1,0,0:0:0:0:
352,192,41793,1,8,0:0:0:0:
160,192,41998,1,0,0:0:0:0:
224,192,42204,1,0,0:0:0:0:
416,192,42204,1,0,0:0:0:0:
32,192,42204,1,0,0:0:0:0:
96,192,42409,1,0,0:0:0:0:
160,192,42512,1,0,0:0:0:0:
480,192,42614,1,0,0:0:0:0:
224,192,42614,1,8,0:0:0:0:
416,192,42820,1,0,0:0:0:0:
352,192,43025,1,0,0:0:0:0:
96,192,43025,1,0,0:0:0:0:
32,192,43025,1,0,0:0:0:0:
224,192,43231,1,0,0:0:0:0:
288,192,43436,1,8,0:0:0:0:
480,192,43436,1,0,0:0:0:0:
96,192,43642,1,0,0:0:0:0:
416,192,43847,1,0,0:0:0:0:
160,192,44053,1,0,0:0:0:0:
224,192,44156,1,0,0:0:0:0:
288,192,44258,1,0,0:0:0:0:
480,192,44258,1,8,0:0:0:0:
416,192,44361,1,0,0:0:0:0:
352,192,44464,1,0,0:0:0:0:
96,192,44464,1,0,0:0:0:0:
160,192,44567,1,0,0:0:0:0:
480,192,44669,1,0,0:0:0:0:
224,192,44669,1,0,0:0:0:0:
32,192,44669,1,0,0:0:0:0:
416,192,44875,1,0,0:0:0:0:
96,192,45080,1,8,0:0:0:0:
352,192,45080,1,0,0:0:0:0:
224,192,45286,1,0,0:0:0:0:
352,192,45491,1,0,0:0:0:0:
160,192,45491,1,0,0:0:0:0:
480,192,45697,1,0,0:0:0:0:
416,192,45799,1,0,0:0:0:0:
352,192,45902,1,8,0:0:0:0:
96,192,45902,1,0,0:0:0:0:
160,192,46005,1,0,0:0:0:0:
224,192,46108,1,0,0:0:0:0:
96,192,46313,1,0,0:0:0:0:
480,192,46313,1,0,0:0:0:0:
416,192,46519,1,0,0:0:0:0:
352,192,46724,1,0,0:0:0:0:
96,192,46724,1,8,0:0:0:0:
160,192,46930,1,0,0:0:0:0:
224,192,47135,1,0,0:0:0:0:
480,192,47135,1,0,0:0:0:0:
32,192,47135,1,0,0:0:0:0:
416,192,47340,1,0,0:0:0:0:
352,192,47443,1,0,0:0:0:0:
288,192,47546,1,8,0:0:0:0:
96,192,47546,1,0,0:0:0:0:
160,192,47649,1,0,0:0:0:0:
224,192,47751,1,0,0:0:0:0:
96,192,47957,1,0,0:0:0:0:
416,192,47957,1,0,0:0:0:0:
160,192,48162,1,0,0:0:0:0:
224,192,48368,1,0,0:0:0:0:
352,192,48368,1,8,0:0:0:0:
416,192,48573,1,0,0:0:0:0:
480,192,48779,1,0,0:0:0:0:
288,192,48779,1,0,0:0:0:0:
32,192,48779,1,0,0:0:0:0:
96,192,48984,1,0,0:0:0:0:
160,192,49087,1,0,0:0:0:0:
224,192,49190,1,0,0:0:0:0:
416,192,49190,1,8,0:0:0:0:
352,192,49395,1,0,0:0:0:0:
480,192,49601,1,0,0:0:0:0:
96,192,49601,1,0,0:0:0:0:
32,192,49601,1,0,0:0:0:0:
416,192,49806,1,0,0:0:0:0:
352,192,50012,1,8,0:0:0:0:
224,192,50012,1,0,0:0:0:0:
160,192,50217,1,0,0:0:0:0:
480,192,50423,1,0,0:0:0:0:
288,192,50423,1,0,0:0:0:0:
416,192,50628,1,0,0:0:0:0:
352,192,50731,1,0,0:0:0:0:
288,192,50834,1,8,0:0:0:0:
96,192,50834,1,0,0:0:0:0:
160,192,50936,1,0,0:0:0:0:
224,192,51039,1,0,0:0:0:0:
480,192,51039,1,0,0:0:0:0:
416,192,51142,1,0,0:0:0:0:
96,192,51245,1,0,0:0:0:0:
352,192,51245,1,0,0:0:0:0:
32,192,51245,1,0,0:0:0:0:
160,192,51450,1,0,0:0:0:0:
480,192,51656,1,0,0:0:0:0:
224,192,51656,1,8,0:0:0:0:
416,192,51861,1,0,0:0:0:0:
96,192,52067,1,0,0:0:0:0:
352,192,52067,1,0,0:0:0:0:
160,192,52272,1,0,0:0:0:0:
224,192,52375,1,0,0:0:0:0:
288,192,52477,1,8,0:0:0:0:
480,192,52477,1,0,0:0:0:0:
416,192,52580,1,0,0:0:0:0:
352,192,52683,1,0,0:0:0:0:
32,192,52888,5,4,0:0:0:0:
96,192,52888,1,0,0:0:0:0:
224,192,52888,1,8,0:0:0:0:
352,192,53094,1,0,0:0:0:0:
480,192,53094,1,0,0:0:0:0:
288,192,53197,1,0,0:0:0:0:
224,192,53299,1,0,0:0:0:0:
96,192,53299,1,0,0:0:0:0:
352,192,53505,1,0,0:0:0:0:
480,192,53505,1,0,0:0:0:0:
224,192,53710,1,0,0:0:0:0:
96,192,53710,1,0,0:0:0:0:
416,192,53916,1,0,0:0:0:0:
352,192,54019,1,0,0:0:0:0:
288,192,54121,1,8,0:0:0:0:
96,192,54121,1,0,0:0:0:0:
160,192,54224,1,0,0:0:0:0:
416,192,54327,1,0,0:0:0:0:
224,192,54327,1,0,0:0:0:0:
32,192,54532,1,4,0:0:0:0:
480,192,54532,1,0,0:0:0:0:
352,192,54532,1,0,0:0:0:0:
224,192,54738,1,0,0:0:0:0:
96,192,54738,1,0,0:0:0:0:
288,192,54840,1,0,0:0:0:0:
352,192,54943,1,8,0:0:0:0:
480,192,54943,1,0,0:0:0:0:
96,192,55149,1,0,0:0:0:0:
224,192,55149,1,0,0:0:0:0:
352,192,55354,1,0,0:0:0:0:
480,192,55354,1,0,0:0:0:0:
160,192,55560,1,0,0:0:0:0:
224,192,55662,1,0,0:0:0:0:
288,192,55765,1,8,0:0:0:0:
416,192,55765,1,0,0:0:0:0:
160,192,55971,1,0,0:0:0:0:
480,192,55971,1,0,0:0:0:0:
288,192,56176,1,0,0:0:0:0:
416,192,56176,1,0,0:0:0:0:
32,192,56176,1,4,0:0:0:0:
224,192,56382,1,0,0:0:0:0:
96,192,56382,1,0,0:0:0:0:
288,192,56484,1,0,0:0:0:0:
352,192,56587,1,0,0:0:0:0:
480,192,56587,1,0,0:0:0:0:
224,192,56793,1,0,0:0:0:0:
96,192,56793,1,0,0:0:0:0:
480,192,56998,1,0,0:0:0:0:
288,192,56998,1,0,0:0:0:0:
224,192,57204,1,0,0:0:0:0:
160,192,57306,1,0,0:0:0:0:
352,192,57409,1,8,0:0:0:0:
96,192,57409,1,0,0:0:0:0:
288,192,57512,1,0,0:0:0:0:
480,192,57614,1,0,0:0:0:0:
224,192,57614,1,0,0:0:0:0:
416,192,57717,1,0,0:0:0:0:
32,192,57820,1,4,0:0:0:0:
352,192,57820,1,0,0:0:0:0:
96,192,57820,1,0,0:0:0:0:
160,192,58025,1,0,0:0:0:0:
416,192,58025,1,0,0:0:0:0:
224,192,58128,1,0,0:0:0:0:
480,192,58231,1,0,0:0:0:0:
288,192,58231,1,8,0:0:0:0:
96,192,58436,1,0,0:0:0:0:
352,192,58436,1,0,0:0:0:0:
224,192,58642,1,0,0:0:0:0:
480,192,58642,1,0,0:0:0:0:
96,192,58847,1,0,0:0:0:0:
160,192,58950,1,0,0:0:0:0:
224,192,59053,1,8,0:0:0:0:
480,192,59053,1,0,0:0:0:0:
416,192,59156,1,0,0:0:0:0:
352,192,59258,1,0,0:0:0:0:
96,192,59258,1,0,0:0:0:0:
32,192,59464,1,4,0:0:0:0:
480,192,59464,1,0,0:0:0:0:
288,192,59464,1,0,0:0:0:0:
96,192,59669,1,0,0:0:0:0:
224,192,59669,1,0,0:0:0:0:
288,192,59772,1,0,0:0:0:0:
352,192,59875,1,0,0:0:0:0:
480,192,59875,1,0,0:0:0:0:
224,192,60080,1,0,0:0:0:0:
96,192,60080,1,0,0:0:0:0:
352,192,60286,1,0,0:0:0:0:
480,192,60286,1,0,0:0:0:0:
224,192,60491,1,0,0:0:0:0:
288,192,60594,1,0,0:0:0:0:
352,192,60697,1,8,0:0:0:0:
96,192,60697,1,0,0:0:0:0:
160,192,60799,1,0,0:0:0:0:
224,192,60902,1,0,0:0:0:0:
416,192,60902,1,0,0:0:0:0:
32,192,61108,1,4,0:0:0:0:
96,192,61108,1,0,0:0:0:0:
288,192,61108,1,0,0:0:0:0:
352,192,61313,1,0,0:0:0:0:
480,192,61313,1,0,0:0:0:0:
288,192,61416,1,0,0:0:0:0:
224,192,61519,1,8,0:0:0:0:
96,192,61519,1,0,0:0:0:0:
352,192,61724,1,0,0:0:0:0:
480,192,61724,1,0,0:0:0:0:
96,192,61930,1,0,0:0:0:0:
224,192,61930,1,0,0:0:0:0:
416,192,62135,1,0,0:0:0:0:
352,192,62238,1,0,0:0:0:0:
288,192,62340,1,8,0:0:0:0:
96,192,62340,1,0,0:0:0:0:
160,192,62546,1,0,0:0:0:0:
32,192,62751,1,4,0:0:0:0:
224,192,62751,1,0,0:0:0:0:
352,192,62751,1,0,0:0:0:0:
96,192,62957,1,0,0:0:0:0:
160,192,62957,1,0,0:0:0:0:
224,192,63060,1,0,0:0:0:0:
416,192,63162,1,0,0:0:0:0:
288,192,63162,1,0,0:0:0:0:
224,192,63368,1,0,0:0:0:0:
96,192,63368,1,0,0:0:0:0:
352,192,63573,1,0,0:0:0:0:
416,192,63573,1,0,0:0:0:0:
160,192,63779,1,0,0:0:0:0:
224,192,63882,1,0,0:0:0:0:
288,192,63984,1,8,0:0:0:0:
480,192,63984,1,0,0:0:0:0:
416,192,64087,1,0,0:0:0:0:
352,192,64190,1,0,0:0:0:0:
160,192,64190,1,0,0:0:0:0:
224,192,64293,1,0,0:0:0:0:
288,192,64395,1,0,0:0:0:0:
32,192,64395,1,4,0:0:0:0:
480,192,64395,1,0,0:0:0:0:
96,192,64601,1,0,0:0:0:0:
224,192,64601,1,0,0:0:0:0:
288,192,64704,1,0,0:0:0:0:
480,192,64806,1,0,0:0:0:0:
352,192,64806,1,8,0:0:0:0:
224,192,65012,1,0,0:0:0:0:
160,192,65012,1,0,0:0:0:0:
352,192,65217,1,0,0:0:0:0:
416,192,65217,1,0,0:0:0:0:
160,192,65423,1,0,0:0:0:0:
224,192,65525,1,0,0:0:0:0:
288,192,65628,1,8,0:0:0:0:
480,192,65628,1,0,0:0:0:0:
416,192,65731,1,0,0:0:0:0:
352,192,65834,1,0,0:0:0:0:
160,192,65834,1,0,0:0:0:0:
32,192,66039,1,4,0:0:0:0:
288,192,66039,1,0,0:0:0:0:
96,192,66039,1,0,0:0:0:0:
480,192,66039,1,0,0:0:0:0:
352,192,66245,1,0,0:0:0:0:
224,192,66245,1,0,0:0:0:0:
416,192,66347,1,0,0:0:0:0:
160,192,66450,1,0,0:0:0:0:
480,192,66450,1,0,0:0:0:0:
96,192,66656,1,0,0:0:0:0:
352,192,66656,1,0,0:0:0:0:
160,192,66861,1,0,0:0:0:0:
288,192,66861,1,0,0:0:0:0:
480,192,67067,1,0,0:0:0:0:
224,192,67067,1,0,0:0:0:0:
416,192,67169,1,0,0:0:0:0:
352,192,67272,1,8,0:0:0:0:
96,192,67272,1,0,0:0:0:0:
160,192,67375,1,0,0:0:0:0:
224,192,67477,1,0,0:0:0:0:
416,192,67477,1,0,0:0:0:0:
32,192,67683,1,4,0:0:0:0:
480,192,67683,1,0,0:0:0:0:
96,192,67683,1,0,0:0:0:0:
288,192,67683,1,0,0:0:0:0:
160,192,67888,1,0,0:0:0:0:
352,192,67888,1,0,0:0:0:0:
288,192,67991,1,0,0:0:0:0:
224,192,68094,1,8,0:0:0:0:
416,192,68094,1,0,0:0:0:0:
480,192,68299,1,0,0:0:0:0:
288,192,68299,1,0,0:0:0:0:
96,192,68505,1,0,0:0:0:0:
224,192,68505,1,0,0:0:0:0:
416,192,68710,1,0,0:0:0:0:
480,192,68710,1,0,0:0:0:0:
352,192,68813,1,0,0:0:0:0:
288,192,68916,1,8,0:0:0:0:
32,192,68916,1,4,0:0:0:0:
96,192,68916,1,0,0:0:0:0:
32,192,69121,1,4,0:0:0:0:
224,192,69121,1,0,0:0:0:0:
96,192,69121,1,0,0:0:0:0:
32,192,69327,1,4,0:0:0:0:
480,192,69327,1,0,0:0:0:0:
96,192,69327,1,0,0:0:0:0:
224,192,69327,1,0,0:0:0:0:
288,192,69532,1,0,0:0:0:0:
352,192,69532,1,0,0:0:0:0:
416,192,69635,1,0,0:0:0:0:
160,192,69738,1,0,0:0:0:0:
480,192,69738,1,0,0:0:0:0:
224,192,69943,1,0,0:0:0:0:
352,192,69943,1,0,0:0:0:0:
288,192,70149,1,0,0:0:0:0:
416,192,70149,1,0,0:0:0:0:
224,192,70354,1,0,0:0:0:0:
480,192,70354,1,0,0:0:0:0:
160,192,70457,1,0,0:0:0:0:
96,192,70560,1,0,0:0:0:0:
352,192,70560,1,8,0:0:0:0:
288,192,70662,1,0,0:0:0:0:
224,192,70765,1,0,0:0:0:0:
480,192,70765,1,0,0:0:0:0:
416,192,70868,1,0,0:0:0:0:
32,192,70971,1,4,0:0:0:0:
96,192,70971,1,0,0:0:0:0:
352,192,70971,1,0,0:0:0:0:
160,192,70971,1,0,0:0:0:0:
224,192,71176,1,0,0:0:0:0:
416,192,71176,1,0,0:0:0:0:
352,192,71279,1,0,0:0:0:0:
288,192,71382,1,8,0:0:0:0:
480,192,71382,1,0,0:0:0:0:
352,192,71587,1,0,0:0:0:0:
160,192,71587,1,0,0:0:0:0:
96,192,71793,1,0,0:0:0:0:
288,192,71793,1,0,0:0:0:0:
224,192,71998,1,0,0:0:0:0:
416,192,71998,1,0,0:0:0:0:
352,192,72101,1,0,0:0:0:0:
288,192,72204,1,8,0:0:0:0:
96,192,72204,1,0,0:0:0:0:
160,192,72306,1,0,0:0:0:0:
224,192,72409,1,0,0:0:0:0:
352,192,72409,1,0,0:0:0:0:
480,192,72614,1,0,0:0:0:0:
32,192,72614,1,4,0:0:0:0:
288,192,72614,1,0,0:0:0:0:
416,192,72614,1,0,0:0:0:0:
96,192,72820,1,0,0:0:0:0:
352,192,72820,1,0,0:0:0:0:
416,192,72923,1,0,0:0:0:0:
480,192,73025,1,0,0:0:0:0:
160,192,73025,1,0,0:0:0:0:
224,192,73231,1,0,0:0:0:0:
352,192,73231,1,0,0:0:0:0:
160,192,73436,1,0,0:0:0:0:
480,192,73436,1,0,0:0:0:0:
96,192,73642,1,0,0:0:0:0:
352,192,73642,1,0,0:0:0:0:
288,192,73745,1,0,0:0:0:0:
480,192,73847,1,0,0:0:0:0:
224,192,73847,1,8,0:0:0:0:
416,192,73950,1,0,0:0:0:0:
96,192,74053,1,0,0:0:0:0:
352,192,74053,1,0,0:0:0:0:
480,192,74258,1,0,0:0:0:0:
288,192,74258,1,0,0:0:0:0:
32,192,74258,1,4,0:0:0:0:
224,192,74258,1,0,0:0:0:0:
416,192,74464,1,0,0:0:0:0:
96,192,74464,1,0,0:0:0:0:
352,192,74567,1,0,0:0:0:0:
480,192,74669,1,0,0:0:0:0:
288,192,74669,1,8,0:0:0:0:
416,192,74875,1,0,0:0:0:0:
96,192,74875,1,0,0:0:0:0:
480,192,75080,1,0,0:0:0:0:
224,192,75080,1,0,0:0:0:0:
160,192,75286,1,0,0:0:0:0:
96,192,75286,1,0,0:0:0:0:
224,192,75388,1,0,0:0:0:0:
480,192,75491,1,0,0:0:0:0:
288,192,75491,1,8,0:0:0:0:
32,192,75491,1,4,0:0:0:0:
32,192,75697,1,4,0:0:0:0:
352,192,75697,1,0,0:0:0:0:
480,192,75697,1,0,0:0:0:0:
352,192,75902,1,0,0:0:0:0:
32,192,75902,1,4,0:0:0:0:
480,192,75902,1,0,0:0:0:0:
96,192,75902,1,0,0:0:0:0:
288,192,76108,1,0,0:0:0:0:
224,192,76108,1,0,0:0:0:0:
160,192,76210,1,0,0:0:0:0:
96,192,76313,1,0,0:0:0:0:
352,192,76313,1,0,0:0:0:0:
224,192,76519,1,0,0:0:0:0:
416,192,76519,1,0,0:0:0:0:
288,192,76724,1,0,0:0:0:0:
480,192,76724,1,0,0:0:0:0:
352,192,76930,1,0,0:0:0:0:
160,192,76930,1,0,0:0:0:0:
416,192,77032,1,0,0:0:0:0:
480,192,77135,1,0,0:0:0:0:
224,192,77135,1,8,0:0:0:0:
288,192,77238,1,0,0:0:0:0:
352,192,77340,1,0,0:0:0:0:
96,192,77340,1,0,0:0:0:0:
160,192,77443,1,0,0:0:0:0:
480,192,77546,1,0,0:0:0:0:
224,192,77546,1,0,0:0:0:0:
32,192,77546,1,4,0:0:0:0:
416,192,77649,1,0,0:0:0:0:
352,192,77751,1,0,0:0:0:0:
288,192,77854,1,0,0:0:0:0:
480,192,77957,1,0,0:0:0:0:
224,192,77957,1,0,0:0:0:0:
416,192,78060,1,0,0:0:0:0:
352,192,78162,1,0,0:0:0:0:
288,192,78265,1,0,0:0:0:0:
480,192,78368,1,0,0:0:0:0:
96,192,78368,1,0,0:0:0:0:
160,192,78471,1,0,0:0:0:0:
224,192,78573,1,0,0:0:0:0:
288,192,78676,1,0,0:0:0:0:
96,192,78779,1,0,0:0:0:0:
352,192,78779,1,0,0:0:0:0:
160,192,78882,1,0,0:0:0:0:
224,192,78984,1,0,0:0:0:0:
288,192,79087,1,0,0:0:0:0:
480,192,79190,1,0,0:0:0:0:
352,192,79190,1,0,0:0:0:0:
96,192,79190,1,0,0:0:0:0:
32,192,79190,1,4,0:0:0:0:
