osu file format v14

[General]
AudioFilename: audio.mp3
AudioLeadIn: 0
PreviewTime: -1
Countdown: 0
SampleSet: Soft
StackLeniency: 0.7
Mode: 1
LetterboxInBreaks: 0
WidescreenStoryboard: 1

[Editor]
Bookmarks: 9495,22809,35235,54584,78726,80146,95057,114939,117069
DistanceSpacing: 0.8
BeatDivisor: 4
GridSize: 32
TimelineZoom: 1.5

[Metadata]
Title:Love-colored Master Spark
TitleUnicode:Love-colored Master Spark
Artist:ZUN
ArtistUnicode:ZUN
Creator:Fallen Cake
Version:Hard
Source:東方Project
Tags:imperishable night 東方永夜抄 marisa kirisame
BeatmapID:2195873
BeatmapSetID:1050248

[Difficulty]
HPDrainRate:8
CircleSize:5
OverallDifficulty:7
ApproachRate:7
SliderMultiplier:1.4
SliderTickRate:1

[Events]
//Background and Video events
0,0,"it_is_sakuya.jpg",0,0
//Break Periods
//Storyboard Layer 0 (Background)
//Storyboard Layer 1 (Fail)
//Storyboard Layer 2 (Pass)
//Storyboard Layer 3 (Foreground)
//Storyboard Layer 4 (Overlay)
//Storyboard Sound Samples

[TimingPoints]
620,355.029585798817,4,2,0,65,1,0
6301,-80,4,2,0,65,0,0
11980,-100,4,2,0,65,0,0
33282,-90.9090909090909,4,2,0,65,0,0
33815,-80,4,2,0,65,0,0
34702,-80,4,2,0,80,0,1
54584,-100,4,2,0,65,0,0
60265,-80,4,2,0,65,0,0
77128,-100,4,2,0,65,0,0
80146,-80,4,2,0,80,0,1
97188,-100,4,2,0,65,0,0
117069,-25,4,2,0,65,0,0

[HitObjects]
251,194,620,5,6,0:0:0:0:
251,194,2040,1,2,0:0:0:0:
251,194,2395,1,0,0:0:0:0:
246,184,2750,1,2,0:0:0:0:
246,184,3105,1,0,0:0:0:0:
246,184,3460,1,6,0:0:0:0:
243,189,4880,1,2,0:0:0:0:
243,189,5235,1,0,0:0:0:0:
246,184,5590,1,2,0:0:0:0:
246,184,5945,1,0,0:0:0:0:
246,184,6122,1,0,0:0:0:0:
246,184,6211,1,0,0:0:0:0:
246,184,6300,1,6,0:0:0:0:
255,186,7720,1,2,0:0:0:0:
255,186,8075,1,0,0:0:0:0:
255,186,8430,1,2,0:0:0:0:
255,186,8785,1,0,0:0:0:0:
255,186,9140,1,6,0:0:0:0:
258,188,10560,1,0,0:0:0:0:
258,188,10649,1,0,0:0:0:0:
258,188,10738,1,0,0:0:0:0:
258,188,10827,1,0,0:0:0:0:
258,188,10915,1,0,0:0:0:0:
258,188,11004,1,0,0:0:0:0:
258,188,11093,1,0,0:0:0:0:
258,188,11182,1,0,0:0:0:0:
258,188,11270,1,0,0:0:0:0:
258,188,11359,1,0,0:0:0:0:
258,188,11448,1,0,0:0:0:0:
258,188,11537,1,0,0:0:0:0:
258,188,11625,1,0,0:0:0:0:
258,188,11714,1,0,0:0:0:0:
258,188,11803,1,0,0:0:0:0:
267,200,11980,1,2,0:0:0:0:
263,192,12158,1,0,0:0:0:0:
263,192,12335,1,2,0:0:0:0:
263,192,12691,1,0,0:0:0:0:
263,192,12868,1,0,0:0:0:0:
263,192,13046,1,2,0:0:0:0:
263,192,13401,1,0,0:0:0:0:
263,192,13578,1,0,0:0:0:0:
263,192,13756,1,2,0:0:0:0:
270,193,14111,1,0,0:0:0:0:
270,194,14288,1,2,0:0:0:0:
270,194,14377,1,2,0:0:0:0:
270,194,14466,1,2,0:0:0:0:
270,194,14643,1,0,0:0:0:0:
286,208,14732,1,0,0:0:0:0:
270,193,14821,1,0,0:0:0:0:
270,193,14998,1,2,0:0:0:0:
270,194,15176,1,0,0:0:0:0:
261,184,15531,1,2,0:0:0:0:
261,184,15708,1,0,0:0:0:0:
261,184,15886,1,2,0:0:0:0:
261,184,16241,1,0,0:0:0:0:
261,184,16418,1,0,0:0:0:0:
261,184,16596,1,2,0:0:0:0:
261,184,16951,1,0,0:0:0:0:
261,184,17128,1,2,0:0:0:0:
261,184,17217,1,2,0:0:0:0:
261,184,17306,1,2,0:0:0:0:
261,184,17483,1,0,0:0:0:0:
286,209,17572,1,0,0:0:0:0:
261,184,17661,1,0,0:0:0:0:
261,184,17838,1,0,0:0:0:0:
261,184,18016,1,2,0:0:0:0:
261,184,18371,1,0,0:0:0:0:
261,184,18548,1,0,0:0:0:0:
261,184,18726,1,2,0:0:0:0:
261,184,19081,1,0,0:0:0:0:
261,184,19259,1,0,0:0:0:0:
261,184,19436,1,2,0:0:0:0:
261,184,19791,1,0,0:0:0:0:
261,184,19969,1,2,0:0:0:0:
261,184,20057,1,2,0:0:0:0:
261,184,20146,1,2,0:0:0:0:
261,184,20324,1,0,0:0:0:0:
286,209,20412,1,0,0:0:0:0:
261,184,20501,1,2,0:0:0:0:
261,184,20679,1,0,0:0:0:0:
261,184,20856,1,2,0:0:0:0:
261,184,21211,1,0,0:0:0:0:
261,184,21566,1,2,0:0:0:0:
261,184,21921,1,0,0:0:0:0:
261,184,22276,1,2,0:0:0:0:
261,184,22631,1,0,0:0:0:0:
261,189,22986,1,2,0:0:0:0:
261,189,23164,1,0,0:0:0:0:
261,189,23341,1,2,0:0:0:0:
261,189,24406,1,0,0:0:0:0:
261,189,24584,1,2,0:0:0:0:
261,189,24762,1,0,0:0:0:0:
261,189,25649,1,2,0:0:0:0:
261,189,25827,1,2,0:0:0:0:
261,189,26004,1,0,0:0:0:0:
261,189,26182,1,2,0:0:0:0:
261,189,26892,1,2,0:0:0:0:
261,189,27247,1,0,0:0:0:0:
261,189,27602,1,2,0:0:0:0:
227,169,28667,1,0,0:0:0:0:
227,169,28844,1,0,0:0:0:0:
227,169,29022,1,2,0:0:0:0:
227,169,30087,1,2,0:0:0:0:
227,169,30264,1,0,0:0:0:0:
227,169,30442,1,2,0:0:0:0:
227,169,31330,1,0,0:0:0:0:
227,169,31507,1,0,0:0:0:0:
227,169,31685,1,2,0:0:0:0:
227,169,31862,1,0,0:0:0:0:
227,169,32572,1,0,0:0:0:0:
227,169,32927,1,0,0:0:0:0:
227,169,33282,1,2,0:0:0:0:
258,213,33371,1,2,0:0:0:0:
258,213,33460,1,2,0:0:0:0:
254,206,33548,1,2,0:0:0:0:
254,206,33637,1,2,0:0:0:0:
249,194,33815,1,0,0:0:0:0:
249,194,33904,1,0,0:0:0:0:
270,220,33992,1,2,0:0:0:0:
270,220,34170,1,0,0:0:0:0:
270,220,34347,1,2,0:0:0:0:
270,220,34525,1,0,0:0:0:0:
270,209,34702,1,0,0:0:0:0:
270,209,34880,1,0,0:0:0:0:
270,209,35057,1,2,0:0:0:0:
270,209,35412,1,0,0:0:0:0:
270,209,35590,1,2,0:0:0:0:
270,209,35767,1,0,0:0:0:0:
270,209,35945,1,2,0:0:0:0:
270,209,37010,1,0,0:0:0:0:
270,209,37188,1,2,0:0:0:0:
267,201,37543,1,0,0:0:0:0:
267,201,37720,1,0,0:0:0:0:
267,201,37898,1,2,0:0:0:0:
267,201,38253,1,0,0:0:0:0:
267,201,38431,1,0,0:0:0:0:
267,201,38608,1,0,0:0:0:0:
267,201,38786,1,2,0:0:0:0:
257,198,39850,1,0,0:0:0:0:
257,198,40028,1,2,0:0:0:0:
257,198,40205,1,0,0:0:0:0:
257,198,40383,1,0,0:0:0:0:
257,198,40560,1,2,0:0:0:0:
257,198,40738,1,0,0:0:0:0:
257,198,41093,1,2,0:0:0:0:
257,198,41270,1,2,0:0:0:0:
257,198,41448,1,0,0:0:0:0:
257,198,41625,1,0,0:0:0:0:
265,209,41980,1,2,0:0:0:0:
265,209,42158,1,2,0:0:0:0:
265,209,42335,1,0,0:0:0:0:
265,209,42513,1,0,0:0:0:0:
265,209,42691,1,2,0:0:0:0:
265,209,42868,1,2,0:0:0:0:
274,197,43046,1,0,0:0:0:0:
272,186,43223,1,2,0:0:0:0:
272,186,43401,1,0,0:0:0:0:
272,186,43578,1,2,0:0:0:0:
272,186,43933,1,0,0:0:0:0:
272,186,44111,1,0,0:0:0:0:
272,186,44288,1,2,0:0:0:0:
272,186,44466,1,0,0:0:0:0:
272,186,45531,1,0,0:0:0:0:
272,186,45708,1,2,0:0:0:0:
272,186,46063,1,2,0:0:0:0:
272,186,46241,1,0,0:0:0:0:
252,174,46418,1,2,0:0:0:0:
252,174,46773,1,2,0:0:0:0:
252,174,46951,1,0,0:0:0:0:
252,174,47128,1,0,0:0:0:0:
252,174,47306,1,2,0:0:0:0:
252,174,48371,1,2,0:0:0:0:
252,174,48548,1,2,0:0:0:0:
252,174,48726,1,0,0:0:0:0:
252,174,48904,1,2,0:0:0:0:
258,186,49081,1,0,0:0:0:0:
258,186,49259,1,2,0:0:0:0:
266,191,49614,1,0,0:0:0:0:
266,191,49791,1,0,0:0:0:0:
266,191,49969,1,2,0:0:0:0:
266,191,50146,1,0,0:0:0:0:
266,191,50501,1,2,0:0:0:0:
266,191,50679,1,0,0:0:0:0:
266,191,50856,1,2,0:0:0:0:
266,191,51034,1,0,0:0:0:0:
266,191,51211,1,0,0:0:0:0:
266,191,51389,1,2,0:0:0:0:
266,191,51566,1,2,0:0:0:0:
266,191,51744,1,0,0:0:0:0:
266,191,51921,1,2,0:0:0:0:
266,191,52099,1,0,0:0:0:0:
266,191,52454,1,0,0:0:0:0:
266,191,52631,1,2,0:0:0:0:
266,191,52809,1,0,0:0:0:0:
266,191,52986,1,2,0:0:0:0:
266,191,54584,1,2,0:0:0:0:
264,203,56004,1,2,0:0:0:0:
264,203,56359,1,0,0:0:0:0:
264,203,56714,1,0,0:0:0:0:
264,203,57069,1,0,0:0:0:0:
264,203,57424,1,6,0:0:0:0:
277,149,58844,1,2,0:0:0:0:
277,149,59199,1,0,0:0:0:0:
277,149,59554,1,2,0:0:0:0:
277,149,59909,1,0,0:0:0:0:
277,149,60087,1,0,0:0:0:0:
277,149,60146,1,0,0:0:0:0:
277,149,60205,1,0,0:0:0:0:
277,149,60264,1,2,0:0:0:0:
277,149,61685,1,2,0:0:0:0:
277,149,62040,1,0,0:0:0:0:
277,149,62395,1,2,0:0:0:0:
277,149,62750,1,0,0:0:0:0:
277,149,63105,1,6,0:0:0:0:
277,149,64525,1,0,0:0:0:0:
268,157,64614,1,0,0:0:0:0:
268,157,64702,1,0,0:0:0:0:
268,157,64791,1,0,0:0:0:0:
277,149,64880,1,0,0:0:0:0:
268,157,64969,1,0,0:0:0:0:
268,157,65057,1,0,0:0:0:0:
268,157,65146,1,0,0:0:0:0:
277,149,65235,1,0,0:0:0:0:
268,157,65324,1,0,0:0:0:0:
268,157,65412,1,0,0:0:0:0:
268,157,65501,1,0,0:0:0:0:
277,149,65590,1,0,0:0:0:0:
268,157,65679,1,0,0:0:0:0:
268,157,65767,1,0,0:0:0:0:
286,151,65856,1,0,0:0:0:0:
277,149,65945,1,0,0:0:0:0:
277,149,67365,1,0,0:0:0:0:
277,149,67720,1,2,0:0:0:0:
277,149,68075,1,2,0:0:0:0:
277,149,68430,1,0,0:0:0:0:
277,149,68785,1,6,0:0:0:0:
277,149,70205,1,2,0:0:0:0:
277,149,70560,1,2,0:0:0:0:
277,149,70915,1,0,0:0:0:0:
277,149,71270,1,0,0:0:0:0:
277,149,71625,1,6,0:0:0:0:
277,149,73046,1,2,0:0:0:0:
277,149,73401,1,0,0:0:0:0:
277,149,73756,1,2,0:0:0:0:
277,149,74111,1,0,0:0:0:0:
277,149,74466,1,6,0:0:0:0:
277,149,75886,1,2,0:0:0:0:
277,149,76241,1,2,0:0:0:0:
277,149,76596,1,2,0:0:0:0:
277,149,76951,1,2,0:0:0:0:
277,149,77128,1,0,0:0:0:0:
277,149,77217,1,0,0:0:0:0:
277,149,77306,1,0,0:0:0:0:
277,149,77838,1,0,0:0:0:0:
277,149,78016,1,0,0:0:0:0:
277,149,78282,1,0,0:0:0:0:
277,149,78548,1,0,0:0:0:0:
256,192,78667,12,0,79969,0:0:0:0:
254,169,80146,5,0,0:0:0:0:
272,151,80324,1,0,0:0:0:0:
272,151,80501,1,2,0:0:0:0:
265,173,80856,1,0,0:0:0:0:
265,174,81034,1,0,0:0:0:0:
265,174,81211,1,2,0:0:0:0:
265,174,81389,1,0,0:0:0:0:
265,174,82454,1,0,0:0:0:0:
265,174,82631,1,2,0:0:0:0:
265,174,82986,1,0,0:0:0:0:
265,174,83164,1,0,0:0:0:0:
265,174,83341,1,2,0:0:0:0:
265,174,83696,1,0,0:0:0:0:
265,174,83874,1,2,0:0:0:0:
265,174,84051,1,2,0:0:0:0:
265,174,84229,1,0,0:0:0:0:
265,174,85294,1,2,0:0:0:0:
265,174,85472,1,0,0:0:0:0:
265,174,85649,1,2,0:0:0:0:
265,174,85827,1,0,0:0:0:0:
265,174,86004,1,2,0:0:0:0:
265,174,86182,1,0,0:0:0:0:
265,174,86537,1,0,0:0:0:0:
265,174,86714,1,0,0:0:0:0:
265,174,86892,1,2,0:0:0:0:
265,174,87069,1,0,0:0:0:0:
197,83,87424,1,2,0:0:0:0:
197,83,87602,1,0,0:0:0:0:
197,83,87779,1,2,0:0:0:0:
197,83,87957,1,0,0:0:0:0:
197,83,88134,1,2,0:0:0:0:
197,83,88312,1,0,0:0:0:0:
197,83,88489,1,2,0:0:0:0:
197,83,88667,1,0,0:0:0:0:
197,83,88844,1,0,0:0:0:0:
197,83,89022,1,2,0:0:0:0:
197,83,89377,1,0,0:0:0:0:
197,83,89554,1,2,0:0:0:0:
197,83,89732,1,0,0:0:0:0:
197,83,89909,1,2,0:0:0:0:
260,190,90975,1,0,0:0:0:0:
260,190,91152,1,2,0:0:0:0:
260,190,91507,1,0,0:0:0:0:
260,190,91685,1,0,0:0:0:0:
260,190,91862,1,2,0:0:0:0:
260,190,92217,1,0,0:0:0:0:
260,190,92395,1,2,0:0:0:0:
260,190,92572,1,0,0:0:0:0:
260,190,92750,1,2,0:0:0:0:
260,190,93815,1,2,0:0:0:0:
260,190,93992,1,2,0:0:0:0:
260,190,94170,1,0,0:0:0:0:
260,190,94347,1,2,0:0:0:0:
260,190,94525,1,2,0:0:0:0:
260,190,94702,1,0,0:0:0:0:
256,192,95057,12,0,97010,0:0:0:0:
274,200,97188,5,0,0:0:0:0:
280,170,97365,1,0,0:0:0:0:
280,170,97543,1,2,0:0:0:0:
265,184,97898,1,0,0:0:0:0:
265,184,98075,1,0,0:0:0:0:
265,184,98253,1,2,0:0:0:0:
265,184,98430,1,0,0:0:0:0:
252,182,99495,1,2,0:0:0:0:
252,182,99673,1,0,0:0:0:0:
252,182,99850,1,2,0:0:0:0:
252,182,100028,1,0,0:0:0:0:
252,182,100205,1,0,0:0:0:0:
252,182,100383,1,2,0:0:0:0:
279,184,100738,1,0,0:0:0:0:
252,182,100915,1,0,0:0:0:0:
252,182,101093,1,2,0:0:0:0:
252,182,101270,1,0,0:0:0:0:
235,184,102335,1,2,0:0:0:0:
235,184,102513,1,2,0:0:0:0:
235,184,102691,1,0,0:0:0:0:
235,184,102868,1,2,0:0:0:0:
235,184,103046,1,2,0:0:0:0:
235,184,103223,1,0,0:0:0:0:
235,184,103578,1,0,0:0:0:0:
235,184,103756,1,2,0:0:0:0:
235,184,103933,1,2,0:0:0:0:
235,184,104111,1,0,0:0:0:0:
235,184,104466,1,2,0:0:0:0:
235,184,104643,1,0,0:0:0:0:
235,184,104821,1,2,0:0:0:0:
235,184,104998,1,2,0:0:0:0:
235,184,105176,1,0,0:0:0:0:
235,184,105353,1,2,0:0:0:0:
240,177,105442,1,0,0:0:0:0:
235,184,105531,1,0,0:0:0:0:
248,209,105620,1,0,0:0:0:0:
235,184,105708,1,2,0:0:0:0:
271,231,105886,1,0,0:0:0:0:
271,231,106063,1,2,0:0:0:0:
276,228,106418,1,2,0:0:0:0:
276,228,106596,1,0,0:0:0:0:
276,228,106773,1,0,0:0:0:0:
276,228,106951,1,2,0:0:0:0:
276,228,108016,1,2,0:0:0:0:
276,228,108193,1,2,0:0:0:0:
276,228,108371,1,0,0:0:0:0:
276,228,108548,1,0,0:0:0:0:
276,228,108726,1,2,0:0:0:0:
276,228,108904,1,2,0:0:0:0:
276,228,109259,1,0,0:0:0:0:
276,228,109436,1,0,0:0:0:0:
276,228,109614,1,2,0:0:0:0:
276,228,109791,1,0,0:0:0:0:
276,228,110856,1,2,0:0:0:0:
276,228,111034,1,0,0:0:0:0:
276,228,111211,1,0,0:0:0:0:
276,228,111389,1,0,0:0:0:0:
276,228,111566,1,0,0:0:0:0:
276,228,111744,1,2,0:0:0:0:
274,219,112099,1,0,0:0:0:0:
274,219,112276,1,0,0:0:0:0:
274,219,112454,1,2,0:0:0:0:
274,219,112631,1,0,0:0:0:0:
274,219,112986,1,2,0:0:0:0:
274,219,113164,1,0,0:0:0:0:
274,219,113341,1,2,0:0:0:0:
274,219,113519,1,2,0:0:0:0:
274,219,113696,1,0,0:0:0:0:
274,219,113874,1,2,0:0:0:0:
274,219,114229,1,0,0:0:0:0:
274,219,114406,1,0,0:0:0:0:
274,219,114584,1,2,0:0:0:0:
256,192,114939,12,0,116892,0:0:0:0:
278,201,117069,5,6,0:0:0:0:
