osu file format v14

[General]
AudioFilename: audio.mp3
AudioLeadIn: 0
PreviewTime: 63826
Countdown: 0
SampleSet: Soft
StackLeniency: 0.7
Mode: 3
LetterboxInBreaks: 0
SpecialStyle: 0
WidescreenStoryboard: 0

[Editor]
Bookmarks: 33826,35405,101721
DistanceSpacing: 1
BeatDivisor: 4
GridSize: 16
TimelineZoom: 1.100001

[Metadata]
Title:Locked Girl ~ Shojo Misshitsu
TitleUnicode:ラクトガール ~ 少女密室
Artist:ZUN
ArtistUnicode:ZUN
Creator:Mage
Version:Hard
Source:東方紅魔郷 ~ the Embodiment of Scarlet Devil.
Tags:Patchouli Knowledge theme touhou project 6 eosd
BeatmapID:2005879
BeatmapSetID:957061

[Difficulty]
HPDrainRate:7.5
CircleSize:7
OverallDifficulty:7.5
ApproachRate:5
SliderMultiplier:1.4
SliderTickRate:1

[Events]
//Background and Video events
0,0,"1.jpg",0,0
//Break Periods
//Storyboard Layer 0 (Background)
//Storyboard Layer 1 (Fail)
//Storyboard Layer 2 (Pass)
//Storyboard Layer 3 (Foreground)
//Storyboard Sound Samples

[TimingPoints]
50,408.163265306122,4,2,0,5,1,0
13111,396.039603960396,4,2,0,5,1,0
25784,404.04,4,2,0,5,1,0
32248,394.736842105263,4,2,0,5,1,0
89090,-100,4,2,0,5,0,1
114353,-100,4,2,0,5,0,0

[HitObjects]
36,192,50,5,0,0:0:0:0:
109,192,50,1,0,0:0:0:0:
402,192,50,1,0,0:0:0:0:
475,192,50,1,0,0:0:0:0:
182,192,254,1,0,0:0:0:0:
256,192,458,1,0,0:0:0:0:
329,192,662,1,0,0:0:0:0:
475,192,662,1,0,0:0:0:0:
36,192,866,1,0,0:0:0:0:
182,192,866,1,0,0:0:0:0:
256,192,1070,1,0,0:0:0:0:
329,192,1274,1,0,0:0:0:0:
475,192,1478,1,0,0:0:0:0:
402,192,1478,1,0,0:0:0:0:
109,192,1682,1,0,0:0:0:0:
36,192,1682,1,0,0:0:0:0:
182,192,1886,1,0,0:0:0:0:
256,192,2090,1,0,0:0:0:0:
329,192,2294,1,0,0:0:0:0:
475,192,2294,1,0,0:0:0:0:
182,192,2498,1,0,0:0:0:0:
36,192,2498,1,0,0:0:0:0:
256,192,2703,1,0,0:0:0:0:
329,192,2907,128,0,3315:0:0:0:0:
182,192,3111,1,0,0:0:0:0:
36,192,3315,1,0,0:0:0:0:
256,192,3315,1,0,0:0:0:0:
475,192,3315,1,0,0:0:0:0:
109,192,3519,1,0,0:0:0:0:
182,192,3723,1,0,0:0:0:0:
329,192,3927,1,0,0:0:0:0:
109,192,4131,1,0,0:0:0:0:
256,192,4335,1,0,0:0:0:0:
402,192,4539,1,0,0:0:0:0:
182,192,4743,1,0,0:0:0:0:
329,192,4947,1,0,0:0:0:0:
475,192,5152,1,0,0:0:0:0:
402,192,5152,1,0,0:0:0:0:
256,192,5356,1,0,0:0:0:0:
182,192,5356,1,0,0:0:0:0:
329,192,5560,1,0,0:0:0:0:
402,192,5560,1,0,0:0:0:0:
109,192,5764,1,0,0:0:0:0:
182,192,5764,1,0,0:0:0:0:
256,192,5968,1,0,0:0:0:0:
329,192,5968,1,0,0:0:0:0:
36,192,6172,1,0,0:0:0:0:
109,192,6172,1,0,0:0:0:0:
182,192,6376,1,0,0:0:0:0:
36,192,6580,1,0,0:0:0:0:
256,192,6580,1,0,0:0:0:0:
475,192,6580,1,0,0:0:0:0:
402,192,6784,1,0,0:0:0:0:
329,192,6988,1,0,0:0:0:0:
256,192,7192,1,0,0:0:0:0:
109,192,7192,1,0,0:0:0:0:
402,192,7396,1,0,0:0:0:0:
475,192,7396,1,0,0:0:0:0:
329,192,7601,1,0,0:0:0:0:
256,192,7805,1,0,0:0:0:0:
36,192,8009,1,0,0:0:0:0:
182,192,8009,1,0,0:0:0:0:
329,192,8213,1,0,0:0:0:0:
402,192,8213,1,0,0:0:0:0:
256,192,8417,1,0,0:0:0:0:
182,192,8621,1,0,0:0:0:0:
475,192,8825,1,0,0:0:0:0:
329,192,8825,1,0,0:0:0:0:
256,192,9029,1,0,0:0:0:0:
109,192,9233,1,0,0:0:0:0:
182,192,9233,1,0,0:0:0:0:
402,192,9437,1,0,0:0:0:0:
475,192,9437,1,0,0:0:0:0:
329,192,9641,1,0,0:0:0:0:
475,192,9845,1,0,0:0:0:0:
256,192,9845,1,0,0:0:0:0:
36,192,9845,1,0,0:0:0:0:
109,192,10049,1,0,0:0:0:0:
329,192,10254,1,0,0:0:0:0:
182,192,10458,1,0,0:0:0:0:
402,192,10662,1,0,0:0:0:0:
256,192,10866,1,0,0:0:0:0:
109,192,11070,1,0,0:0:0:0:
329,192,11274,1,0,0:0:0:0:
475,192,11478,1,0,0:0:0:0:
256,192,11478,1,0,0:0:0:0:
36,192,11478,1,0,0:0:0:0:
182,192,11784,1,0,0:0:0:0:
329,192,11784,1,0,0:0:0:0:
329,192,12090,1,0,0:0:0:0:
329,192,12192,1,0,0:0:0:0:
182,192,12294,1,0,0:0:0:0:
36,192,12294,1,0,0:0:0:0:
256,192,12601,1,0,0:0:0:0:
109,192,12601,1,0,0:0:0:0:
402,192,12703,1,0,0:0:0:0:
475,192,12703,1,0,0:0:0:0:
182,192,12907,1,0,0:0:0:0:
329,192,12907,1,0,0:0:0:0:
256,192,13111,1,0,0:0:0:0:
402,192,13111,1,0,0:0:0:0:
36,192,13111,128,0,13705:0:0:0:0:
329,192,13507,1,0,0:0:0:0:
182,192,13705,128,0,14299:0:0:0:0:
402,192,13705,1,0,0:0:0:0:
256,192,13903,1,0,0:0:0:0:
329,192,14299,128,0,14695:0:0:0:0:
475,192,14299,1,0,0:0:0:0:
36,192,14497,1,0,0:0:0:0:
109,192,14695,128,0,15487:0:0:0:0:
256,192,14695,1,0,0:0:0:0:
329,192,15091,1,0,0:0:0:0:
475,192,15289,1,0,0:0:0:0:
402,192,15487,128,0,15883:0:0:0:0:
256,192,15487,1,0,0:0:0:0:
329,192,15883,128,0,16279:0:0:0:0:
182,192,15883,1,0,0:0:0:0:
256,192,16279,128,0,19051:0:0:0:0:
109,192,16279,1,0,0:0:0:0:
402,192,16477,1,0,0:0:0:0:
182,192,16675,1,0,0:0:0:0:
329,192,16873,1,0,0:0:0:0:
36,192,17071,1,0,0:0:0:0:
182,192,17269,1,0,0:0:0:0:
402,192,17467,1,0,0:0:0:0:
109,192,17665,1,0,0:0:0:0:
329,192,17863,1,0,0:0:0:0:
475,192,18061,1,0,0:0:0:0:
402,192,18061,1,0,0:0:0:0:
182,192,18259,1,0,0:0:0:0:
109,192,18259,1,0,0:0:0:0:
329,192,18457,1,0,0:0:0:0:
402,192,18457,1,0,0:0:0:0:
36,192,18655,1,0,0:0:0:0:
109,192,18655,1,0,0:0:0:0:
182,192,18853,1,0,0:0:0:0:
329,192,18853,1,0,0:0:0:0:
36,192,19051,128,0,19249:0:0:0:0:
402,192,19051,1,0,0:0:0:0:
475,192,19051,1,0,0:0:0:0:
109,192,19249,128,0,19447:0:0:0:0:
182,192,19447,128,0,20041:0:0:0:0:
329,192,19447,1,0,0:0:0:0:
256,192,19843,1,0,0:0:0:0:
475,192,20041,128,0,20239:0:0:0:0:
402,192,20041,1,0,0:0:0:0:
329,192,20239,128,0,20833:0:0:0:0:
109,192,20239,1,0,0:0:0:0:
256,192,20635,1,0,0:0:0:0:
109,192,20833,128,0,21031:0:0:0:0:
36,192,20833,1,0,0:0:0:0:
256,192,21031,128,0,21823:0:0:0:0:
402,192,21031,1,0,0:0:0:0:
329,192,21427,1,0,0:0:0:0:
109,192,21625,1,0,0:0:0:0:
475,192,21823,128,0,22021:0:0:0:0:
182,192,21823,1,0,0:0:0:0:
402,192,22021,128,0,22219:0:0:0:0:
36,192,22021,1,0,0:0:0:0:
329,192,22219,128,0,22417:0:0:0:0:
109,192,22219,1,0,0:0:0:0:
256,192,22417,128,0,22615:0:0:0:0:
475,192,22615,1,0,0:0:0:0:
182,192,22615,128,0,24200:0:0:0:0:
329,192,22813,1,0,0:0:0:0:
109,192,23011,1,0,0:0:0:0:
402,192,23210,1,0,0:0:0:0:
256,192,23408,1,0,0:0:0:0:
36,192,23606,1,0,0:0:0:0:
329,192,23804,1,0,0:0:0:0:
109,192,24002,1,0,0:0:0:0:
256,192,24200,128,0,25784:0:0:0:0:
475,192,24200,1,0,0:0:0:0:
402,192,24398,1,0,0:0:0:0:
36,192,24596,1,0,0:0:0:0:
329,192,24596,1,0,0:0:0:0:
109,192,24695,1,0,0:0:0:0:
182,192,24794,1,0,0:0:0:0:
475,192,24992,1,0,0:0:0:0:
36,192,24992,1,0,0:0:0:0:
402,192,25091,1,0,0:0:0:0:
329,192,25190,1,0,0:0:0:0:
182,192,25190,1,0,0:0:0:0:
109,192,25289,1,0,0:0:0:0:
36,192,25388,1,0,0:0:0:0:
475,192,25388,1,0,0:0:0:0:
402,192,25487,1,0,0:0:0:0:
329,192,25586,1,0,0:0:0:0:
182,192,25685,1,0,0:0:0:0:
36,192,25784,128,0,29016:0:0:0:0:
475,192,25784,128,0,29016:0:0:0:0:
109,192,25784,1,0,0:0:0:0:
402,192,25784,1,0,0:0:0:0:
329,192,26390,1,0,0:0:0:0:
182,192,26390,1,0,0:0:0:0:
256,192,26592,1,0,0:0:0:0:
109,192,26592,1,0,0:0:0:0:
109,192,27400,1,0,0:0:0:0:
402,192,27400,1,0,0:0:0:0:
256,192,27400,1,0,0:0:0:0:
256,192,28006,1,0,0:0:0:0:
402,192,28006,1,0,0:0:0:0:
329,192,28208,1,0,0:0:0:0:
182,192,28208,1,0,0:0:0:0:
402,192,29016,1,0,0:0:0:0:
109,192,29016,1,0,0:0:0:0:
256,192,29016,1,0,0:0:0:0:
109,192,29622,1,0,0:0:0:0:
256,192,29622,1,0,0:0:0:0:
182,192,29824,1,0,0:0:0:0:
329,192,29824,1,0,0:0:0:0:
256,192,30632,1,0,0:0:0:0:
109,192,30632,1,0,0:0:0:0:
402,192,30632,1,0,0:0:0:0:
182,192,31238,1,0,0:0:0:0:
329,192,31238,1,0,0:0:0:0:
256,192,31440,1,0,0:0:0:0:
402,192,31440,1,0,0:0:0:0:
475,192,32248,1,0,0:0:0:0:
402,192,32248,1,0,0:0:0:0:
329,192,32346,1,0,0:0:0:0:
182,192,32445,1,0,0:0:0:0:
402,192,32642,1,0,0:0:0:0:
256,192,32741,1,0,0:0:0:0:
109,192,32840,1,0,0:0:0:0:
36,192,32840,1,0,0:0:0:0:
475,192,33037,1,0,0:0:0:0:
402,192,33037,1,0,0:0:0:0:
329,192,33136,1,0,0:0:0:0:
182,192,33234,1,0,0:0:0:0:
109,192,33432,1,0,0:0:0:0:
256,192,33530,1,0,0:0:0:0:
402,192,33629,1,0,0:0:0:0:
36,192,33826,1,0,0:0:0:0:
109,192,33826,1,0,0:0:0:0:
182,192,33925,1,0,0:0:0:0:
329,192,34024,1,0,0:0:0:0:
109,192,34221,1,0,0:0:0:0:
256,192,34320,1,0,0:0:0:0:
475,192,34419,1,0,0:0:0:0:
402,192,34419,1,0,0:0:0:0:
36,192,34616,1,0,0:0:0:0:
109,192,34616,1,0,0:0:0:0:
182,192,34715,1,0,0:0:0:0:
329,192,34813,1,0,0:0:0:0:
402,192,35011,1,0,0:0:0:0:
256,192,35109,1,0,0:0:0:0:
109,192,35208,1,0,0:0:0:0:
402,192,35405,1,0,0:0:0:0:
475,192,35405,1,0,0:0:0:0:
329,192,35504,1,0,0:0:0:0:
182,192,35603,1,0,0:0:0:0:
402,192,35800,1,0,0:0:0:0:
256,192,35899,1,0,0:0:0:0:
109,192,35998,1,0,0:0:0:0:
36,192,35998,1,0,0:0:0:0:
402,192,36195,1,0,0:0:0:0:
475,192,36195,1,0,0:0:0:0:
329,192,36294,1,0,0:0:0:0:
182,192,36392,1,0,0:0:0:0:
109,192,36590,1,0,0:0:0:0:
256,192,36688,1,0,0:0:0:0:
402,192,36787,1,0,0:0:0:0:
36,192,36984,1,0,0:0:0:0:
109,192,36984,1,0,0:0:0:0:
182,192,37083,1,0,0:0:0:0:
329,192,37182,1,0,0:0:0:0:
475,192,37182,1,0,0:0:0:0:
402,192,37379,1,0,0:0:0:0:
256,192,37379,1,0,0:0:0:0:
329,192,37576,1,0,0:0:0:0:
182,192,37576,1,0,0:0:0:0:
182,192,37774,1,0,0:0:0:0:
36,192,37774,1,0,0:0:0:0:
329,192,37971,1,0,0:0:0:0:
475,192,37971,1,0,0:0:0:0:
36,192,38169,5,0,0:0:0:0:
475,192,38169,1,0,0:0:0:0:
109,192,38267,1,0,0:0:0:0:
402,192,38267,1,0,0:0:0:0:
182,192,38366,1,0,0:0:0:0:
329,192,38366,1,0,0:0:0:0:
256,192,38465,1,0,0:0:0:0:
475,192,38563,1,0,0:0:0:0:
402,192,38563,1,0,0:0:0:0:
36,192,38563,1,0,0:0:0:0:
109,192,38563,1,0,0:0:0:0:
36,192,38958,1,0,0:0:0:0:
109,192,38958,1,0,0:0:0:0:
402,192,38958,1,0,0:0:0:0:
475,192,38958,1,0,0:0:0:0:
109,192,39353,1,0,0:0:0:0:
182,192,39353,1,0,0:0:0:0:
329,192,39353,1,0,0:0:0:0:
402,192,39353,1,0,0:0:0:0:
402,192,39649,1,0,0:0:0:0:
329,192,39649,1,0,0:0:0:0:
109,192,39649,1,0,0:0:0:0:
182,192,39649,1,0,0:0:0:0:
109,192,39945,1,0,0:0:0:0:
182,192,39945,1,0,0:0:0:0:
329,192,39945,1,0,0:0:0:0:
402,192,39945,1,0,0:0:0:0:
475,192,40340,1,0,0:0:0:0:
256,192,40340,1,0,0:0:0:0:
36,192,40340,1,0,0:0:0:0:
475,192,40537,1,0,0:0:0:0:
256,192,40537,1,0,0:0:0:0:
36,192,40537,1,0,0:0:0:0:
475,192,40734,1,0,0:0:0:0:
36,192,40734,1,0,0:0:0:0:
256,192,40734,1,0,0:0:0:0:
109,192,40932,1,0,0:0:0:0:
182,192,40932,1,0,0:0:0:0:
329,192,40932,1,0,0:0:0:0:
402,192,40932,1,0,0:0:0:0:
109,192,41228,1,0,0:0:0:0:
182,192,41228,1,0,0:0:0:0:
329,192,41228,1,0,0:0:0:0:
402,192,41228,1,0,0:0:0:0:
109,192,41524,1,0,0:0:0:0:
402,192,41524,1,0,0:0:0:0:
329,192,41524,1,0,0:0:0:0:
182,192,41524,1,0,0:0:0:0:
36,192,41919,1,0,0:0:0:0:
475,192,41919,1,0,0:0:0:0:
256,192,41919,1,0,0:0:0:0:
475,192,42116,1,0,0:0:0:0:
36,192,42116,1,0,0:0:0:0:
256,192,42116,1,0,0:0:0:0:
36,192,42313,1,0,0:0:0:0:
475,192,42313,1,0,0:0:0:0:
256,192,42313,1,0,0:0:0:0:
402,192,42511,1,0,0:0:0:0:
109,192,42511,1,0,0:0:0:0:
182,192,42511,1,0,0:0:0:0:
329,192,42511,1,0,0:0:0:0:
402,192,42807,1,0,0:0:0:0:
109,192,42807,1,0,0:0:0:0:
182,192,42807,1,0,0:0:0:0:
329,192,42807,1,0,0:0:0:0:
475,192,43103,1,0,0:0:0:0:
36,192,43103,1,0,0:0:0:0:
329,192,43103,1,0,0:0:0:0:
182,192,43103,1,0,0:0:0:0:
109,192,43498,1,0,0:0:0:0:
402,192,43498,1,0,0:0:0:0:
475,192,43498,1,0,0:0:0:0:
36,192,43498,1,0,0:0:0:0:
36,192,43695,1,0,0:0:0:0:
402,192,43695,1,0,0:0:0:0:
109,192,43695,1,0,0:0:0:0:
475,192,43695,1,0,0:0:0:0:
182,192,44090,1,0,0:0:0:0:
329,192,44090,1,0,0:0:0:0:
109,192,44090,1,0,0:0:0:0:
402,192,44090,1,0,0:0:0:0:
329,192,44386,1,0,0:0:0:0:
182,192,44386,1,0,0:0:0:0:
109,192,44386,1,0,0:0:0:0:
402,192,44386,1,0,0:0:0:0:
182,192,44682,1,0,0:0:0:0:
329,192,44682,1,0,0:0:0:0:
109,192,44682,1,0,0:0:0:0:
402,192,44682,1,0,0:0:0:0:
475,192,44879,1,0,0:0:0:0:
109,192,44879,1,0,0:0:0:0:
36,192,44879,1,0,0:0:0:0:
402,192,44879,1,0,0:0:0:0:
36,192,45274,1,0,0:0:0:0:
475,192,45274,1,0,0:0:0:0:
109,192,45274,1,0,0:0:0:0:
402,192,45274,1,0,0:0:0:0:
475,192,45669,1,0,0:0:0:0:
329,192,45669,1,0,0:0:0:0:
182,192,45669,1,0,0:0:0:0:
36,192,45669,1,0,0:0:0:0:
36,192,45965,1,0,0:0:0:0:
182,192,45965,1,0,0:0:0:0:
329,192,45965,1,0,0:0:0:0:
475,192,45965,1,0,0:0:0:0:
475,192,46261,1,0,0:0:0:0:
329,192,46261,1,0,0:0:0:0:
182,192,46261,1,0,0:0:0:0:
36,192,46261,1,0,0:0:0:0:
402,192,46655,1,0,0:0:0:0:
109,192,46655,1,0,0:0:0:0:
256,192,46655,1,0,0:0:0:0:
109,192,46853,1,0,0:0:0:0:
402,192,46853,1,0,0:0:0:0:
256,192,46853,1,0,0:0:0:0:
402,192,47050,1,0,0:0:0:0:
109,192,47050,1,0,0:0:0:0:
256,192,47050,1,0,0:0:0:0:
329,192,47247,1,0,0:0:0:0:
36,192,47247,1,0,0:0:0:0:
182,192,47247,1,0,0:0:0:0:
475,192,47247,1,0,0:0:0:0:
329,192,47544,1,0,0:0:0:0:
475,192,47544,1,0,0:0:0:0:
182,192,47544,1,0,0:0:0:0:
36,192,47544,1,0,0:0:0:0:
182,192,47840,1,0,0:0:0:0:
329,192,47840,1,0,0:0:0:0:
36,192,47840,1,0,0:0:0:0:
475,192,47840,1,0,0:0:0:0:
109,192,48234,1,0,0:0:0:0:
402,192,48234,1,0,0:0:0:0:
256,192,48234,1,0,0:0:0:0:
402,192,48432,1,0,0:0:0:0:
109,192,48432,1,0,0:0:0:0:
256,192,48432,1,0,0:0:0:0:
109,192,48629,1,0,0:0:0:0:
256,192,48629,1,0,0:0:0:0:
402,192,48629,1,0,0:0:0:0:
329,192,48826,1,0,0:0:0:0:
36,192,48826,1,0,0:0:0:0:
182,192,48826,1,0,0:0:0:0:
475,192,48826,1,0,0:0:0:0:
329,192,49122,1,0,0:0:0:0:
36,192,49122,1,0,0:0:0:0:
475,192,49122,1,0,0:0:0:0:
182,192,49122,1,0,0:0:0:0:
36,192,49419,1,0,0:0:0:0:
402,192,49419,1,0,0:0:0:0:
109,192,49419,1,0,0:0:0:0:
475,192,49419,1,0,0:0:0:0:
36,192,49813,1,0,0:0:0:0:
182,192,49813,1,0,0:0:0:0:
329,192,49813,1,0,0:0:0:0:
36,192,50011,1,0,0:0:0:0:
182,192,50011,1,0,0:0:0:0:
329,192,50011,1,0,0:0:0:0:
109,192,50208,1,0,0:0:0:0:
256,192,50208,1,0,0:0:0:0:
402,192,50208,1,0,0:0:0:0:
329,192,50405,1,0,0:0:0:0:
475,192,50405,1,0,0:0:0:0:
182,192,50405,1,0,0:0:0:0:
109,192,50701,1,0,0:0:0:0:
256,192,50701,1,0,0:0:0:0:
402,192,50701,1,0,0:0:0:0:
36,192,50997,1,0,0:0:0:0:
182,192,50997,1,0,0:0:0:0:
329,192,50997,1,0,0:0:0:0:
36,192,51195,1,0,0:0:0:0:
402,192,51195,1,0,0:0:0:0:
109,192,51195,1,0,0:0:0:0:
475,192,51195,1,0,0:0:0:0:
109,192,51590,1,0,0:0:0:0:
36,192,51590,1,0,0:0:0:0:
402,192,51590,1,0,0:0:0:0:
475,192,51590,1,0,0:0:0:0:
36,192,51984,1,0,0:0:0:0:
182,192,51984,1,0,0:0:0:0:
475,192,51984,1,0,0:0:0:0:
329,192,51984,1,0,0:0:0:0:
475,192,52182,1,0,0:0:0:0:
329,192,52182,1,0,0:0:0:0:
36,192,52280,1,0,0:0:0:0:
182,192,52280,1,0,0:0:0:0:
36,192,52576,1,0,0:0:0:0:
182,192,52576,1,0,0:0:0:0:
329,192,52576,1,0,0:0:0:0:
475,192,52576,1,0,0:0:0:0:
109,192,52971,1,0,0:0:0:0:
256,192,52971,1,0,0:0:0:0:
402,192,52971,1,0,0:0:0:0:
109,192,53169,1,0,0:0:0:0:
256,192,53169,1,0,0:0:0:0:
402,192,53169,1,0,0:0:0:0:
109,192,53366,1,0,0:0:0:0:
256,192,53366,1,0,0:0:0:0:
402,192,53366,1,0,0:0:0:0:
36,192,53563,1,0,0:0:0:0:
182,192,53563,1,0,0:0:0:0:
475,192,53563,1,0,0:0:0:0:
329,192,53563,1,0,0:0:0:0:
182,192,53761,1,0,0:0:0:0:
36,192,53761,1,0,0:0:0:0:
329,192,53859,1,0,0:0:0:0:
475,192,53859,1,0,0:0:0:0:
36,192,54155,1,0,0:0:0:0:
329,192,54155,1,0,0:0:0:0:
475,192,54155,1,0,0:0:0:0:
182,192,54155,1,0,0:0:0:0:
256,192,54550,1,0,0:0:0:0:
109,192,54550,1,0,0:0:0:0:
402,192,54550,1,0,0:0:0:0:
402,192,54747,1,0,0:0:0:0:
109,192,54747,1,0,0:0:0:0:
256,192,54747,1,0,0:0:0:0:
109,192,54945,1,0,0:0:0:0:
256,192,54945,1,0,0:0:0:0:
402,192,54945,1,0,0:0:0:0:
36,192,55142,1,0,0:0:0:0:
182,192,55142,1,0,0:0:0:0:
329,192,55142,1,0,0:0:0:0:
475,192,55142,1,0,0:0:0:0:
475,192,55340,1,0,0:0:0:0:
329,192,55340,1,0,0:0:0:0:
182,192,55438,1,0,0:0:0:0:
36,192,55438,1,0,0:0:0:0:
36,192,55734,1,0,0:0:0:0:
182,192,55734,1,0,0:0:0:0:
329,192,55734,1,0,0:0:0:0:
475,192,55734,1,0,0:0:0:0:
402,192,56129,1,0,0:0:0:0:
109,192,56129,1,0,0:0:0:0:
182,192,56129,1,0,0:0:0:0:
329,192,56129,1,0,0:0:0:0:
402,192,56326,1,0,0:0:0:0:
109,192,56326,1,0,0:0:0:0:
182,192,56326,1,0,0:0:0:0:
329,192,56326,1,0,0:0:0:0:
475,192,56721,1,0,0:0:0:0:
402,192,56721,1,0,0:0:0:0:
109,192,56721,1,0,0:0:0:0:
36,192,56721,1,0,0:0:0:0:
402,192,56919,1,0,0:0:0:0:
475,192,56919,1,0,0:0:0:0:
109,192,57017,1,0,0:0:0:0:
36,192,57017,1,0,0:0:0:0:
36,192,57313,1,0,0:0:0:0:
109,192,57313,1,0,0:0:0:0:
402,192,57313,1,0,0:0:0:0:
475,192,57313,1,0,0:0:0:0:
475,192,57511,1,0,0:0:0:0:
36,192,57511,1,0,0:0:0:0:
329,192,57511,1,0,0:0:0:0:
182,192,57511,1,0,0:0:0:0:
475,192,57905,1,0,0:0:0:0:
329,192,57905,1,0,0:0:0:0:
182,192,57905,1,0,0:0:0:0:
36,192,57905,1,0,0:0:0:0:
402,192,58300,1,0,0:0:0:0:
329,192,58300,1,0,0:0:0:0:
182,192,58300,1,0,0:0:0:0:
109,192,58300,1,0,0:0:0:0:
182,192,58497,1,0,0:0:0:0:
109,192,58497,1,0,0:0:0:0:
329,192,58596,1,0,0:0:0:0:
402,192,58596,1,0,0:0:0:0:
402,192,58892,1,0,0:0:0:0:
329,192,58892,1,0,0:0:0:0:
109,192,58892,1,0,0:0:0:0:
182,192,58892,1,0,0:0:0:0:
475,192,59287,1,0,0:0:0:0:
256,192,59287,1,0,0:0:0:0:
36,192,59287,1,0,0:0:0:0:
475,192,59484,1,0,0:0:0:0:
256,192,59484,1,0,0:0:0:0:
36,192,59484,1,0,0:0:0:0:
475,192,59682,1,0,0:0:0:0:
256,192,59682,1,0,0:0:0:0:
36,192,59682,1,0,0:0:0:0:
402,192,59879,1,0,0:0:0:0:
329,192,59879,1,0,0:0:0:0:
109,192,59879,1,0,0:0:0:0:
182,192,59879,1,0,0:0:0:0:
329,192,60076,1,0,0:0:0:0:
402,192,60076,1,0,0:0:0:0:
182,192,60175,1,0,0:0:0:0:
109,192,60175,1,0,0:0:0:0:
402,192,60471,1,0,0:0:0:0:
182,192,60471,1,0,0:0:0:0:
109,192,60471,1,0,0:0:0:0:
329,192,60471,1,0,0:0:0:0:
475,192,60866,1,0,0:0:0:0:
256,192,60866,1,0,0:0:0:0:
36,192,60866,1,0,0:0:0:0:
475,192,61063,1,0,0:0:0:0:
36,192,61063,1,0,0:0:0:0:
256,192,61063,1,0,0:0:0:0:
475,192,61261,1,0,0:0:0:0:
256,192,61261,1,0,0:0:0:0:
36,192,61261,1,0,0:0:0:0:
402,192,61458,1,0,0:0:0:0:
329,192,61458,1,0,0:0:0:0:
182,192,61458,1,0,0:0:0:0:
109,192,61458,1,0,0:0:0:0:
109,192,61655,1,0,0:0:0:0:
182,192,61655,1,0,0:0:0:0:
329,192,61754,1,0,0:0:0:0:
402,192,61754,1,0,0:0:0:0:
402,192,62050,1,0,0:0:0:0:
329,192,62050,1,0,0:0:0:0:
182,192,62050,1,0,0:0:0:0:
109,192,62050,1,0,0:0:0:0:
475,192,62445,1,0,0:0:0:0:
329,192,62445,1,0,0:0:0:0:
182,192,62445,1,0,0:0:0:0:
329,192,62642,1,0,0:0:0:0:
475,192,62642,1,0,0:0:0:0:
182,192,62642,1,0,0:0:0:0:
109,192,62840,1,0,0:0:0:0:
256,192,62840,1,0,0:0:0:0:
402,192,62840,1,0,0:0:0:0:
36,192,63037,1,0,0:0:0:0:
182,192,63037,1,0,0:0:0:0:
329,192,63037,1,0,0:0:0:0:
402,192,63333,1,0,0:0:0:0:
109,192,63333,1,0,0:0:0:0:
256,192,63333,1,0,0:0:0:0:
475,192,63629,1,0,0:0:0:0:
329,192,63629,1,0,0:0:0:0:
182,192,63629,1,0,0:0:0:0:
36,192,63826,1,0,0:0:0:0:
109,192,63826,1,0,0:0:0:0:
402,192,63826,1,0,0:0:0:0:
475,192,63826,128,0,64419:0:0:0:0:
402,192,64419,128,0,64616:0:0:0:0:
109,192,64419,1,0,0:0:0:0:
329,192,64616,128,0,65208:0:0:0:0:
182,192,64616,1,0,0:0:0:0:
475,192,65208,128,0,65405:0:0:0:0:
36,192,65208,1,0,0:0:0:0:
402,192,65405,128,0,65997:0:0:0:0:
109,192,65405,1,0,0:0:0:0:
329,192,65997,128,0,66195:0:0:0:0:
182,192,65997,1,0,0:0:0:0:
475,192,66195,128,0,66984:0:0:0:0:
36,192,66195,1,0,0:0:0:0:
256,192,66590,128,0,66984:0:0:0:0:
329,192,66984,128,0,68761:0:0:0:0:
36,192,66984,1,0,0:0:0:0:
475,192,68761,128,0,68958:0:0:0:0:
36,192,68761,1,0,0:0:0:0:
402,192,68958,128,0,69155:0:0:0:0:
109,192,68958,1,0,0:0:0:0:
329,192,69155,128,0,69353:0:0:0:0:
182,192,69155,1,0,0:0:0:0:
475,192,69353,128,0,69550:0:0:0:0:
36,192,69353,1,0,0:0:0:0:
402,192,69550,128,0,69747:0:0:0:0:
109,192,69550,1,0,0:0:0:0:
329,192,69747,128,0,70142:0:0:0:0:
182,192,69747,1,0,0:0:0:0:
36,192,70142,128,0,70734:0:0:0:0:
475,192,70142,1,0,0:0:0:0:
256,192,70142,1,0,0:0:0:0:
109,192,70734,128,0,70932:0:0:0:0:
402,192,70734,1,0,0:0:0:0:
182,192,70932,128,0,71524:0:0:0:0:
329,192,70932,1,0,0:0:0:0:
36,192,71524,128,0,71721:0:0:0:0:
475,192,71524,1,0,0:0:0:0:
109,192,71721,128,0,72313:0:0:0:0:
402,192,71721,1,0,0:0:0:0:
182,192,72313,128,0,72708:0:0:0:0:
329,192,72313,1,0,0:0:0:0:
36,192,72708,128,0,72905:0:0:0:0:
475,192,72708,1,0,0:0:0:0:
109,192,72905,128,0,73300:0:0:0:0:
402,192,72905,1,0,0:0:0:0:
182,192,73300,128,0,74879:0:0:0:0:
329,192,73300,1,0,0:0:0:0:
475,192,74879,1,0,0:0:0:0:
36,192,74879,1,0,0:0:0:0:
256,192,74879,1,0,0:0:0:0:
329,192,75175,1,0,0:0:0:0:
182,192,75175,1,0,0:0:0:0:
329,192,75471,1,0,0:0:0:0:
329,192,75570,1,0,0:0:0:0:
182,192,75669,1,0,0:0:0:0:
36,192,75669,1,0,0:0:0:0:
109,192,75965,1,0,0:0:0:0:
256,192,75965,1,0,0:0:0:0:
402,192,76063,1,0,0:0:0:0:
475,192,76063,1,0,0:0:0:0:
329,192,76261,1,0,0:0:0:0:
182,192,76261,1,0,0:0:0:0:
256,192,76458,1,0,0:0:0:0:
402,192,76458,1,0,0:0:0:0:
36,192,76458,128,0,77050:0:0:0:0:
109,192,76655,1,0,0:0:0:0:
256,192,76853,1,0,0:0:0:0:
402,192,77050,128,0,77247:0:0:0:0:
109,192,77247,128,0,77840:0:0:0:0:
329,192,77247,1,0,0:0:0:0:
182,192,77445,1,0,0:0:0:0:
256,192,77642,1,0,0:0:0:0:
329,192,77840,128,0,78037:0:0:0:0:
182,192,78037,128,0,78629:0:0:0:0:
36,192,78037,1,0,0:0:0:0:
402,192,78234,1,0,0:0:0:0:
256,192,78432,1,0,0:0:0:0:
475,192,78629,128,0,78826:0:0:0:0:
256,192,78826,128,0,79616:0:0:0:0:
109,192,78826,1,0,0:0:0:0:
329,192,79024,1,0,0:0:0:0:
182,192,79221,1,0,0:0:0:0:
402,192,79419,1,0,0:0:0:0:
475,192,79616,128,0,81392:0:0:0:0:
36,192,79616,1,0,0:0:0:0:
256,192,79813,1,0,0:0:0:0:
109,192,80011,1,0,0:0:0:0:
329,192,80208,1,0,0:0:0:0:
182,192,80405,1,0,0:0:0:0:
402,192,80603,1,0,0:0:0:0:
256,192,80800,1,0,0:0:0:0:
109,192,80997,1,0,0:0:0:0:
329,192,81195,1,0,0:0:0:0:
36,192,81392,128,0,81590:0:0:0:0:
109,192,81590,128,0,81787:0:0:0:0:
402,192,81590,1,0,0:0:0:0:
182,192,81787,128,0,81984:0:0:0:0:
36,192,81984,128,0,82182:0:0:0:0:
329,192,81984,1,0,0:0:0:0:
109,192,82182,128,0,82379:0:0:0:0:
182,192,82379,128,0,82774:0:0:0:0:
402,192,82379,1,0,0:0:0:0:
256,192,82576,1,0,0:0:0:0:
329,192,82774,1,0,0:0:0:0:
475,192,82774,128,0,83366:0:0:0:0:
109,192,82971,1,0,0:0:0:0:
256,192,83169,1,0,0:0:0:0:
182,192,83366,128,0,83563:0:0:0:0:
329,192,83563,128,0,84155:0:0:0:0:
36,192,83563,1,0,0:0:0:0:
402,192,83761,1,0,0:0:0:0:
256,192,83958,1,0,0:0:0:0:
109,192,84155,128,0,84353:0:0:0:0:
402,192,84353,128,0,84945:0:0:0:0:
475,192,84353,1,0,0:0:0:0:
329,192,84550,1,0,0:0:0:0:
182,192,84747,1,0,0:0:0:0:
109,192,84945,128,0,85340:0:0:0:0:
256,192,85142,1,0,0:0:0:0:
402,192,85340,128,0,85537:0:0:0:0:
182,192,85537,128,0,85932:0:0:0:0:
36,192,85537,1,0,0:0:0:0:
256,192,85734,1,0,0:0:0:0:
475,192,85932,128,0,87511:0:0:0:0:
329,192,85932,1,0,0:0:0:0:
109,192,86129,1,0,0:0:0:0:
256,192,86326,1,0,0:0:0:0:
402,192,86524,1,0,0:0:0:0:
182,192,86721,1,0,0:0:0:0:
329,192,86919,1,0,0:0:0:0:
109,192,87116,1,0,0:0:0:0:
402,192,87313,1,0,0:0:0:0:
36,192,87511,5,0,0:0:0:0:
256,192,87511,128,0,89090:0:0:0:0:
109,192,87708,1,0,0:0:0:0:
475,192,87905,1,0,0:0:0:0:
182,192,87905,1,0,0:0:0:0:
402,192,88004,1,0,0:0:0:0:
329,192,88103,1,0,0:0:0:0:
475,192,88300,1,0,0:0:0:0:
36,192,88300,1,0,0:0:0:0:
109,192,88399,1,0,0:0:0:0:
329,192,88497,1,0,0:0:0:0:
182,192,88497,1,0,0:0:0:0:
402,192,88596,1,0,0:0:0:0:
36,192,88695,1,0,0:0:0:0:
475,192,88695,1,0,0:0:0:0:
109,192,88794,1,0,0:0:0:0:
182,192,88892,1,0,0:0:0:0:
329,192,88991,1,0,0:0:0:0:
402,192,89090,1,0,0:0:0:0:
475,192,89090,1,0,0:0:0:0:
109,192,89090,128,0,89682:0:0:0:0:
36,192,89090,128,0,89682:0:0:0:0:
182,192,89287,1,0,0:0:0:0:
256,192,89484,1,0,0:0:0:0:
329,192,89682,128,0,89879:0:0:0:0:
402,192,89682,128,0,89879:0:0:0:0:
182,192,89879,128,0,90274:0:0:0:0:
109,192,89879,128,0,90471:0:0:0:0:
256,192,90076,1,0,0:0:0:0:
475,192,90274,128,0,90669:0:0:0:0:
402,192,90274,1,0,0:0:0:0:
329,192,90471,128,0,90669:0:0:0:0:
182,192,90669,128,0,91261:0:0:0:0:
36,192,90669,128,0,91458:0:0:0:0:
402,192,90866,1,0,0:0:0:0:
256,192,91063,1,0,0:0:0:0:
402,192,91261,128,0,91458:0:0:0:0:
109,192,91458,128,0,92247:0:0:0:0:
329,192,91458,128,0,91853:0:0:0:0:
475,192,91655,1,0,0:0:0:0:
256,192,91853,128,0,92247:0:0:0:0:
402,192,91853,1,0,0:0:0:0:
329,192,92050,1,0,0:0:0:0:
182,192,92247,128,0,94024:0:0:0:0:
475,192,92247,128,0,94024:0:0:0:0:
36,192,92247,1,0,0:0:0:0:
329,192,92445,1,0,0:0:0:0:
109,192,92642,1,0,0:0:0:0:
256,192,92642,1,0,0:0:0:0:
402,192,92840,1,0,0:0:0:0:
329,192,93037,1,0,0:0:0:0:
36,192,93234,1,0,0:0:0:0:
256,192,93432,1,0,0:0:0:0:
109,192,93432,1,0,0:0:0:0:
402,192,93629,1,0,0:0:0:0:
329,192,93826,1,0,0:0:0:0:
36,192,94024,128,0,94221:0:0:0:0:
256,192,94024,128,0,94221:0:0:0:0:
109,192,94221,128,0,94419:0:0:0:0:
329,192,94221,128,0,94419:0:0:0:0:
475,192,94221,1,0,0:0:0:0:
402,192,94419,128,0,94616:0:0:0:0:
182,192,94419,128,0,94616:0:0:0:0:
36,192,94616,128,0,94813:0:0:0:0:
256,192,94616,128,0,94813:0:0:0:0:
109,192,94813,128,0,95011:0:0:0:0:
329,192,94813,128,0,95011:0:0:0:0:
182,192,95011,128,0,95405:0:0:0:0:
402,192,95011,128,0,95405:0:0:0:0:
475,192,95011,1,0,0:0:0:0:
109,192,95208,1,0,0:0:0:0:
256,192,95405,128,0,95997:0:0:0:0:
475,192,95405,128,0,95997:0:0:0:0:
329,192,95603,1,0,0:0:0:0:
182,192,95800,1,0,0:0:0:0:
36,192,95997,128,0,96195:0:0:0:0:
329,192,95997,128,0,96195:0:0:0:0:
109,192,96195,128,0,96787:0:0:0:0:
402,192,96195,128,0,96590:0:0:0:0:
256,192,96392,1,0,0:0:0:0:
329,192,96590,128,0,96787:0:0:0:0:
475,192,96590,1,0,0:0:0:0:
182,192,96787,128,0,96984:0:0:0:0:
475,192,96984,128,0,97576:0:0:0:0:
329,192,96984,1,0,0:0:0:0:
109,192,97182,128,0,97379:0:0:0:0:
256,192,97379,128,0,97576:0:0:0:0:
36,192,97379,1,0,0:0:0:0:
402,192,97576,128,0,97971:0:0:0:0:
182,192,97774,128,0,98169:0:0:0:0:
329,192,97971,128,0,98169:0:0:0:0:
109,192,98169,128,0,98563:0:0:0:0:
256,192,98169,128,0,98563:0:0:0:0:
475,192,98169,1,0,0:0:0:0:
402,192,98366,1,0,0:0:0:0:
36,192,98563,128,0,100142:0:0:0:0:
329,192,98563,128,0,100142:0:0:0:0:
182,192,98563,1,0,0:0:0:0:
475,192,98761,1,0,0:0:0:0:
402,192,98958,1,0,0:0:0:0:
256,192,98958,1,0,0:0:0:0:
109,192,99155,1,0,0:0:0:0:
182,192,99353,1,0,0:0:0:0:
475,192,99550,1,0,0:0:0:0:
256,192,99747,1,0,0:0:0:0:
402,192,99747,1,0,0:0:0:0:
109,192,99945,1,0,0:0:0:0:
182,192,100142,128,0,101721:0:0:0:0:
475,192,100142,128,0,101721:0:0:0:0:
402,192,100142,1,0,0:0:0:0:
256,192,100340,1,0,0:0:0:0:
329,192,100537,1,0,0:0:0:0:
36,192,100537,1,0,0:0:0:0:
109,192,100734,1,0,0:0:0:0:
402,192,100932,1,0,0:0:0:0:
256,192,101129,1,0,0:0:0:0:
36,192,101326,1,0,0:0:0:0:
329,192,101326,1,0,0:0:0:0:
109,192,101524,1,0,0:0:0:0:
402,192,101721,128,0,102313:0:0:0:0:
329,192,101721,128,0,102313:0:0:0:0:
256,192,101721,1,0,0:0:0:0:
182,192,101919,1,0,0:0:0:0:
36,192,102116,1,0,0:0:0:0:
182,192,102313,128,0,102511:0:0:0:0:
109,192,102313,128,0,102511:0:0:0:0:
402,192,102511,128,0,102905:0:0:0:0:
475,192,102511,128,0,103103:0:0:0:0:
256,192,102708,1,0,0:0:0:0:
36,192,102905,128,0,103300:0:0:0:0:
109,192,102905,1,0,0:0:0:0:
182,192,103103,128,0,103300:0:0:0:0:
329,192,103300,128,0,103892:0:0:0:0:
475,192,103300,128,0,104090:0:0:0:0:
109,192,103497,1,0,0:0:0:0:
256,192,103695,1,0,0:0:0:0:
109,192,103892,128,0,104090:0:0:0:0:
402,192,104090,128,0,104879:0:0:0:0:
182,192,104090,128,0,104484:0:0:0:0:
36,192,104287,1,0,0:0:0:0:
256,192,104484,128,0,104879:0:0:0:0:
109,192,104484,1,0,0:0:0:0:
182,192,104682,1,0,0:0:0:0:
329,192,104879,128,0,106655:0:0:0:0:
36,192,104879,128,0,106655:0:0:0:0:
475,192,104879,1,0,0:0:0:0:
109,192,105076,1,0,0:0:0:0:
402,192,105274,1,0,0:0:0:0:
182,192,105274,1,0,0:0:0:0:
256,192,105471,1,0,0:0:0:0:
109,192,105669,1,0,0:0:0:0:
475,192,105866,1,0,0:0:0:0:
182,192,106063,1,0,0:0:0:0:
402,192,106063,1,0,0:0:0:0:
256,192,106261,1,0,0:0:0:0:
109,192,106458,1,0,0:0:0:0:
475,192,106655,128,0,106853:0:0:0:0:
256,192,106655,128,0,106853:0:0:0:0:
402,192,106853,128,0,107050:0:0:0:0:
182,192,106853,128,0,107050:0:0:0:0:
36,192,106853,1,0,0:0:0:0:
109,192,107050,128,0,107247:0:0:0:0:
329,192,107050,128,0,107247:0:0:0:0:
475,192,107247,128,0,107445:0:0:0:0:
256,192,107247,128,0,107445:0:0:0:0:
402,192,107445,128,0,107642:0:0:0:0:
182,192,107445,128,0,107642:0:0:0:0:
329,192,107642,128,0,108037:0:0:0:0:
109,192,107642,128,0,108037:0:0:0:0:
36,192,107642,1,0,0:0:0:0:
402,192,107840,1,0,0:0:0:0:
256,192,108037,128,0,108629:0:0:0:0:
36,192,108037,128,0,108629:0:0:0:0:
182,192,108234,1,0,0:0:0:0:
329,192,108432,1,0,0:0:0:0:
475,192,108629,128,0,108826:0:0:0:0:
182,192,108629,128,0,108826:0:0:0:0:
402,192,108826,128,0,109419:0:0:0:0:
109,192,108826,128,0,109221:0:0:0:0:
256,192,109024,1,0,0:0:0:0:
182,192,109221,128,0,109419:0:0:0:0:
36,192,109221,1,0,0:0:0:0:
329,192,109419,128,0,109616:0:0:0:0:
36,192,109616,128,0,110208:0:0:0:0:
182,192,109616,1,0,0:0:0:0:
402,192,109813,128,0,110011:0:0:0:0:
256,192,110011,128,0,110208:0:0:0:0:
475,192,110011,1,0,0:0:0:0:
109,192,110208,128,0,110603:0:0:0:0:
329,192,110405,128,0,110800:0:0:0:0:
182,192,110603,128,0,110800:0:0:0:0:
402,192,110800,128,0,111195:0:0:0:0:
256,192,110800,128,0,111195:0:0:0:0:
36,192,110800,1,0,0:0:0:0:
109,192,110997,1,0,0:0:0:0:
475,192,111195,128,0,112774:0:0:0:0:
329,192,111195,128,0,112774:0:0:0:0:
182,192,111195,1,0,0:0:0:0:
36,192,111392,1,0,0:0:0:0:
109,192,111590,1,0,0:0:0:0:
402,192,111590,1,0,0:0:0:0:
256,192,111787,1,0,0:0:0:0:
182,192,111984,1,0,0:0:0:0:
36,192,112182,1,0,0:0:0:0:
402,192,112379,1,0,0:0:0:0:
109,192,112379,1,0,0:0:0:0:
256,192,112576,1,0,0:0:0:0:
182,192,112774,128,0,114353:0:0:0:0:
36,192,112774,128,0,114353:0:0:0:0:
109,192,112774,1,0,0:0:0:0:
256,192,112971,1,0,0:0:0:0:
329,192,113169,1,0,0:0:0:0:
475,192,113169,1,0,0:0:0:0:
402,192,113366,1,0,0:0:0:0:
109,192,113563,1,0,0:0:0:0:
256,192,113761,1,0,0:0:0:0:
475,192,113958,1,0,0:0:0:0:
329,192,113958,1,0,0:0:0:0:
475,192,114155,1,0,0:0:0:0:
329,192,114155,1,0,0:0:0:0:
109,192,114353,1,0,0:0:0:0:
256,192,114353,1,0,0:0:0:0:
402,192,114353,1,0,0:0:0:0:
475,192,114353,1,0,0:0:0:0:
