osu file format v14

[General]
AudioFilename: audio.mp3
AudioLeadIn: 0
PreviewTime: 17700
Countdown: 0
SampleSet: Soft
StackLeniency: 0.3
Mode: 0
LetterboxInBreaks: 0
WidescreenStoryboard: 1

[Editor]
Bookmarks: 76200
DistanceSpacing: 1.3
BeatDivisor: 4
GridSize: 4
TimelineZoom: 2.2

[Metadata]
Title:Kurayami no Kazaana
TitleUnicode:暗闇の風穴
Artist:ZUN
ArtistUnicode:ZUN
Creator:Kondou-Shinichi
Version:Hard
Source:東方地霊殿 ~ Subterranean Animism.
Tags:Nagaraia 東方Project toho 上海アリス幻樂団 Team Shanghai Alice Chireiden th11 the dark blowhole Touhou 11 stage 1 theme kisume Kurodani Yamame 黒谷ヤマメ くろだに やまめ Video Game Instrumental Electronic Folk
BeatmapID:1752699
BeatmapSetID:836596

[Difficulty]
HPDrainRate:5
CircleSize:3.5
OverallDifficulty:6
ApproachRate:7
SliderMultiplier:1.4
SliderTickRate:1

[Events]
//Background and Video events
0,0,"243011.jpg",0,0
//Break Periods
//Storyboard Layer 0 (Background)
//Storyboard Layer 1 (Fail)
//Storyboard Layer 2 (Pass)
//Storyboard Layer 3 (Foreground)
//Storyboard Layer 4 (Overlay)
//Storyboard Sound Samples

[TimingPoints]
450,375,3,2,1,45,1,0
450,-100,3,2,1,45,0,0
9450,-100,3,2,1,50,0,0
16200,-100,3,2,1,65,0,0
16950,-100,3,2,1,50,0,0
17325,-100,3,2,1,55,0,0
17512,-100,3,2,1,65,0,0
17700,-100,3,2,1,70,0,0
18075,-100,3,2,1,75,0,0
18450,-100,3,2,2,65,0,0
18543,-100,3,2,1,65,0,0
19575,-100,3,2,3,65,0,0
19668,-100,3,2,1,65,0,0
20700,-100,3,2,5,65,0,0
20793,-100,3,2,1,65,0,0
21825,-100,3,2,4,65,0,0
21918,-100,3,2,1,65,0,0
22950,-100,3,2,3,65,0,0
23043,-100,3,2,1,65,0,0
24075,-100,3,2,4,65,0,0
24168,-100,3,2,1,65,0,0
25200,-100,3,2,5,65,0,0
25293,-100,3,2,1,65,0,0
26325,-100,3,2,3,65,0,0
26418,-100,3,2,1,65,0,0
27450,-100,3,2,2,65,0,0
27543,-100,3,2,1,65,0,0
28575,-100,3,2,3,65,0,0
28668,-100,3,2,1,65,0,0
29700,-100,3,2,5,65,0,0
29793,-100,3,2,1,65,0,0
30825,-100,3,2,4,65,0,0
30918,-100,3,2,1,65,0,0
31950,-100,3,2,3,60,0,0
32043,-100,3,2,1,60,0,0
36450,375,4,2,3,60,1,0
36543,-100,4,2,1,60,0,0
42450,-100,4,2,3,60,0,0
42543,-100,4,2,1,60,0,0
48450,-100,4,2,3,65,0,0
48543,-100,4,2,1,70,0,0
60637,-100,4,2,99,55,0,0
61200,375,3,2,2,65,1,0
61293,-100,3,2,1,65,0,0
65700,-100,3,2,4,65,0,0
65793,-100,3,2,1,65,0,0
70200,-100,3,2,4,65,0,0
70293,-100,3,2,1,65,0,0
74700,-100,3,2,4,65,0,0
74793,-100,3,2,1,65,0,0
77512,-100,3,2,1,70,0,0
78075,-100,3,2,1,75,0,0
78450,-100,3,2,1,80,0,0
78825,-100,3,2,1,75,0,0
79012,-100,3,2,1,70,0,0
79200,-100,3,2,2,70,0,1
79293,-100,3,2,1,70,0,1
80325,-100,3,2,3,70,0,1
80418,-100,3,2,1,70,0,1
81450,-100,3,2,4,70,0,1
81543,-100,3,2,1,70,0,1
82575,-100,3,2,1,80,0,1
82856,-100,3,2,1,70,0,1
83700,-100,3,2,5,70,0,1
83793,-100,3,2,1,70,0,1
84825,-100,3,2,3,70,0,1
84918,-100,3,2,1,70,0,1
85950,-100,3,2,4,70,0,1
86043,-100,3,2,1,70,0,1
87075,-100,3,2,1,80,0,1
87356,-100,3,2,1,70,0,1
89325,-100,3,2,3,70,0,1
89418,-100,3,2,1,70,0,1
90450,-100,3,2,4,70,0,1
90543,-100,3,2,1,70,0,1
91575,-100,3,2,1,80,0,1
91856,-100,3,2,1,70,0,1
92700,-100,3,2,2,70,0,1
92793,-100,3,2,1,70,0,1
93825,-100,3,2,4,70,0,1
93918,-100,3,2,1,70,0,1
94950,-100,3,2,3,70,0,1
95043,-100,3,2,1,70,0,1
96075,-100,3,2,5,70,0,1
96450,-100,3,2,1,80,0,1
97200,-100,3,2,3,70,0,0

[Colours]
Combo1 : 255,128,0
Combo2 : 192,192,192
Combo3 : 0,128,128
Combo4 : 206,206,0

[HitObjects]
47,79,450,6,0,L|188:66,1,140,2|2,3:2|3:2,0:0:0:0:
252,122,1012,1,2,0:0:0:0:
252,122,1106,1,2,0:2:0:0:
252,122,1200,2,0,P|264:82|264:33,1,70,2|2,3:2|0:0,0:0:0:0:
327,6,1575,2,0,P|396:13|460:40,2,140,2|0|0,3:2|3:2|3:2,0:0:0:0:
327,6,2700,6,0,L|336:151,1,140,2|2,3:2|3:2,0:0:0:0:
353,232,3262,1,2,0:0:0:0:
353,232,3356,1,2,0:2:0:0:
353,232,3450,2,0,P|304:222|268:189,1,70,2|2,3:2|0:0,0:0:0:0:
216,183,3825,2,0,P|156:191|84:236,2,140,2|2|2,3:2|3:2|3:2,0:0:0:0:
216,183,4950,6,0,P|199:107|153:59,1,140,2|2,3:2|3:2,0:0:0:0:
267,63,5512,1,2,0:0:0:0:
267,63,5606,1,2,0:0:0:0:
267,63,5700,2,0,P|328:41|417:50,2,140,2|2|2,3:2|3:2|3:2,0:0:0:0:
142,79,6825,1,2,3:2:0:0:
265,181,7200,1,2,3:2:0:0:
265,181,7575,6,0,L|279:236,3,35,0|0|2|2,3:2|3:0|0:0|0:2,0:0:0:0:
233,184,7950,2,0,L|247:239,3,35,2|2|2|2,3:2|0:2|0:2|0:2,0:0:0:0:
208,189,8325,1,2,3:2:0:0:
266,87,8700,5,0,3:2:0:0:
266,87,8793,1,2,0:0:0:0:
266,87,8887,1,2,0:0:0:0:
160,60,9075,2,0,L|174:5,3,35,2|2|2|2,3:2|0:0|0:0|0:0,0:0:0:0:
181,86,9450,6,0,L|31:109,1,140,2|2,3:2|3:2,0:0:0:0:
96,182,10012,1,2,0:0:0:0:
96,182,10106,1,2,0:0:0:0:
96,182,10200,2,0,L|196:164,1,70,10|0,0:0|0:0,0:0:0:0:
206,239,10575,2,0,L|69:264,1,140,2|2,3:2|3:2,0:0:0:0:
223,351,11325,1,8,0:0:0:0:
223,351,11700,6,0,P|289:308|304:247,1,140,2|2,3:2|3:2,0:0:0:0:
361,184,12262,1,2,2:3:0:0:
361,184,12356,1,0,0:0:0:0:
361,184,12450,2,0,P|347:151|348:117,1,70,10|2,0:0|2:3,0:0:0:0:
370,42,12825,2,0,P|311:36|232:64,1,140,2|2,3:2|3:2,0:0:0:0:
140,210,13575,1,10,0:0:0:0:
140,210,13950,6,0,P|75:198|17:138,1,140,2|2,3:2|3:2,0:0:0:0:
85,94,14512,1,2,2:3:0:0:
85,94,14606,1,2,2:3:0:0:
85,94,14700,2,0,P|120:127|152:130,1,70,10|2,0:0|2:3,0:0:0:0:
221,130,15075,6,0,P|244:90|246:52,1,70,2|2,3:2|2:3,0:0:0:0:
313,31,15450,2,0,P|266:31|232:48,1,70,2|2,3:2|2:3,0:0:0:0:
185,4,15825,2,0,P|208:43|240:64,1,70,10|2,0:0|2:3,0:0:0:0:
312,115,16200,5,6,3:2:0:0:
320,121,17137,1,2,0:0:0:0:
320,121,17231,1,2,0:0:0:0:
320,121,17325,1,2,3:2:0:0:
371,57,17512,1,10,0:0:0:0:
442,92,17700,6,0,L|436:135,3,35,8|8|8|8,0:0|0:0|0:0|0:0,0:0:0:0:
432,155,18075,2,0,L|426:196,2,35,8|8|8,0:0|0:0|0:0,0:0:0:0:
352,212,18450,6,0,L|341:303,1,70,6|8,3:2|0:0,0:0:0:0:
301,364,18825,2,0,L|245:290,1,70,2|8,3:2|0:0,0:0:0:0:
265,220,19200,2,0,L|180:255,1,70,2|8,3:2|0:0,0:0:0:0:
169,333,19575,2,0,L|84:323,1,70,2|8,3:2|0:0,0:0:0:0:
103,230,19950,1,2,3:2:0:0:
28,267,20137,1,10,0:0:0:0:
16,183,20325,1,2,3:2:0:0:
92,147,20512,1,10,0:0:0:0:
175,168,20700,6,0,P|189:135|198:101,1,70,2|8,3:2|0:0,0:0:0:0:
263,38,21075,2,0,P|277:70|285:103,1,70,2|8,3:2|0:0,0:0:0:0:
368,128,21450,2,0,P|358:161|344:193,1,70,2|8,3:2|0:0,0:0:0:0:
382,289,21825,2,0,P|312:286|255:248,1,140,2|0,3:2|3:2,0:0:0:0:
240,163,22387,1,8,0:0:0:0:
332,98,22575,1,2,3:2:0:0:
332,98,22762,1,10,0:0:0:0:
393,192,22950,6,0,L|373:279,1,70,2|8,3:2|0:0,0:0:0:0:
341,336,23325,2,0,L|321:249,1,70,2|8,3:2|0:0,0:0:0:0:
261,214,23700,2,0,P|229:203|181:198,1,70,2|8,3:2|0:0,0:0:0:0:
109,208,24075,6,0,L|93:139,1,70,2|8,3:2|0:0,0:0:0:0:
64,60,24450,2,0,L|48:128,1,70,2|8,3:2|0:0,0:0:0:0:
28,210,24825,2,0,P|34:243|54:287,1,70,2|8,3:2|0:0,0:0:0:0:
46,376,25200,6,0,P|95:374|182:330,1,140,2|2,3:2|3:2,0:0:0:0:
265,332,25762,1,8,0:0:0:0:
294,249,25950,2,0,L|393:220,1,70,2|8,3:2|0:0,0:0:0:0:
390,308,26325,2,0,L|486:279,1,70,2|8,3:2|0:0,0:0:0:0:
437,205,26700,2,0,L|536:176,1,70,0|8,3:2|0:0,0:0:0:0:
491,108,27075,1,8,0:0:0:0:
491,108,27168,1,8,0:0:0:0:
491,108,27262,1,8,0:0:0:0:
414,58,27450,6,0,P|325:56|314:59,1,70,6|8,3:2|0:0,0:0:0:0:
283,102,27825,2,0,P|248:95|213:96,1,70,2|8,3:2|0:0,0:0:0:0:
170,182,28200,2,0,P|205:175|240:176,1,70,2|8,3:2|0:0,0:0:0:0:
313,222,28575,2,0,P|334:249|342:283,1,70,2|8,3:2|0:0,0:0:0:0:
241,308,28950,1,2,3:2:0:0:
166,347,29137,1,10,0:0:0:0:
93,303,29325,1,2,3:2:0:0:
170,271,29512,1,10,0:0:0:0:
98,227,29700,6,0,L|21:238,1,70,2|8,3:2|0:0,0:0:0:0:
51,155,30075,2,0,L|120:146,1,70,2|8,3:2|0:0,0:0:0:0:
144,63,30450,2,0,L|74:72,1,70,2|8,3:2|0:0,0:0:0:0:
29,10,30825,5,2,3:2:0:0:
29,10,31012,1,8,0:0:0:0:
111,24,31200,1,8,0:0:0:0:
193,37,31387,1,8,0:0:0:0:
275,53,31575,2,0,L|284:5,3,35,10|8|10|8,0:0|0:0|0:0|0:0,0:0:0:0:
273,69,31950,5,6,3:2:0:0:
245,239,32512,1,8,0:0:0:0:
245,239,32700,1,2,3:2:0:0:
203,150,33075,5,6,3:2:0:0:
229,344,33825,6,0,L|236:390,3,35,2|8|8|8,3:2|0:0|0:0|0:0,0:0:0:0:
204,323,34200,1,6,3:2:0:0:
159,136,34950,5,2,3:2:0:0:
178,60,35137,1,8,0:0:0:0:
178,60,35325,1,2,3:2:0:0:
104,15,35512,1,8,0:0:0:0:
19,90,35700,2,0,L|2:146,3,35,8|8|8|8,0:0|0:0|0:0|0:0,0:0:0:0:
42,79,36075,1,8,3:2:0:0:
80,147,36262,1,8,0:0:0:0:
64,227,36450,6,0,L|145:251,1,70,6|2,3:2|0:0,0:0:0:0:
193,292,36825,2,0,L|277:280,1,70,2|2,3:2|0:0,0:0:0:0:
339,274,37200,1,2,3:2:0:0:
415,263,37387,2,0,L|434:185,1,70,2|2,0:0|3:3,0:0:0:0:
397,125,37762,6,0,P|350:108|262:119,1,140,2|2,0:0|0:0,0:0:0:0:
211,177,38325,2,0,P|178:190|144:195,1,70,2|2,3:2|0:0,0:0:0:0:
76,157,38700,1,2,3:2:0:0:
32,220,38887,2,0,P|60:241|82:269,1,70,2|0,0:0|3:2,0:0:0:0:
153,302,39262,6,0,L|294:293,1,140,2|2,0:0|0:0,0:0:0:0:
344,235,39825,2,0,L|425:231,1,70,2|2,3:2|0:0,0:0:0:0:
476,185,40200,1,2,3:2:0:0:
417,135,40387,2,0,L|417:54,1,70,2|2,0:2|3:3,0:0:0:0:
339,69,40762,6,0,P|265:89|204:76,1,140,2|2,2:3|0:0,0:0:0:0:
155,136,41325,2,0,P|111:129|55:139,1,70,2|2,3:2|0:0,0:0:0:0:
39,192,41700,1,2,3:2:0:0:
87,251,41887,1,2,0:0:0:0:
48,317,42075,2,0,P|98:326|129:317,1,70,2|2,3:2|0:0,0:0:0:0:
187,293,42450,6,0,L|182:216,1,70,2|2,3:2|0:0,0:0:0:0:
238,170,42825,2,0,L|243:100,1,70,2|2,3:2|0:0,0:0:0:0:
292,41,43200,1,2,3:2:0:0:
358,2,43387,2,0,L|404:92,1,70,2|2,0:0|3:3,0:0:0:0:
448,114,43762,6,0,L|387:260,1,140,2|2,2:3|0:0,0:0:0:0:
331,289,44325,2,0,P|276:289|245:279,1,70,2|2,3:2|0:0,0:0:0:0:
202,235,44700,1,2,3:2:0:0:
143,184,44887,2,0,P|103:179|66:184,1,70,2|0,0:0|3:2,0:0:0:0:
41,252,45262,6,0,P|42:180|10:110,1,140,2|2,0:0|0:0,0:0:0:0:
79,74,45825,2,0,L|162:64,1,70,2|2,3:2|0:0,0:0:0:0:
217,100,46200,1,2,3:2:0:0:
288,126,46387,1,2,0:0:0:0:
357,160,46575,1,2,3:3:0:0:
428,187,46762,6,0,P|431:152|423:118,1,70,2|0,2:3|3:2,0:0:0:0:
364,57,47137,1,2,0:0:0:0:
364,57,47325,1,0,3:2:0:0:
286,12,47512,2,0,P|248:2|199:1,1,70,2|0,0:0|3:2,0:0:0:0:
129,16,47887,2,0,P|95:26|67:46,1,70,2|0,0:0|3:2,0:0:0:0:
30,125,48262,1,2,0:0:0:0:
81,200,48450,6,0,P|18:215|-16:209,2,70,6|2|10,3:2|3:2|0:0,0:0:0:0:
164,236,49012,1,2,0:0:0:0:
235,179,49200,2,0,P|231:137|239:98,1,70,0|0,3:2|3:2,0:0:0:0:
290,36,49575,1,2,3:3:0:0:
367,83,49762,2,0,P|401:91|506:45,2,140,10|10|2,0:0|0:0|3:2,0:0:0:0:
326,165,50700,2,0,P|318:213|292:247,2,70,10|2|8,0:0|3:2|0:0,0:0:0:0:
235,174,51262,1,2,0:0:0:0:
166,233,51450,6,0,L|214:261,3,35,0|0|2|0,3:2|3:2|3:2|3:2,0:0:0:0:
158,202,51825,1,10,0:0:0:0:
91,257,52012,1,2,0:0:0:0:
16,263,52200,1,2,3:2:0:0:
16,263,52293,1,2,3:2:0:0:
16,263,52387,6,0,L|-4:180,1,70,2|2,3:2|3:3,0:0:0:0:
49,119,52762,2,0,L|174:88,1,105,8|0,0:0|0:0,0:0:0:0:
183,86,53137,2,0,L|224:76,2,35,10|8|10,0:0|0:0|0:0,0:0:0:0:
225,158,53512,2,0,L|271:146,2,35,2|8|2,0:0|0:0|3:2,0:0:0:0:
266,234,53887,2,0,L|312:222,1,35,10|8,0:0|0:0,0:0:0:0:
332,232,54075,2,0,L|426:208,1,70,10|10,0:0|0:0,0:0:0:0:
443,289,54450,6,0,L|404:298,3,35,0|0|2|0,3:2|3:2|3:3|3:2,0:0:0:0:
473,305,54825,2,0,L|448:397,1,70,10|2,0:0|0:0,0:0:0:0:
371,384,55200,5,2,3:2:0:0:
313,313,55387,1,2,3:2:0:0:
313,313,55481,1,0,3:2:0:0:
313,313,55575,1,2,3:3:0:0:
227,269,55762,2,0,P|221:312|152:388,2,140,10|10|2,0:0|0:0|3:2,0:0:0:0:
144,228,56700,2,0,P|171:194|213:175,1,70,10|2,0:0|3:2,0:0:0:0:
180,90,57075,2,0,P|222:96|260:123,1,70,8|2,0:0|2:3,0:0:0:0:
295,191,57450,6,0,B|510:146|273:69|471:25,1,280,4|2,3:2|3:2,0:0:0:0:
512,97,58387,2,0,P|498:150|478:178,1,70,10|2,0:0|2:3,0:0:0:0:
429,215,58762,1,10,0:0:0:0:
359,271,58950,6,0,L|360:320,3,35,8|8|10|8,0:0|0:0|0:0|0:0,0:0:0:0:
337,255,59325,2,0,L|253:259,1,70,8|10,0:0|0:0,0:0:0:0:
239,246,59606,2,0,L|155:250,1,70,8|8,0:0|0:0,0:0:0:0:
140,264,59887,2,0,L|106:266,2,35,10|8|8,0:0|0:0|0:0,0:0:0:0:
162,351,60262,1,10,0:0:0:0:
162,351,60637,2,0,L|80:357,1,70,8|8,0:0|0:0,0:0:0:0:
36,290,61012,1,8,0:0:0:0:
36,290,61106,1,8,0:0:0:0:
36,290,61200,6,0,L|51:201,1,70,14|0,0:2|0:0,0:0:0:0:
115,171,61575,2,0,L|126:240,1,70,10|0,2:2|0:0,0:0:0:0:
200,279,61950,2,0,L|211:209,1,70,10|0,2:2|0:0,0:0:0:0:
282,166,62325,2,0,L|297:255,1,70,10|0,2:2|0:0,0:0:0:0:
309,317,62700,1,10,2:2:0:0:
363,380,62887,1,2,0:2:0:0:
439,350,63075,2,0,L|516:317,1,70,10|2,2:2|0:2,0:0:0:0:
451,256,63450,6,0,L|386:283,1,70,10|0,2:2|0:0,0:0:0:0:
380,198,63825,2,0,L|457:165,1,70,10|0,2:2|0:0,0:0:0:0:
389,106,64200,2,0,L|312:139,1,70,10|0,2:2|0:0,0:0:0:0:
317,49,64575,2,0,L|394:16,2,70,10|0|10,2:2|0:0|2:2,0:0:0:0:
227,84,65137,1,8,2:2:0:0:
227,84,65231,1,8,2:2:0:0:
227,84,65325,2,0,P|222:125|223:168,1,70,10|2,2:2|0:2,0:0:0:0:
183,228,65700,6,0,P|188:187|187:144,1,70,10|0,2:2|0:0,0:0:0:0:
103,158,66075,2,0,P|103:192|108:227,1,70,10|0,2:2|0:0,0:0:0:0:
113,311,66450,2,0,L|205:312,1,70,10|0,2:2|0:0,0:0:0:0:
277,273,66825,6,0,P|272:314|273:357,1,70,10|0,2:2|0:0,0:0:0:0:
357,343,67200,2,0,P|356:308|351:273,1,70,10|0,2:2|0:0,0:0:0:0:
347,190,67575,2,0,L|255:189,1,70,10|0,2:2|0:0,0:0:0:0:
247,110,67950,2,0,L|410:113,2,140,10|10|10,2:2|2:2|2:2,0:0:0:0:
174,68,68887,1,0,0:0:0:0:
101,111,69075,2,0,B|83:209|137:171|119:272,1,140,10|10,2:2|2:2,0:0:0:0:
109,335,69637,1,8,2:2:0:0:
109,335,69731,1,8,2:2:0:0:
109,335,69825,2,0,P|152:318|198:320,1,70,10|8,2:2|2:2,0:0:0:0:
239,364,70200,6,0,P|282:381|328:379,1,70,10|0,2:2|0:0,0:0:0:0:
294,298,70575,2,0,P|330:269|351:228,1,70,10|0,2:2|0:0,0:0:0:0:
268,209,70950,2,0,P|261:163|236:124,1,70,10|0,2:2|0:0,0:0:0:0:
178,185,71325,2,0,P|135:167|89:169,1,70,10|0,2:2|0:0,0:0:0:0:
37,203,71700,1,10,2:2:0:0:
46,286,71887,1,2,0:2:0:0:
114,335,72075,2,0,P|149:331|180:315,1,70,10|2,2:2|0:2,0:0:0:0:
262,327,72450,6,0,P|271:293|272:258,1,70,10|0,2:2|0:0,0:0:0:0:
316,186,72825,2,0,P|282:194|251:211,1,70,10|0,2:2|0:0,0:0:0:0:
167,205,73200,2,0,P|191:229|221:247,1,70,10|0,2:2|0:0,0:0:0:0:
313,275,73575,1,10,2:2:0:0:
396,273,73762,1,0,0:0:0:0:
464,322,73950,2,0,P|482:292|486:258,1,70,10|0,2:2|0:0,0:0:0:0:
402,258,74325,1,10,2:2:0:0:
318,260,74512,1,2,0:2:0:0:
233,260,74700,6,0,L|216:328,1,70,10|0,2:2|0:0,0:0:0:0:
144,284,75075,2,0,L|127:352,1,70,10|0,2:2|0:0,0:0:0:0:
43,365,75450,2,0,L|60:297,1,70,10|0,2:2|0:0,0:0:0:0:
73,214,75825,6,0,P|59:179|56:144,1,70,10|0,2:2|0:0,0:0:0:0:
90,70,76200,2,0,P|113:40|142:20,1,70,10|0,2:2|0:0,0:0:0:0:
223,16,76575,2,0,P|260:21|292:36,1,70,10|0,2:2|0:0,0:0:0:0:
320,117,76950,5,10,2:2:0:0:
320,117,77043,1,10,2:2:0:0:
320,117,77137,2,0,L|382:108,1,35,10|10,2:2|2:2,0:0:0:0:
397,89,77325,2,0,L|512:105,1,105,10|10,2:2|2:2,0:0:0:0:
501,136,77700,2,0,L|485:235,1,70,10|10,2:2|2:2,0:0:0:0:
403,228,78075,5,10,2:2:0:0:
403,228,78168,1,2,2:2:0:0:
403,228,78262,1,2,2:2:0:0:
403,228,78356,1,2,2:2:0:0:
403,228,78450,2,0,L|406:272,3,35,10|10|10|10,2:2|2:2|2:2|2:2,0:0:0:0:
407,291,78825,2,0,L|409:325,2,35,8|0|8,2:2|0:0|2:2,0:0:0:0:
340,374,79200,6,0,P|300:353|260:351,1,70,14|8,3:2|0:0,0:0:0:0:
242,264,79575,2,0,P|203:288|182:321,1,70,2|8,3:2|0:0,0:0:0:0:
138,384,79950,1,2,3:2:0:0:
68,325,80137,1,8,0:0:0:0:
121,251,80325,2,0,L|98:105,1,140,2|2,3:2|3:2,0:0:0:0:
159,45,80887,1,10,0:0:0:0:
242,103,81075,1,2,3:2:0:0:
242,103,81168,1,2,0:2:0:0:
242,103,81262,1,10,0:0:0:0:
314,47,81450,6,0,L|362:38,3,35,2|0|10|2,3:2|0:0|0:0|0:0,0:0:0:0:
324,79,81825,2,0,L|372:70,3,35,2|2|10|2,3:2|0:0|0:0|0:0,0:0:0:0:
334,111,82200,2,0,L|382:102,3,35,2|2|10|0,3:2|0:0|0:0|0:0,0:0:0:0:
340,140,82575,1,2,3:2:0:0:
281,209,82762,2,0,P|284:250|291:287,1,70,10|0,0:0|3:0,0:0:0:0:
198,287,83137,2,0,P|180:324|167:359,1,70,8|2,0:0|3:2,0:0:0:0:
96,297,83512,1,10,0:0:0:0:
96,297,83700,5,2,3:2:0:0:
111,207,83887,1,8,0:0:0:0:
126,117,84075,1,2,3:2:0:0:
144,28,84262,1,8,0:0:0:0:
222,84,84450,1,2,3:2:0:0:
222,84,84637,1,8,0:0:0:0:
276,156,84825,2,0,P|255:191|243:240,1,70,2|8,3:2|0:0,0:0:0:0:
334,242,85200,2,0,P|332:276|339:311,1,70,2|8,3:2|0:0,0:0:0:0:
428,292,85575,2,0,P|444:322|467:349,1,70,2|8,3:2|0:0,0:0:0:0:
511,269,85950,6,0,L|495:185,1,70,2|10,3:2|0:2,0:0:0:0:
478,111,86325,1,2,3:2:0:0:
398,155,86512,2,0,P|360:163|293:88,1,140,10|10,0:2|0:2,0:0:0:0:
224,39,87075,2,0,L|175:41,3,35,2|2|10|0,3:2|0:0|0:0|0:0,0:0:0:0:
159,43,87450,2,0,L|110:45,2,35,2|2|10,3:2|0:0|0:0,0:0:0:0:
49,55,87825,1,0,3:2:0:0:
49,55,87918,1,0,3:2:0:0:
49,55,88012,1,8,0:0:0:0:
54,146,88200,6,0,L|58:232,1,70,6|8,3:2|0:0,0:0:0:0:
134,264,88575,2,0,L|138:350,1,70,2|8,3:2|0:0,0:0:0:0:
226,352,88950,1,2,3:2:0:0:
292,289,89137,1,10,0:2:0:0:
367,339,89325,2,0,L|466:215,1,140,2|2,3:2|3:2,0:0:0:0:
436,140,89887,1,10,0:0:0:0:
397,69,90075,1,2,3:2:0:0:
397,69,90168,1,2,0:0:0:0:
397,69,90262,1,10,0:0:0:0:
311,36,90450,5,2,3:2:0:0:
294,125,90637,1,8,0:0:0:0:
278,214,90825,2,0,L|261:298,1,70,0|8,3:2|0:0,0:0:0:0:
186,329,91200,1,2,3:2:0:0:
186,329,91293,1,2,0:0:0:0:
186,329,91387,2,0,L|137:328,1,35,10|2,0:0|0:0,0:0:0:0:
122,347,91575,6,0,P|94:297|99:261,1,70,2|10,3:2|0:0,0:0:0:0:
35,215,91950,2,0,P|64:165|97:152,1,70,2|10,3:2|0:2,0:0:0:0:
163,141,92325,1,2,3:2:0:0:
228,203,92512,1,10,0:0:0:0:
297,143,92700,6,0,L|349:147,1,35,6|2,3:2|0:0,0:0:0:0:
312,112,92887,2,0,L|364:116,1,35,10|2,0:0|0:0,0:0:0:0:
327,81,93075,2,0,L|379:85,1,35,2|2,3:2|0:0,0:0:0:0:
341,50,93262,2,0,L|393:54,1,35,10|2,0:0|0:0,0:0:0:0:
354,20,93450,2,0,L|448:27,1,70,2|8,3:2|0:0,0:0:0:0:
500,98,93825,6,0,L|448:94,1,35,2|2,3:2|0:0,0:0:0:0:
485,129,94012,2,0,L|433:125,1,35,10|2,0:0|0:0,0:0:0:0:
470,160,94200,2,0,L|418:156,1,35,2|2,3:2|0:0,0:0:0:0:
456,191,94387,2,0,L|404:187,1,35,10|2,0:0|0:0,0:0:0:0:
443,221,94575,2,0,L|349:214,1,70,2|10,3:2|0:0,0:0:0:0:
268,245,94950,6,0,L|252:291,1,35,2|2,3:2|0:0,0:0:0:0:
233,246,95137,2,0,L|196:277,1,35,8|2,0:0|0:0,0:0:0:0:
206,229,95325,2,0,L|158:238,1,35,0|2,3:2|0:0,0:0:0:0:
188,200,95512,2,0,L|142:184,1,35,8|2,0:0|0:0,0:0:0:0:
186,166,95700,2,0,L|125:99,1,70,0|10,3:2|0:0,0:0:0:0:
249,118,96075,2,0,L|188:51,1,70,2|8,3:2|0:0,0:0:0:0:
123,38,96450,5,10,0:0:0:0:
123,38,96543,1,10,0:0:0:0:
123,38,96637,1,10,0:0:0:0:
123,38,96731,1,10,0:0:0:0:
123,38,96825,2,0,L|29:23,1,70,10|8,0:0|0:0,0:0:0:0:
0,88,97200,1,2,3:2:0:0:
