osu file format v14

[General]
AudioFilename: audio.mp3
AudioLeadIn: 0
PreviewTime: 36320
Countdown: 0
SampleSet: Normal
StackLeniency: 0.7
Mode: 1
LetterboxInBreaks: 0
WidescreenStoryboard: 0

[Editor]
DistanceSpacing: 1
BeatDivisor: 4
GridSize: 32
TimelineZoom: 1.7

[Metadata]
Title:Kourou ~ Eastern Dream...
TitleUnicode:紅楼 ~ Eastern Dream...
Artist:ZUN
ArtistUnicode:ZUN
Creator:Yales
Version:Inner Oni
Source:東方紅魔郷 ~ the Embodiment of Scarlet Devil.
Tags:Touhou Project EoSD TH06 Team Shanghai Alice Credits Staff Roll theme eiri- Ayyri Crimson Belvedere koumakyou
BeatmapID:1757218
BeatmapSetID:839424

[Difficulty]
HPDrainRate:5
CircleSize:2
OverallDifficulty:5.5
ApproachRate:5
SliderMultiplier:1.4
SliderTickRate:1

[Events]
//Background and Video events
0,0,"bg.jpg",0,50
//Break Periods
//Storyboard Layer 0 (Background)
//Storyboard Layer 1 (Fail)
//Storyboard Layer 2 (Pass)
//Storyboard Layer 3 (Foreground)
//Storyboard Sound Samples

[TimingPoints]
1669,465.116279069767,4,1,0,45,1,0
33296,-100,4,1,0,60,0,0
37017,-83.3333333333333,4,1,0,80,0,1
66785,-83.3333333333333,4,1,0,60,0,0
67017,-100,4,1,0,60,0,0
81203,-133.333333333333,4,1,0,60,0,0
81668,-100,4,1,0,60,0,0
96436,-133.333333333333,4,1,0,20,0,0
98413,-133.333333333333,4,1,0,15,0,0
100273,-133.333333333333,4,1,0,10,0,0
101203,-133.333333333333,4,1,0,5,0,0

[HitObjects]
256,192,2599,5,8,0:0:0:0:
256,192,2715,1,0,0:0:0:0:
256,192,2948,1,0,0:0:0:0:
256,192,3064,1,8,0:0:0:0:
256,192,3180,1,8,0:0:0:0:
256,192,3296,1,0,0:0:0:0:
256,192,3413,1,0,0:0:0:0:
256,192,3529,1,8,0:0:0:0:
256,192,3762,1,0,0:0:0:0:
256,192,3994,1,8,0:0:0:0:
256,192,4459,1,0,0:0:0:0:
256,192,4575,1,8,0:0:0:0:
256,192,4924,1,0,0:0:0:0:
256,192,5041,1,8,0:0:0:0:
256,192,5157,1,8,0:0:0:0:
256,192,5273,1,0,0:0:0:0:
256,192,5389,1,8,0:0:0:0:
256,192,5622,1,0,0:0:0:0:
256,192,5855,1,8,0:0:0:0:
256,192,6320,1,8,0:0:0:0:
256,192,6436,1,0,0:0:0:0:
256,192,6785,1,8,0:0:0:0:
256,192,6901,1,0,0:0:0:0:
256,192,7017,1,8,0:0:0:0:
256,192,7134,1,8,0:0:0:0:
256,192,7250,1,0,0:0:0:0:
256,192,7482,1,0,0:0:0:0:
256,192,7715,1,8,0:0:0:0:
256,192,7831,1,0,0:0:0:0:
256,192,8180,1,8,0:0:0:0:
256,192,8296,1,8,0:0:0:0:
256,192,8413,1,0,0:0:0:0:
256,192,8645,1,8,0:0:0:0:
256,192,8878,1,0,0:0:0:0:
256,192,8994,1,0,0:0:0:0:
256,192,9110,1,8,0:0:0:0:
256,192,9343,1,8,0:0:0:0:
256,192,9459,1,8,0:0:0:0:
256,192,9575,1,0,0:0:0:0:
256,192,9692,1,0,0:0:0:0:
256,192,9808,1,8,0:0:0:0:
256,192,9924,1,0,0:0:0:0:
256,192,10041,1,8,0:0:0:0:
256,192,10157,1,8,0:0:0:0:
256,192,10273,1,0,0:0:0:0:
256,192,10389,1,0,0:0:0:0:
256,192,10506,5,8,0:0:0:0:
256,192,10855,1,0,0:0:0:0:
256,192,10971,1,8,0:0:0:0:
256,192,11203,1,0,0:0:0:0:
256,192,11436,1,8,0:0:0:0:
256,192,11668,1,8,0:0:0:0:
256,192,11901,1,0,0:0:0:0:
256,192,12017,1,8,0:0:0:0:
256,192,12366,1,8,0:0:0:0:
256,192,12482,1,0,0:0:0:0:
256,192,12599,1,8,0:0:0:0:
256,192,12715,1,8,0:0:0:0:
256,192,12831,1,0,0:0:0:0:
256,192,13064,1,0,0:0:0:0:
256,192,13296,1,8,0:0:0:0:
256,192,13529,1,0,0:0:0:0:
256,192,13762,1,8,0:0:0:0:
256,192,14459,1,0,0:0:0:0:
256,192,14575,1,0,0:0:0:0:
256,192,14692,1,8,0:0:0:0:
256,192,14924,1,0,0:0:0:0:
256,192,15157,1,8,0:0:0:0:
256,192,15273,1,0,0:0:0:0:
256,192,15622,1,8,0:0:0:0:
256,192,15738,1,8,0:0:0:0:
256,192,15855,1,0,0:0:0:0:
256,192,16087,1,0,0:0:0:0:
256,192,16203,5,0,0:0:0:0:
256,192,16320,1,8,0:0:0:0:
256,192,16436,1,0,0:0:0:0:
256,192,16552,1,8,0:0:0:0:
256,192,16901,1,0,0:0:0:0:
256,192,17017,1,0,0:0:0:0:
256,192,17134,1,8,0:0:0:0:
256,192,17250,1,0,0:0:0:0:
256,192,17482,1,8,0:0:0:0:
256,192,17715,1,8,0:0:0:0:
256,192,17831,1,8,0:0:0:0:
256,192,17948,1,0,0:0:0:0:
256,192,18064,1,8,0:0:0:0:
256,192,18180,1,0,0:0:0:0:
256,192,18413,1,8,0:0:0:0:
256,192,18645,1,0,0:0:0:0:
256,192,18878,1,8,0:0:0:0:
256,192,18994,1,0,0:0:0:0:
256,192,19110,1,8,0:0:0:0:
256,192,19227,1,8,0:0:0:0:
256,192,19343,1,0,0:0:0:0:
256,192,19459,1,0,0:0:0:0:
256,192,19575,1,8,0:0:0:0:
256,192,19692,1,0,0:0:0:0:
256,192,19808,1,8,0:0:0:0:
256,192,20041,1,0,0:0:0:0:
256,192,20273,1,8,0:0:0:0:
256,192,20389,1,8,0:0:0:0:
256,192,20506,1,0,0:0:0:0:
256,192,20622,1,0,0:0:0:0:
256,192,20738,1,8,0:0:0:0:
256,192,20855,1,0,0:0:0:0:
256,192,20971,1,8,0:0:0:0:
256,192,21087,1,8,0:0:0:0:
256,192,21203,1,0,0:0:0:0:
256,192,21320,1,8,0:0:0:0:
256,192,21436,1,0,0:0:0:0:
256,192,21668,1,8,0:0:0:0:
256,192,22134,1,8,0:0:0:0:
256,192,22308,1,8,0:0:0:0:
256,192,22482,1,0,0:0:0:0:
256,192,22657,1,8,0:0:0:0:
256,192,22831,1,8,0:0:0:0:
256,192,23006,1,0,0:0:0:0:
256,192,23180,1,8,0:0:0:0:
256,192,23529,1,0,0:0:0:0:
256,192,23994,1,8,0:0:0:0:
256,192,24168,1,0,0:0:0:0:
256,192,24343,1,0,0:0:0:0:
256,192,24517,1,8,0:0:0:0:
256,192,24692,1,0,0:0:0:0:
256,192,24866,1,0,0:0:0:0:
256,192,25041,1,8,0:0:0:0:
256,192,25157,1,0,0:0:0:0:
256,192,25273,1,0,0:0:0:0:
256,192,25389,1,0,0:0:0:0:
256,192,25506,1,8,0:0:0:0:
256,192,25855,1,8,0:0:0:0:
256,192,26087,1,0,0:0:0:0:
256,192,26203,1,0,0:0:0:0:
256,192,26320,1,8,0:0:0:0:
256,192,26436,1,0,0:0:0:0:
256,192,26552,1,8,0:0:0:0:
256,192,26668,1,8,0:0:0:0:
256,192,26785,1,0,0:0:0:0:
256,192,26901,1,0,0:0:0:0:
256,192,27017,1,8,0:0:0:0:
256,192,27134,1,0,0:0:0:0:
256,192,27250,1,8,0:0:0:0:
256,192,27366,1,8,0:0:0:0:
256,192,27482,1,0,0:0:0:0:
256,192,27715,1,8,0:0:0:0:
256,192,27831,1,0,0:0:0:0:
256,192,27948,1,8,0:0:0:0:
256,192,28064,1,8,0:0:0:0:
256,192,28180,1,0,0:0:0:0:
256,192,28296,1,8,0:0:0:0:
256,192,28413,1,0,0:0:0:0:
256,192,28529,1,0,0:0:0:0:
256,192,28645,1,8,0:0:0:0:
256,192,28762,1,8,0:0:0:0:
256,192,28878,1,8,0:0:0:0:
256,192,28994,1,0,0:0:0:0:
256,192,29110,1,8,0:0:0:0:
256,192,31203,5,0,0:0:0:0:
256,192,31320,1,0,0:0:0:0:
256,192,31668,1,0,0:0:0:0:
256,192,32134,1,0,0:0:0:0:
256,192,32599,1,0,0:0:0:0:
257,192,32831,5,8,0:0:0:0:
257,192,33296,1,8,0:0:0:0:
256,192,33413,1,8,0:0:0:0:
256,192,33529,1,0,0:0:0:0:
256,192,33645,1,8,0:0:0:0:
256,192,33878,1,8,0:0:0:0:
256,192,33994,1,0,0:0:0:0:
256,192,34110,1,0,0:0:0:0:
257,192,34227,1,8,0:0:0:0:
257,192,34459,1,0,0:0:0:0:
257,192,34692,1,8,0:0:0:0:
257,192,35157,1,8,0:0:0:0:
257,192,35389,1,0,0:0:0:0:
257,192,35506,1,0,0:0:0:0:
257,192,35622,1,8,0:0:0:0:
257,192,35971,1,8,0:0:0:0:
257,192,36087,1,0,0:0:0:0:
257,192,36320,1,8,0:0:0:0:
257,192,36552,1,8,0:0:0:0:
257,192,36668,1,0,0:0:0:0:
257,192,36785,1,0,0:0:0:0:
257,192,37017,5,12,0:0:0:0:
257,192,37250,1,0,0:0:0:0:
257,192,37482,1,8,0:0:0:0:
257,192,37599,1,0,0:0:0:0:
257,192,37715,1,8,0:0:0:0:
257,192,37831,1,8,0:0:0:0:
257,192,37948,1,0,0:0:0:0:
257,192,38180,1,0,0:0:0:0:
257,192,38296,1,0,0:0:0:0:
257,192,38413,1,8,0:0:0:0:
257,192,38529,1,0,0:0:0:0:
257,192,38645,1,8,0:0:0:0:
257,192,38878,1,8,0:0:0:0:
257,192,39110,1,0,0:0:0:0:
257,192,39227,1,0,0:0:0:0:
257,192,39343,1,8,0:0:0:0:
257,192,39459,1,8,0:0:0:0:
257,192,39575,1,0,0:0:0:0:
257,192,39692,1,8,0:0:0:0:
257,192,39808,1,0,0:0:0:0:
257,192,40041,1,0,0:0:0:0:
257,192,40273,1,8,0:0:0:0:
257,192,40389,1,0,0:0:0:0:
257,192,40506,1,8,0:0:0:0:
257,192,40622,1,8,0:0:0:0:
257,192,40738,1,0,0:0:0:0:
257,192,40816,1,0,0:0:0:0:
257,192,40893,1,0,0:0:0:0:
257,192,40971,1,8,0:0:0:0:
257,192,41087,1,0,0:0:0:0:
257,192,41203,1,8,0:0:0:0:
257,192,41436,1,0,0:0:0:0:
257,192,41552,1,0,0:0:0:0:
257,192,41668,1,8,0:0:0:0:
257,192,41901,1,0,0:0:0:0:
257,192,42017,1,0,0:0:0:0:
257,192,42134,1,8,0:0:0:0:
257,192,42250,1,8,0:0:0:0:
257,192,42366,1,0,0:0:0:0:
257,192,42599,1,8,0:0:0:0:
257,192,42831,1,0,0:0:0:0:
257,192,42948,1,0,0:0:0:0:
257,192,43064,1,8,0:0:0:0:
257,192,43180,1,8,0:0:0:0:
256,192,43296,1,8,0:0:0:0:
256,192,43413,1,0,0:0:0:0:
256,192,43529,1,8,0:0:0:0:
256,192,43762,1,0,0:0:0:0:
256,192,43878,1,0,0:0:0:0:
256,192,43994,1,8,0:0:0:0:
256,192,44110,1,8,0:0:0:0:
256,192,44227,1,0,0:0:0:0:
256,192,44343,1,8,0:0:0:0:
256,192,44459,1,0,0:0:0:0:
256,192,44537,1,0,0:0:0:0:
256,192,44614,1,0,0:0:0:0:
256,192,44692,1,8,0:0:0:0:
256,192,44808,1,0,0:0:0:0:
256,192,44924,1,8,0:0:0:0:
256,192,45157,1,0,0:0:0:0:
256,192,45273,1,0,0:0:0:0:
256,192,45389,1,8,0:0:0:0:
256,192,45622,1,0,0:0:0:0:
256,192,45738,1,8,0:0:0:0:
256,192,45855,1,0,0:0:0:0:
256,192,45971,1,8,0:0:0:0:
256,192,46087,1,8,0:0:0:0:
256,192,46320,1,8,0:0:0:0:
256,192,46552,1,0,0:0:0:0:
256,192,46668,1,0,0:0:0:0:
256,192,46785,1,8,0:0:0:0:
256,192,46901,1,8,0:0:0:0:
256,192,47017,1,0,0:0:0:0:
256,192,47134,1,0,0:0:0:0:
256,192,47250,1,8,0:0:0:0:
256,192,47482,1,0,0:0:0:0:
256,192,47715,1,8,0:0:0:0:
256,192,47831,1,8,0:0:0:0:
256,192,47948,1,0,0:0:0:0:
256,192,48064,1,8,0:0:0:0:
256,192,48180,1,0,0:0:0:0:
256,192,48258,1,0,0:0:0:0:
256,192,48335,1,0,0:0:0:0:
256,192,48413,1,8,0:0:0:0:
256,192,48529,1,0,0:0:0:0:
256,192,48645,1,8,0:0:0:0:
256,192,48878,1,0,0:0:0:0:
256,192,48994,1,0,0:0:0:0:
256,192,49110,1,8,0:0:0:0:
256,192,49343,1,0,0:0:0:0:
256,192,49459,1,8,0:0:0:0:
256,192,49575,1,0,0:0:0:0:
256,192,49692,1,0,0:0:0:0:
256,192,49808,1,8,0:0:0:0:
256,192,49924,1,8,0:0:0:0:
256,192,50041,1,0,0:0:0:0:
256,192,50273,1,0,0:0:0:0:
256,192,50389,1,0,0:0:0:0:
256,192,50506,1,8,0:0:0:0:
256,192,50622,1,8,0:0:0:0:
256,192,50738,1,0,0:0:0:0:
256,192,50816,1,8,0:0:0:0:
256,192,50893,1,8,0:0:0:0:
256,192,50971,1,0,0:0:0:0:
256,192,51087,1,0,0:0:0:0:
256,192,51203,1,8,0:0:0:0:
256,192,51320,1,8,0:0:0:0:
256,192,51436,1,0,0:0:0:0:
256,192,51668,1,0,0:0:0:0:
256,192,51785,1,8,0:0:0:0:
256,192,51901,1,0,0:0:0:0:
256,192,51979,1,0,0:0:0:0:
256,192,52056,1,0,0:0:0:0:
256,192,52134,1,8,0:0:0:0:
256,192,52250,1,0,0:0:0:0:
256,192,52366,1,8,0:0:0:0:
256,192,52599,1,0,0:0:0:0:
256,192,52831,1,8,0:0:0:0:
256,192,52948,1,0,0:0:0:0:
256,192,53180,1,0,0:0:0:0:
256,192,53296,1,8,0:0:0:0:
256,192,53413,1,8,0:0:0:0:
256,192,53529,1,0,0:0:0:0:
256,192,53762,1,8,0:0:0:0:
256,192,53994,1,0,0:0:0:0:
256,192,54110,1,0,0:0:0:0:
256,192,54227,1,8,0:0:0:0:
256,192,54343,1,0,0:0:0:0:
256,192,54459,1,8,0:0:0:0:
256,192,54537,1,8,0:0:0:0:
256,192,54614,1,8,0:0:0:0:
256,192,54692,1,0,0:0:0:0:
256,192,54808,1,0,0:0:0:0:
256,192,54924,1,8,0:0:0:0:
256,192,55157,1,8,0:0:0:0:
256,192,55389,1,0,0:0:0:0:
256,192,55506,1,0,0:0:0:0:
256,192,55622,1,8,0:0:0:0:
256,192,55700,1,0,0:0:0:0:
256,192,55777,1,0,0:0:0:0:
256,192,55855,1,8,0:0:0:0:
256,192,55971,1,0,0:0:0:0:
256,192,56087,1,8,0:0:0:0:
256,192,56320,1,0,0:0:0:0:
256,192,56552,1,8,0:0:0:0:
256,192,56668,1,0,0:0:0:0:
256,192,56901,1,0,0:0:0:0:
256,192,57017,1,8,0:0:0:0:
256,192,57134,1,0,0:0:0:0:
256,192,57250,1,0,0:0:0:0:
256,192,57482,1,8,0:0:0:0:
256,192,57715,1,0,0:0:0:0:
256,192,57831,1,8,0:0:0:0:
256,192,57948,1,8,0:0:0:0:
256,192,58064,1,0,0:0:0:0:
256,192,58180,1,8,0:0:0:0:
256,192,58258,1,8,0:0:0:0:
256,192,58335,1,8,0:0:0:0:
256,192,58413,1,0,0:0:0:0:
256,192,58529,1,0,0:0:0:0:
256,192,58645,1,8,0:0:0:0:
256,192,58878,1,8,0:0:0:0:
256,192,59110,1,0,0:0:0:0:
256,192,59227,1,8,0:0:0:0:
256,192,59343,1,0,0:0:0:0:
256,192,59420,1,0,0:0:0:0:
256,192,59498,1,0,0:0:0:0:
256,192,59575,1,8,0:0:0:0:
256,192,59692,1,0,0:0:0:0:
256,192,59808,1,8,0:0:0:0:
256,192,60041,1,0,0:0:0:0:
256,192,60157,1,0,0:0:0:0:
256,192,60273,1,8,0:0:0:0:
256,192,60506,1,0,0:0:0:0:
256,192,60622,1,8,0:0:0:0:
256,192,60855,1,0,0:0:0:0:
256,192,60971,1,0,0:0:0:0:
256,192,61087,1,8,0:0:0:0:
256,192,61203,1,0,0:0:0:0:
256,192,61436,1,0,0:0:0:0:
256,192,61552,1,8,0:0:0:0:
256,192,61668,1,0,0:0:0:0:
256,192,61785,1,0,0:0:0:0:
256,192,61901,1,8,0:0:0:0:
256,192,61979,1,8,0:0:0:0:
256,192,62056,1,8,0:0:0:0:
256,192,62134,1,0,0:0:0:0:
256,192,62250,1,0,0:0:0:0:
256,192,62366,1,8,0:0:0:0:
256,192,62599,1,8,0:0:0:0:
256,192,62715,1,8,0:0:0:0:
256,192,62831,1,0,0:0:0:0:
256,192,62948,1,0,0:0:0:0:
256,192,63064,1,8,0:0:0:0:
256,192,63141,1,0,0:0:0:0:
256,192,63219,1,0,0:0:0:0:
256,192,63296,1,8,0:0:0:0:
256,192,63413,1,0,0:0:0:0:
256,192,63529,1,8,0:0:0:0:
256,192,63645,1,0,0:0:0:0:
256,192,63762,1,8,0:0:0:0:
256,192,63878,1,8,0:0:0:0:
256,192,63994,1,0,0:0:0:0:
256,192,64227,1,0,0:0:0:0:
256,192,64343,1,8,0:0:0:0:
256,192,64459,1,0,0:0:0:0:
256,192,64575,1,0,0:0:0:0:
256,192,64692,1,8,0:0:0:0:
256,192,64924,1,8,0:0:0:0:
256,192,65157,1,0,0:0:0:0:
256,192,65273,1,0,0:0:0:0:
256,192,65389,1,8,0:0:0:0:
256,192,65506,1,8,0:0:0:0:
256,192,65622,1,0,0:0:0:0:
256,192,65700,1,8,0:0:0:0:
256,192,65777,1,8,0:0:0:0:
256,192,65855,1,0,0:0:0:0:
256,192,65971,1,0,0:0:0:0:
256,192,66087,1,8,0:0:0:0:
256,192,66203,1,0,0:0:0:0:
256,192,66320,1,8,0:0:0:0:
256,192,66436,1,8,0:0:0:0:
256,192,66552,1,0,0:0:0:0:
256,192,66668,1,8,0:0:0:0:
256,192,66785,1,0,0:0:0:0:
256,192,67250,1,0,0:0:0:0:
256,192,67715,1,8,0:0:0:0:
256,192,68064,1,0,0:0:0:0:
256,192,68413,1,8,0:0:0:0:
256,192,69110,1,8,0:0:0:0:
256,192,69343,1,0,0:0:0:0:
256,192,69808,1,0,0:0:0:0:
256,192,70041,1,8,0:0:0:0:
256,192,70273,1,8,0:0:0:0:
256,192,70506,1,0,0:0:0:0:
256,192,70971,1,0,0:0:0:0:
256,192,71436,1,8,0:0:0:0:
256,192,71785,1,8,0:0:0:0:
256,192,72134,1,0,0:0:0:0:
256,192,72831,1,0,0:0:0:0:
256,192,73064,1,8,0:0:0:0:
256,192,73529,1,8,0:0:0:0:
256,192,73762,1,8,0:0:0:0:
256,192,73994,1,8,0:0:0:0:
256,192,74227,1,0,0:0:0:0:
256,192,74692,1,0,0:0:0:0:
256,192,75157,1,8,0:0:0:0:
256,192,75506,1,0,0:0:0:0:
256,192,75855,1,0,0:0:0:0:
256,192,76552,1,0,0:0:0:0:
256,192,76785,1,8,0:0:0:0:
256,192,77250,1,8,0:0:0:0:
256,192,77482,1,0,0:0:0:0:
256,192,77715,1,8,0:0:0:0:
256,192,77948,1,8,0:0:0:0:
256,192,78296,1,0,0:0:0:0:
256,192,78645,1,8,0:0:0:0:
256,192,78878,1,8,0:0:0:0:
256,192,79227,1,0,0:0:0:0:
256,192,79575,1,8,0:0:0:0:
257,191,81203,1,0,0:0:0:0:
257,191,81668,1,12,0:0:0:0:
257,191,82599,1,0,0:0:0:0:
257,191,83296,1,0,0:0:0:0:
257,191,85389,1,12,0:0:0:0:
257,191,86320,1,0,0:0:0:0:
257,191,87017,1,8,0:0:0:0:
257,191,89110,1,12,0:0:0:0:
257,191,90041,1,0,0:0:0:0:
257,191,90738,1,0,0:0:0:0:
257,191,91901,1,0,0:0:0:0:
257,191,92831,1,12,0:0:0:0:
257,191,93762,1,0,0:0:0:0:
257,191,94459,1,8,0:0:0:0:
256,192,96552,12,8,101668,0:0:0:0:
