osu file format v14

[General]
AudioFilename: Little Princess.mp3
AudioLeadIn: 0
PreviewTime: 170512
Countdown: 0
SampleSet: Soft
StackLeniency: 0.7
Mode: 3
LetterboxInBreaks: 0
SpecialStyle: 0
WidescreenStoryboard: 0

[Editor]
DistanceSpacing: 0.8
BeatDivisor: 4
GridSize: 8
TimelineZoom: 1.2

[Metadata]
Title:Kobito of the Shining Needle ~ Little Princess
TitleUnicode:輝く針の小人族 ~ Little Princess
Artist:ZUN
ArtistUnicode:ZUN
Creator:Nagato
Version:Insane
Source:Touhou
Tags:double dealing character Intensity Crystal
BeatmapID:363074
BeatmapSetID:146520

[Difficulty]
HPDrainRate:7
CircleSize:7
OverallDifficulty:7.5
ApproachRate:5
SliderMultiplier:1.4
SliderTickRate:1

[Events]
//Background and Video events
0,0,"38023798.jpg",0,0
//Break Periods
//Storyboard Layer 0 (Background)
//Storyboard Layer 1 (Fail)
//Storyboard Layer 2 (Pass)
//Storyboard Layer 3 (Foreground)
//Storyboard Layer 4 (Overlay)
//Storyboard Sound Samples

[TimingPoints]
756,365.853658536585,4,2,0,20,1,0

[HitObjects]
36,192,756,5,0,0:0:0:70:kick-6.wav
329,192,756,1,0,0:0:0:45:Hi-hat-2.wav
475,192,847,1,0,0:0:0:45:Hi-hat-2.wav
329,192,938,1,0,0:0:0:45:Hi-hat-2.wav
475,192,1030,1,0,0:0:0:45:Hi-hat-2.wav
329,192,1121,1,0,0:0:0:45:Hi-hat-2.wav
475,192,1213,1,0,0:0:0:45:Hi-hat-2.wav
329,192,1304,1,0,0:0:0:45:Hi-hat-2.wav
475,192,1396,1,0,0:0:0:45:Hi-hat-2.wav
109,192,1487,1,0,0:0:0:70:kick-6.wav
256,192,1487,1,0,0:0:0:45:Hi-hat-2.wav
402,192,1579,1,0,0:0:0:45:Hi-hat-2.wav
109,192,1670,1,0,0:0:0:70:kick-6.wav
256,192,1670,1,0,0:0:0:45:Hi-hat-2.wav
402,192,1762,1,0,0:0:0:45:Hi-hat-2.wav
256,192,1853,1,0,0:0:0:45:Hi-hat-2.wav
402,192,1945,1,0,0:0:0:45:Hi-hat-2.wav
256,192,2036,1,0,0:0:0:45:Hi-hat-2.wav
402,192,2127,1,0,0:0:0:45:Hi-hat-2.wav
475,192,2219,1,0,0:0:0:70:kick-6.wav
36,192,2219,1,0,0:0:0:45:Hi-hat-2.wav
182,192,2310,1,0,0:0:0:45:Hi-hat-2.wav
36,192,2402,1,0,0:0:0:45:Hi-hat-2.wav
182,192,2493,1,0,0:0:0:45:Hi-hat-2.wav
475,192,2585,1,0,0:0:0:70:kick-6.wav
36,192,2585,1,0,0:0:0:45:Hi-hat-2.wav
182,192,2676,1,0,0:0:0:45:Hi-hat-2.wav
36,192,2768,1,0,0:0:0:45:Hi-hat-2.wav
182,192,2859,1,0,0:0:0:45:Hi-hat-2.wav
402,192,2951,1,0,0:0:0:70:kick-6.wav
109,192,2951,1,0,0:0:0:45:Hi-hat-2.wav
256,192,3042,1,0,0:0:0:45:Hi-hat-2.wav
402,192,3134,1,0,0:0:0:70:kick-6.wav
109,192,3134,1,0,0:0:0:45:Hi-hat-2.wav
256,192,3225,1,0,0:0:0:45:Hi-hat-2.wav
109,192,3316,1,0,0:0:0:45:Hi-hat-2.wav
256,192,3408,1,0,0:0:0:45:Hi-hat-2.wav
109,192,3499,1,0,0:0:0:45:Hi-hat-2.wav
256,192,3591,1,0,0:0:0:45:Hi-hat-2.wav
36,192,3682,1,0,0:0:0:70:kick-6.wav
475,192,3682,1,0,0:0:0:45:Hi-hat-2.wav
329,192,3774,1,0,0:0:0:45:Hi-hat-2.wav
475,192,3865,1,0,0:0:0:45:Hi-hat-2.wav
329,192,3957,1,0,0:0:0:45:Hi-hat-2.wav
475,192,4048,1,0,0:0:0:45:Hi-hat-2.wav
329,192,4140,1,0,0:0:0:45:Hi-hat-2.wav
475,192,4231,1,0,0:0:0:45:Hi-hat-2.wav
329,192,4323,1,0,0:0:0:45:Hi-hat-2.wav
109,192,4414,1,0,0:0:0:70:kick-6.wav
402,192,4414,1,0,0:0:0:45:Hi-hat-2.wav
256,192,4505,1,0,0:0:0:45:Hi-hat-2.wav
109,192,4597,1,0,0:0:0:70:kick-6.wav
402,192,4597,1,0,0:0:0:45:Hi-hat-2.wav
256,192,4688,1,0,0:0:0:45:Hi-hat-2.wav
402,192,4780,1,0,0:0:0:45:Hi-hat-2.wav
256,192,4871,1,0,0:0:0:45:Hi-hat-2.wav
402,192,4963,1,0,0:0:0:45:Hi-hat-2.wav
256,192,5054,1,0,0:0:0:45:Hi-hat-2.wav
475,192,5146,1,0,0:0:0:70:kick-6.wav
36,192,5146,1,0,0:0:0:45:Hi-hat-2.wav
182,192,5237,1,0,0:0:0:45:Hi-hat-2.wav
36,192,5329,1,0,0:0:0:45:Hi-hat-2.wav
182,192,5420,1,0,0:0:0:45:Hi-hat-2.wav
475,192,5512,1,0,0:0:0:70:kick-6.wav
36,192,5512,1,0,0:0:0:45:Hi-hat-2.wav
182,192,5603,1,0,0:0:0:45:Hi-hat-2.wav
36,192,5695,1,0,0:0:0:45:Hi-hat-2.wav
182,192,5786,1,0,0:0:0:45:Hi-hat-2.wav
402,192,5877,1,0,0:0:0:70:kick-6.wav
109,192,5877,1,0,0:0:0:45:Hi-hat-2.wav
256,192,5969,1,0,0:0:0:45:Hi-hat-2.wav
402,192,6060,1,0,0:0:0:70:kick-6.wav
109,192,6060,1,0,0:0:0:45:Hi-hat-2.wav
256,192,6152,1,0,0:0:0:45:Hi-hat-2.wav
109,192,6243,1,0,0:0:0:25:snare-1.wav
402,192,6243,1,0,0:0:0:25:snare-1.wav
36,192,6609,128,0,6792:0:0:0:0:
475,192,6609,1,0,0:0:0:70:kick-6.wav
182,192,6975,128,0,7158:0:0:0:0:
109,192,7341,128,0,7524:0:0:0:0:
475,192,7341,1,0,0:0:0:70:kick-6.wav
475,192,7524,1,0,0:0:0:70:kick-6.wav
256,192,7707,128,0,7890:0:0:0:0:
182,192,8073,128,0,8255:0:0:0:0:
475,192,8073,1,0,0:0:0:70:kick-6.wav
329,192,8438,128,0,8621:0:0:0:0:
475,192,8438,1,0,0:0:0:70:kick-6.wav
402,192,8804,128,0,8987:0:0:0:0:
475,192,8804,1,0,0:0:0:70:kick-6.wav
475,192,8987,1,0,0:0:0:70:kick-6.wav
256,192,9170,128,0,9353:0:0:0:0:
36,192,9536,1,0,0:0:0:70:kick-6.wav
329,192,9536,128,0,9719:0:0:0:0:
475,192,9902,128,0,10085:0:0:0:0:
329,192,10268,128,0,10451:0:0:0:0:
36,192,10268,1,0,0:0:0:70:kick-6.wav
36,192,10451,1,0,0:0:0:70:kick-6.wav
329,192,10634,128,0,10816:0:0:0:0:
182,192,10999,128,0,11182:0:0:0:0:
36,192,10999,1,0,0:0:0:70:kick-6.wav
329,192,11365,128,0,11548:0:0:0:0:
36,192,11365,1,0,0:0:0:70:kick-6.wav
182,192,11731,128,0,11914:0:0:0:0:
36,192,11731,1,0,0:0:0:70:kick-6.wav
36,192,11914,1,0,0:0:0:70:kick-6.wav
109,192,12097,128,0,12280:0:0:0:0:
256,192,12097,1,0,0:0:0:70:snare-25.wav
402,192,12188,1,0,0:0:0:70:snare-25.wav
256,192,12280,1,0,0:0:0:70:snare-25.wav
402,192,12371,1,0,0:0:0:70:snare-25.wav
109,192,12463,1,0,0:0:0:70:kick-6.wav
256,192,12463,1,0,0:0:0:45:crashes-10.wav
475,192,12463,128,0,12646:0:0:0:0:
402,192,12646,1,0,0:0:0:70:snare-22.wav
109,192,12829,1,0,0:0:0:70:kick-6.wav
329,192,12829,128,0,13012:0:0:0:0:
109,192,12920,1,0,0:0:0:70:kick-6.wav
402,192,13012,1,0,0:0:0:70:snare-22.wav
109,192,13195,1,0,0:0:0:70:kick-6.wav
182,192,13195,128,0,13377:0:0:0:0:
402,192,13377,1,0,0:0:0:70:snare-22.wav
109,192,13560,1,0,0:0:0:70:kick-6.wav
329,192,13560,128,0,13743:0:0:0:0:
109,192,13652,1,0,0:0:0:70:kick-6.wav
402,192,13743,1,0,0:0:0:70:snare-22.wav
109,192,13926,1,0,0:0:0:70:kick-6.wav
182,192,13926,128,0,14109:0:0:0:0:
402,192,14109,1,0,0:0:0:70:snare-22.wav
109,192,14292,1,0,0:0:0:70:kick-6.wav
329,192,14292,128,0,14475:0:0:0:0:
109,192,14384,1,0,0:0:0:70:kick-6.wav
402,192,14475,1,0,0:0:0:70:snare-22.wav
475,192,14658,128,0,14841:0:0:0:0:
109,192,14658,1,0,0:0:0:70:kick-6.wav
402,192,14841,1,0,0:0:0:70:snare-22.wav
109,192,15024,1,0,0:0:0:70:kick-6.wav
329,192,15024,128,0,15207:0:0:0:0:
109,192,15115,1,0,0:0:0:70:kick-6.wav
402,192,15207,1,0,0:0:0:70:snare-22.wav
109,192,15390,1,0,0:0:0:70:kick-6.wav
256,192,15390,1,0,0:0:0:45:crashes-10.wav
36,192,15390,128,0,15573:0:0:0:0:
402,192,15573,1,0,0:0:0:70:snare-22.wav
109,192,15755,1,0,0:0:0:70:kick-6.wav
329,192,15755,128,0,15938:0:0:0:0:
109,192,15847,1,0,0:0:0:70:kick-6.wav
402,192,15938,1,0,0:0:0:70:snare-22.wav
109,192,16121,1,0,0:0:0:70:kick-6.wav
182,192,16121,128,0,16304:0:0:0:0:
402,192,16304,1,0,0:0:0:70:snare-22.wav
109,192,16487,1,0,0:0:0:70:kick-6.wav
329,192,16487,128,0,16670:0:0:0:0:
109,192,16579,1,0,0:0:0:70:kick-6.wav
402,192,16670,1,0,0:0:0:70:snare-22.wav
109,192,16853,1,0,0:0:0:70:kick-6.wav
329,192,16853,128,0,17036:0:0:0:0:
402,192,17036,1,0,0:0:0:70:snare-22.wav
109,192,17219,1,0,0:0:0:70:kick-6.wav
475,192,17219,128,0,17402:0:0:0:0:
109,192,17310,1,0,0:0:0:70:kick-6.wav
402,192,17402,1,0,0:0:0:70:snare-22.wav
109,192,17585,1,0,0:0:0:70:kick-6.wav
329,192,17585,128,0,17768:0:0:0:0:
402,192,17768,1,0,0:0:0:70:snare-22.wav
109,192,17951,1,0,0:0:0:70:kick-6.wav
329,192,17951,128,0,18134:0:0:0:0:
109,192,18042,1,0,0:0:0:70:kick-6.wav
402,192,18134,1,0,0:0:0:70:snare-22.wav
109,192,18316,1,0,0:0:0:70:kick-6.wav
256,192,18316,1,0,0:0:0:45:crashes-10.wav
475,192,18316,128,0,18499:0:0:0:0:
402,192,18499,1,0,0:0:0:70:snare-22.wav
109,192,18682,1,0,0:0:0:70:kick-6.wav
329,192,18682,128,0,18865:0:0:0:0:
109,192,18774,1,0,0:0:0:70:kick-6.wav
402,192,18865,1,0,0:0:0:70:snare-22.wav
109,192,19048,1,0,0:0:0:70:kick-6.wav
182,192,19048,128,0,19231:0:0:0:0:
402,192,19231,1,0,0:0:0:70:snare-22.wav
109,192,19414,1,0,0:0:0:70:kick-6.wav
329,192,19414,128,0,19597:0:0:0:0:
109,192,19505,1,0,0:0:0:70:kick-6.wav
402,192,19597,1,0,0:0:0:70:snare-22.wav
109,192,19780,1,0,0:0:0:70:kick-6.wav
36,192,19780,128,0,19963:0:0:0:0:
402,192,19963,1,0,0:0:0:70:snare-22.wav
109,192,20146,1,0,0:0:0:70:kick-6.wav
329,192,20146,128,0,20329:0:0:0:0:
109,192,20237,1,0,0:0:0:70:kick-6.wav
402,192,20329,1,0,0:0:0:70:snare-22.wav
109,192,20512,1,0,0:0:0:70:kick-6.wav
475,192,20512,128,0,20695:0:0:0:0:
402,192,20695,1,0,0:0:0:70:snare-22.wav
109,192,20877,1,0,0:0:0:70:kick-6.wav
329,192,20877,128,0,21060:0:0:0:0:
109,192,20969,1,0,0:0:0:70:kick-6.wav
402,192,21060,1,0,0:0:0:70:snare-22.wav
109,192,21243,1,0,0:0:0:70:kick-6.wav
256,192,21243,1,0,0:0:0:45:crashes-10.wav
36,192,21243,128,0,21426:0:0:0:0:
402,192,21426,1,0,0:0:0:70:snare-22.wav
109,192,21609,1,0,0:0:0:70:kick-6.wav
475,192,21609,128,0,21792:0:0:0:0:
109,192,21701,1,0,0:0:0:70:kick-6.wav
402,192,21792,1,0,0:0:0:70:snare-22.wav
109,192,21975,1,0,0:0:0:70:kick-6.wav
182,192,21975,128,0,22158:0:0:0:0:
402,192,22158,1,0,0:0:0:70:snare-22.wav
109,192,22341,1,0,0:0:0:70:kick-6.wav
329,192,22341,128,0,22524:0:0:0:0:
109,192,22432,1,0,0:0:0:70:kick-6.wav
402,192,22524,1,0,0:0:0:70:snare-22.wav
109,192,22707,1,0,0:0:0:70:kick-6.wav
182,192,22707,128,0,22890:0:0:0:0:
402,192,22890,1,0,0:0:0:70:snare-22.wav
109,192,23073,1,0,0:0:0:70:kick-6.wav
475,192,23073,128,0,23255:0:0:0:0:
109,192,23164,1,0,0:0:0:70:kick-6.wav
402,192,23255,1,0,0:0:0:70:snare-22.wav
109,192,23438,1,0,0:0:0:70:kick-6.wav
36,192,23438,128,0,23621:0:0:0:0:
402,192,23621,1,0,0:0:0:70:snare-22.wav
329,192,23804,128,0,23987:0:0:0:0:
109,192,23804,1,0,0:0:0:70:kick-6.wav
109,192,23896,1,0,0:0:0:70:kick-6.wav
402,192,23987,1,0,0:0:0:70:snare-22.wav
109,192,24170,128,0,24353:0:0:0:0:
36,192,24170,1,0,0:0:0:70:kick-6.wav
256,192,24170,1,0,0:0:0:45:crashes-10.wav
475,192,24353,1,0,0:0:0:70:snare-22.wav
182,192,24536,128,0,24719:0:0:0:0:
36,192,24536,1,0,0:0:0:70:kick-6.wav
36,192,24627,1,0,0:0:0:70:kick-6.wav
475,192,24719,1,0,0:0:0:70:snare-22.wav
36,192,24902,1,0,0:0:0:70:kick-6.wav
329,192,24902,128,0,25085:0:0:0:0:
475,192,25085,1,0,0:0:0:70:snare-22.wav
36,192,25268,1,0,0:0:0:70:kick-6.wav
402,192,25268,128,0,25451:0:0:0:0:
36,192,25359,1,0,0:0:0:70:kick-6.wav
475,192,25451,1,0,0:0:0:70:snare-22.wav
36,192,25634,1,0,0:0:0:70:kick-6.wav
256,192,25634,128,0,25816:0:0:0:0:
475,192,25816,1,0,0:0:0:70:snare-22.wav
36,192,25999,1,0,0:0:0:70:kick-6.wav
329,192,25999,128,0,26182:0:0:0:0:
36,192,26091,1,0,0:0:0:70:kick-6.wav
475,192,26182,1,0,0:0:0:70:snare-22.wav
36,192,26365,1,0,0:0:0:70:kick-6.wav
402,192,26365,128,0,26548:0:0:0:0:
475,192,26548,1,0,0:0:0:70:snare-22.wav
36,192,26731,1,0,0:0:0:70:kick-6.wav
329,192,26731,128,0,26914:0:0:0:0:
36,192,26823,1,0,0:0:0:70:kick-6.wav
475,192,26914,1,0,0:0:0:70:snare-22.wav
36,192,27097,1,0,0:0:0:70:kick-6.wav
256,192,27097,1,0,0:0:0:45:crashes-10.wav
109,192,27097,128,0,27280:0:0:0:0:
475,192,27280,1,0,0:0:0:70:snare-22.wav
36,192,27463,1,0,0:0:0:70:kick-6.wav
182,192,27463,128,0,27646:0:0:0:0:
36,192,27554,1,0,0:0:0:70:kick-6.wav
475,192,27646,1,0,0:0:0:70:snare-22.wav
36,192,27829,1,0,0:0:0:70:kick-6.wav
329,192,27829,128,0,28012:0:0:0:0:
475,192,28012,1,0,0:0:0:70:snare-22.wav
36,192,28195,1,0,0:0:0:70:kick-6.wav
402,192,28195,128,0,28377:0:0:0:0:
36,192,28286,1,0,0:0:0:70:kick-6.wav
475,192,28377,1,0,0:0:0:70:snare-22.wav
36,192,28560,1,0,0:0:0:70:kick-6.wav
329,192,28560,128,0,28743:0:0:0:0:
475,192,28743,1,0,0:0:0:70:snare-22.wav
36,192,28926,1,0,0:0:0:70:kick-6.wav
256,192,28926,128,0,29109:0:0:0:0:
36,192,29018,1,0,0:0:0:70:kick-6.wav
475,192,29109,1,0,0:0:0:70:snare-22.wav
182,192,29292,128,0,29475:0:0:0:0:
36,192,29292,1,0,0:0:0:70:kick-6.wav
475,192,29475,1,0,0:0:0:70:snare-22.wav
36,192,29658,1,0,0:0:0:70:kick-6.wav
109,192,29658,128,0,29841:0:0:0:0:
36,192,29749,1,0,0:0:0:70:kick-6.wav
475,192,29841,1,0,0:0:0:70:snare-22.wav
36,192,30024,1,0,0:0:0:70:kick-6.wav
256,192,30024,1,0,0:0:0:45:crashes-10.wav
109,192,30024,128,0,30207:0:0:0:0:
475,192,30207,1,0,0:0:0:70:snare-22.wav
36,192,30390,1,0,0:0:0:70:kick-6.wav
329,192,30390,128,0,30573:0:0:0:0:
36,192,30481,1,0,0:0:0:70:kick-6.wav
475,192,30573,1,0,0:0:0:70:snare-22.wav
36,192,30755,1,0,0:0:0:70:kick-6.wav
182,192,30755,128,0,30938:0:0:0:0:
475,192,30938,1,0,0:0:0:70:snare-22.wav
36,192,31121,1,0,0:0:0:70:kick-6.wav
402,192,31121,128,0,31304:0:0:0:0:
36,192,31213,1,0,0:0:0:70:kick-6.wav
475,192,31304,1,0,0:0:0:70:snare-22.wav
36,192,31487,1,0,0:0:0:70:kick-6.wav
402,192,31487,128,0,31670:0:0:0:0:
475,192,31670,1,0,0:0:0:70:snare-22.wav
36,192,31853,1,0,0:0:0:70:kick-6.wav
329,192,31853,128,0,32036:0:0:0:0:
36,192,31945,1,0,0:0:0:70:kick-6.wav
475,192,32036,1,0,0:0:0:70:snare-22.wav
36,192,32219,1,0,0:0:0:70:kick-6.wav
256,192,32219,128,0,32402:0:0:0:0:
475,192,32402,1,0,0:0:0:70:snare-22.wav
36,192,32585,1,0,0:0:0:70:kick-6.wav
182,192,32585,128,0,32768:0:0:0:0:
36,192,32676,1,0,0:0:0:70:kick-6.wav
475,192,32768,1,0,0:0:0:70:snare-22.wav
36,192,32951,1,0,0:0:0:70:kick-6.wav
256,192,32951,1,0,0:0:0:45:crashes-10.wav
109,192,32951,128,0,33134:0:0:0:0:
475,192,33134,1,0,0:0:0:70:snare-22.wav
329,192,33316,128,0,33499:0:0:0:0:
36,192,33316,1,0,0:0:0:70:kick-6.wav
36,192,33408,1,0,0:0:0:70:kick-6.wav
475,192,33499,1,0,0:0:0:70:snare-22.wav
182,192,33682,128,0,33865:0:0:0:0:
36,192,33682,1,0,0:0:0:70:kick-6.wav
475,192,33865,1,0,0:0:0:70:snare-22.wav
402,192,34048,128,0,34231:0:0:0:0:
36,192,34048,1,0,0:0:0:70:kick-6.wav
36,192,34140,1,0,0:0:0:70:kick-6.wav
475,192,34231,1,0,0:0:0:70:snare-22.wav
256,192,34414,128,0,34597:0:0:0:0:
36,192,34414,1,0,0:0:0:70:kick-6.wav
475,192,34597,1,0,0:0:0:70:snare-22.wav
36,192,34780,1,0,0:0:0:70:kick-6.wav
402,192,34780,128,0,34963:0:0:0:0:
36,192,34871,1,0,0:0:0:70:kick-6.wav
182,192,34963,1,0,0:0:0:70:snare-20.wav
329,192,35054,1,0,0:0:0:70:snare-20.wav
182,192,35146,1,0,0:0:0:70:snare-20.wav
329,192,35237,1,0,0:0:0:70:snare-20.wav
182,192,35329,1,0,0:0:0:70:snare-20.wav
256,192,35512,1,0,0:0:0:70:snare-20.wav
256,192,35695,1,0,0:0:0:70:snare-20.wav
256,192,35877,1,0,0:0:0:70:snare-22.wav
475,192,35877,1,0,0:0:0:70:kick-6.wav
109,192,35877,1,0,0:0:0:45:crashes-10.wav
402,192,35877,128,0,38804:0:0:0:0:
36,192,36243,1,0,0:0:0:45:Hi-hat-2.wav
475,192,36609,1,0,0:0:0:70:kick-6.wav
256,192,36609,1,0,0:0:0:70:snare-22.wav
475,192,36792,1,0,0:0:0:70:kick-6.wav
256,192,36792,1,0,0:0:0:70:snare-22.wav
36,192,36975,1,0,0:0:0:45:Hi-hat-2.wav
475,192,37341,1,0,0:0:0:70:kick-6.wav
256,192,37341,1,0,0:0:0:70:snare-22.wav
475,192,37707,1,0,0:0:0:70:kick-6.wav
36,192,37707,1,0,0:0:0:45:Hi-hat-2.wav
256,192,37707,1,0,0:0:0:70:snare-22.wav
475,192,38073,1,0,0:0:0:70:kick-6.wav
256,192,38073,1,0,0:0:0:70:snare-22.wav
475,192,38255,1,0,0:0:0:70:kick-6.wav
256,192,38255,1,0,0:0:0:70:snare-22.wav
36,192,38438,1,0,0:0:0:45:Hi-hat-2.wav
475,192,38804,1,0,0:0:0:70:kick-6.wav
256,192,38804,1,0,0:0:0:70:snare-22.wav
36,192,38804,1,0,0:0:0:45:crashes-10.wav
109,192,38804,128,0,41731:0:0:0:0:
36,192,39170,1,0,0:0:0:45:Hi-hat-2.wav
475,192,39536,1,0,0:0:0:70:kick-6.wav
256,192,39536,1,0,0:0:0:70:snare-22.wav
475,192,39719,1,0,0:0:0:70:kick-6.wav
256,192,39719,1,0,0:0:0:70:snare-22.wav
36,192,39902,1,0,0:0:0:45:Hi-hat-2.wav
475,192,40268,1,0,0:0:0:70:kick-6.wav
256,192,40268,1,0,0:0:0:70:snare-22.wav
475,192,40634,1,0,0:0:0:70:kick-6.wav
36,192,40634,1,0,0:0:0:45:Hi-hat-2.wav
256,192,40634,1,0,0:0:0:70:snare-22.wav
475,192,40999,1,0,0:0:0:70:kick-6.wav
256,192,40999,1,0,0:0:0:70:snare-22.wav
475,192,41182,1,0,0:0:0:70:kick-6.wav
256,192,41182,1,0,0:0:0:70:snare-22.wav
182,192,41365,1,0,0:0:0:70:snare-20.wav
36,192,41365,1,0,0:0:0:0:
329,192,41457,1,0,0:0:0:70:snare-20.wav
182,192,41548,1,0,0:0:0:70:snare-20.wav
329,192,41640,1,0,0:0:0:70:snare-20.wav
36,192,41731,1,0,0:0:0:45:Hi-hat-2.wav
475,192,41731,128,0,42463:0:0:0:0:
256,192,41731,1,0,0:0:0:70:kick-6.wav
182,192,41731,1,0,0:0:0:45:crashes-10.wav
36,192,42097,1,0,0:0:0:45:Hi-hat-2.wav
36,192,42463,1,0,0:0:0:45:Hi-hat-2.wav
402,192,42463,128,0,43560:0:0:0:0:
182,192,42463,1,0,0:0:0:70:kick-6.wav
256,192,42646,1,0,0:0:0:70:kick-6.wav
36,192,42829,1,0,0:0:0:45:Hi-hat-2.wav
36,192,43195,1,0,0:0:0:45:Hi-hat-2.wav
256,192,43195,1,0,0:0:0:70:kick-6.wav
36,192,43560,1,0,0:0:0:45:Hi-hat-2.wav
109,192,43560,128,0,43926:0:0:0:0:
256,192,43560,1,0,0:0:0:70:kick-6.wav
36,192,43926,1,0,0:0:0:45:Hi-hat-2.wav
182,192,43926,128,0,44292:0:0:0:0:
329,192,43926,1,0,0:0:0:70:kick-6.wav
256,192,44109,1,0,0:0:0:70:kick-6.wav
36,192,44292,1,0,0:0:0:45:Hi-hat-2.wav
256,192,44292,128,0,44658:0:0:0:0:
36,192,44658,1,0,0:0:0:45:Hi-hat-2.wav
402,192,44658,128,0,45390:0:0:0:0:
475,192,44658,1,0,0:0:0:70:kick-6.wav
36,192,45024,1,0,0:0:0:45:Hi-hat-2.wav
36,192,45390,1,0,0:0:0:45:Hi-hat-2.wav
329,192,45390,128,0,46121:0:0:0:0:
182,192,45390,1,0,0:0:0:70:kick-6.wav
256,192,45573,1,0,0:0:0:70:kick-6.wav
36,192,45755,1,0,0:0:0:45:Hi-hat-2.wav
36,192,46121,1,0,0:0:0:45:Hi-hat-2.wav
475,192,46121,1,0,0:0:0:70:kick-6.wav
36,192,46487,1,0,0:0:0:45:Hi-hat-2.wav
182,192,46487,128,0,46853:0:0:0:0:
475,192,46487,1,0,0:0:0:70:kick-6.wav
36,192,46853,1,0,0:0:0:45:Hi-hat-2.wav
256,192,46853,128,0,47219:0:0:0:0:
475,192,46853,1,0,0:0:0:70:kick-6.wav
402,192,47036,1,0,0:0:0:70:kick-6.wav
36,192,47219,1,0,0:0:0:45:Hi-hat-2.wav
329,192,47219,128,0,47585:0:0:0:0:
475,192,47585,1,0,0:0:0:45:Hi-hat-2.wav
402,192,47585,128,0,48682:0:0:0:0:
182,192,47585,1,0,0:0:0:70:kick-6.wav
475,192,47951,1,0,0:0:0:45:Hi-hat-2.wav
475,192,48316,1,0,0:0:0:45:Hi-hat-2.wav
182,192,48316,1,0,0:0:0:70:kick-6.wav
109,192,48499,1,0,0:0:0:70:kick-6.wav
475,192,48682,1,0,0:0:0:45:Hi-hat-2.wav
329,192,48682,128,0,49048:0:0:0:0:
36,192,49048,1,0,0:0:0:70:kick-6.wav
256,192,49048,128,0,49414:0:0:0:0:
475,192,49048,1,0,0:0:0:45:Hi-hat-2.wav
36,192,49414,1,0,0:0:0:70:kick-6.wav
182,192,49414,128,0,49597:0:0:0:0:
475,192,49414,1,0,0:0:0:45:Hi-hat-2.wav
256,192,49597,128,0,49963:0:0:0:0:
475,192,49780,1,0,0:0:0:45:Hi-hat-2.wav
36,192,49780,1,0,0:0:0:70:kick-6.wav
182,192,49963,128,0,50329:0:0:0:0:
109,192,49963,1,0,0:0:0:70:kick-6.wav
475,192,50146,1,0,0:0:0:45:Hi-hat-2.wav
109,192,50329,128,0,51975:0:0:0:0:
475,192,50512,1,0,0:0:0:45:Hi-hat-2.wav
329,192,50512,1,0,0:0:0:70:kick-6.wav
475,192,50877,1,0,0:0:0:45:Hi-hat-2.wav
475,192,51243,1,0,0:0:0:45:Hi-hat-2.wav
329,192,51243,1,0,0:0:0:70:kick-6.wav
256,192,51426,1,0,0:0:0:70:kick-6.wav
475,192,51609,1,0,0:0:0:45:Hi-hat-2.wav
475,192,51975,1,0,0:0:0:45:Hi-hat-2.wav
329,192,51975,128,0,53438:0:0:0:0:
182,192,51975,1,0,0:0:0:70:kick-6.wav
475,192,52341,1,0,0:0:0:45:Hi-hat-2.wav
182,192,52341,1,0,0:0:0:70:kick-6.wav
475,192,52707,1,0,0:0:0:45:Hi-hat-2.wav
182,192,52707,1,0,0:0:0:70:kick-6.wav
109,192,52890,1,0,0:0:0:70:kick-6.wav
475,192,53073,1,0,0:0:0:45:Hi-hat-2.wav
256,192,53073,1,0,0:0:0:70:kick-6.wav
109,192,53164,1,0,0:0:0:70:snare-20.wav
256,192,53255,1,0,0:0:0:70:kick-6.wav
109,192,53347,1,0,0:0:0:70:snare-20.wav
36,192,53438,1,0,0:0:0:45:Hi-hat-2.wav
256,192,53438,1,0,0:0:0:70:kick-6.wav
402,192,53621,1,0,0:0:0:45:Hi-hat-12.wav
256,192,53804,1,0,0:0:0:70:kick-6.wav
109,192,53804,1,0,0:0:0:45:Hi-hat-2.wav
475,192,53987,1,0,0:0:0:45:Hi-hat-12.wav
256,192,54170,1,0,0:0:0:70:kick-6.wav
36,192,54170,1,0,0:0:0:45:Hi-hat-2.wav
256,192,54353,1,0,0:0:0:70:kick-6.wav
402,192,54353,1,0,0:0:0:45:Hi-hat-12.wav
256,192,54536,1,0,0:0:0:70:kick-6.wav
109,192,54536,1,0,0:0:0:45:Hi-hat-2.wav
475,192,54719,1,0,0:0:0:45:Hi-hat-12.wav
256,192,54902,1,0,0:0:0:70:kick-6.wav
36,192,54902,1,0,0:0:0:45:Hi-hat-2.wav
402,192,55085,1,0,0:0:0:45:Hi-hat-12.wav
256,192,55268,1,0,0:0:0:70:kick-6.wav
109,192,55268,1,0,0:0:0:45:Hi-hat-2.wav
475,192,55451,1,0,0:0:0:45:Hi-hat-12.wav
256,192,55634,1,0,0:0:0:70:kick-6.wav
36,192,55634,1,0,0:0:0:45:Hi-hat-2.wav
256,192,55816,1,0,0:0:0:70:kick-6.wav
402,192,55816,1,0,0:0:0:45:Hi-hat-12.wav
256,192,55999,1,0,0:0:0:70:kick-6.wav
109,192,55999,1,0,0:0:0:45:Hi-hat-2.wav
475,192,56182,1,0,0:0:0:45:Hi-hat-12.wav
256,192,56365,1,0,0:0:0:70:kick-6.wav
36,192,56365,1,0,0:0:0:45:Hi-hat-2.wav
402,192,56548,1,0,0:0:0:45:Hi-hat-12.wav
109,192,56731,1,0,0:0:0:45:Hi-hat-2.wav
256,192,56731,1,0,0:0:0:70:kick-6.wav
475,192,56914,1,0,0:0:0:45:Hi-hat-12.wav
256,192,57097,1,0,0:0:0:70:kick-6.wav
36,192,57097,1,0,0:0:0:45:Hi-hat-2.wav
256,192,57280,1,0,0:0:0:70:kick-6.wav
402,192,57280,1,0,0:0:0:45:Hi-hat-12.wav
256,192,57463,1,0,0:0:0:70:kick-6.wav
109,192,57463,1,0,0:0:0:45:Hi-hat-2.wav
475,192,57646,1,0,0:0:0:45:Hi-hat-12.wav
256,192,57829,1,0,0:0:0:70:kick-6.wav
475,192,57829,1,0,0:0:0:45:Hi-hat-2.wav
109,192,58012,1,0,0:0:0:45:Hi-hat-12.wav
256,192,58195,1,0,0:0:0:70:kick-6.wav
402,192,58195,1,0,0:0:0:45:Hi-hat-2.wav
36,192,58377,1,0,0:0:0:45:Hi-hat-12.wav
256,192,58560,1,0,0:0:0:70:kick-6.wav
475,192,58560,1,0,0:0:0:45:Hi-hat-2.wav
256,192,58743,1,0,0:0:0:70:kick-6.wav
109,192,58743,1,0,0:0:0:45:Hi-hat-12.wav
256,192,58926,1,0,0:0:0:70:kick-6.wav
402,192,58926,1,0,0:0:0:45:Hi-hat-2.wav
36,192,59109,1,0,0:0:0:45:Hi-hat-12.wav
256,192,59292,1,0,0:0:0:70:kick-6.wav
475,192,59292,1,0,0:0:0:45:Hi-hat-2.wav
109,192,59475,1,0,0:0:0:45:Hi-hat-12.wav
256,192,59658,1,0,0:0:0:70:kick-6.wav
402,192,59658,1,0,0:0:0:45:Hi-hat-2.wav
36,192,59841,1,0,0:0:0:45:Hi-hat-12.wav
256,192,60024,1,0,0:0:0:70:kick-6.wav
475,192,60024,1,0,0:0:0:45:Hi-hat-2.wav
256,192,60207,1,0,0:0:0:70:kick-6.wav
109,192,60207,1,0,0:0:0:45:Hi-hat-12.wav
256,192,60390,1,0,0:0:0:70:kick-6.wav
402,192,60390,1,0,0:0:0:45:Hi-hat-2.wav
36,192,60573,1,0,0:0:0:45:Hi-hat-12.wav
256,192,60755,1,0,0:0:0:70:kick-6.wav
475,192,60755,1,0,0:0:0:45:Hi-hat-2.wav
109,192,60938,1,0,0:0:0:45:Hi-hat-12.wav
256,192,61121,1,0,0:0:0:70:kick-6.wav
402,192,61121,1,0,0:0:0:45:Hi-hat-2.wav
36,192,61304,1,0,0:0:0:45:Hi-hat-12.wav
256,192,61487,1,0,0:0:0:70:kick-6.wav
475,192,61487,1,0,0:0:0:45:Hi-hat-2.wav
256,192,61670,1,0,0:0:0:70:kick-6.wav
109,192,61670,1,0,0:0:0:45:Hi-hat-12.wav
256,192,61853,1,0,0:0:0:70:kick-6.wav
402,192,61853,1,0,0:0:0:45:Hi-hat-2.wav
36,192,62036,1,0,0:0:0:45:Hi-hat-12.wav
256,192,62219,1,0,0:0:0:70:kick-6.wav
475,192,62219,1,0,0:0:0:45:Hi-hat-2.wav
109,192,62402,1,0,0:0:0:45:Hi-hat-12.wav
256,192,62585,1,0,0:0:0:70:kick-6.wav
402,192,62585,1,0,0:0:0:45:Hi-hat-2.wav
36,192,62768,1,0,0:0:0:45:Hi-hat-12.wav
256,192,62951,1,0,0:0:0:70:kick-6.wav
475,192,62951,1,0,0:0:0:45:Hi-hat-2.wav
256,192,63134,1,0,0:0:0:70:kick-6.wav
109,192,63134,1,0,0:0:0:45:Hi-hat-12.wav
256,192,63316,1,0,0:0:0:70:kick-6.wav
402,192,63316,1,0,0:0:0:45:Hi-hat-2.wav
36,192,63499,1,0,0:0:0:45:Hi-hat-12.wav
256,192,63682,1,0,0:0:0:70:kick-6.wav
475,192,63682,1,0,0:0:0:45:Hi-hat-2.wav
109,192,63865,1,0,0:0:0:45:Hi-hat-12.wav
256,192,64048,1,0,0:0:0:70:kick-6.wav
402,192,64048,1,0,0:0:0:45:Hi-hat-2.wav
36,192,64231,1,0,0:0:0:45:Hi-hat-12.wav
256,192,64414,1,0,0:0:0:70:kick-6.wav
475,192,64414,1,0,0:0:0:45:Hi-hat-2.wav
256,192,64597,1,0,0:0:0:70:snare-25.wav
109,192,64597,1,0,0:0:0:45:Hi-hat-12.wav
256,192,64688,1,0,0:0:0:70:snare-25.wav
256,192,64780,1,0,0:0:0:70:snare-25.wav
402,192,64780,1,0,0:0:0:45:Hi-hat-2.wav
256,192,64963,1,0,0:0:0:70:snare-25.wav
36,192,64963,1,0,0:0:0:45:Hi-hat-12.wav
256,192,65146,1,0,0:0:0:70:kick-6.wav
329,192,65146,128,0,66609:0:0:0:0:
475,192,65146,1,0,0:0:0:70:kick-6.wav
182,192,65146,128,0,66609:0:0:0:0:
109,192,65877,1,0,0:0:0:70:kick-6.wav
109,192,66060,1,0,0:0:0:70:kick-6.wav
256,192,66609,128,0,67341:0:0:0:0:
475,192,66609,1,0,0:0:0:70:kick-6.wav
109,192,66609,128,0,67341:0:0:0:0:
182,192,67341,128,0,67707:0:0:0:0:
402,192,67341,1,0,0:0:0:70:kick-6.wav
36,192,67341,128,0,67707:0:0:0:0:
402,192,67524,1,0,0:0:0:70:kick-6.wav
256,192,67707,128,0,68073:0:0:0:0:
109,192,67707,128,0,68073:0:0:0:0:
329,192,68073,128,0,70268:0:0:0:0:
475,192,68073,1,0,0:0:0:0:
182,192,68073,128,0,70268:0:0:0:0:
36,192,68804,1,0,0:0:0:70:kick-6.wav
36,192,68987,1,0,0:0:0:70:kick-6.wav
475,192,69536,1,0,0:0:0:70:kick-6.wav
36,192,70268,1,0,0:0:0:70:kick-6.wav
36,192,70451,1,0,0:0:0:70:kick-6.wav
329,192,70451,128,0,70542:0:0:0:0:
182,192,70451,128,0,70542:0:0:0:0:
109,192,70634,1,0,0:0:0:70:snare-1.wav
402,192,70634,128,0,70725:0:0:0:0:
256,192,70634,128,0,70725:0:0:0:0:
475,192,70816,128,0,70908:0:0:0:0:
329,192,70816,128,0,70908:0:0:0:0:
475,192,70999,128,0,71731:0:0:0:0:
36,192,70999,1,0,0:0:0:70:snare-22.wav
329,192,70999,128,0,71731:0:0:0:0:
402,192,71731,128,0,71914:0:0:0:0:
109,192,71731,1,0,0:0:0:70:snare-22.wav
256,192,71731,128,0,71914:0:0:0:0:
475,192,71914,128,0,72280:0:0:0:0:
109,192,71914,1,0,0:0:0:70:snare-22.wav
329,192,71914,128,0,72280:0:0:0:0:
402,192,72280,128,0,72829:0:0:0:0:
256,192,72280,128,0,72829:0:0:0:0:
36,192,72463,1,0,0:0:0:70:snare-22.wav
329,192,72829,128,0,73012:0:0:0:0:
36,192,72829,1,0,0:0:0:70:snare-22.wav
182,192,72829,128,0,73012:0:0:0:0:
256,192,73012,128,0,73195:0:0:0:0:
109,192,73012,128,0,73195:0:0:0:0:
182,192,73195,128,0,73377:0:0:0:0:
475,192,73195,1,0,0:0:0:70:snare-22.wav
36,192,73195,128,0,73377:0:0:0:0:
109,192,73377,128,0,73560:0:0:0:0:
475,192,73377,1,0,0:0:0:70:snare-22.wav
36,192,73560,128,0,73926:0:0:0:0:
329,192,73743,1,0,0:0:0:70:snare-22.wav
109,192,73926,128,0,75390:0:0:0:0:
475,192,73926,1,0,0:0:0:70:snare-20.wav
402,192,74018,1,0,0:0:0:70:snare-20.wav
329,192,74109,1,0,0:0:0:70:snare-20.wav
329,192,74292,1,0,0:0:0:70:snare-20.wav
256,192,74384,1,0,0:0:0:70:snare-20.wav
182,192,74475,1,0,0:0:0:70:snare-20.wav
402,192,74658,1,0,0:0:0:70:snare-20.wav
402,192,74841,1,0,0:0:0:70:snare-20.wav
329,192,75024,1,0,0:0:0:70:snare-20.wav
256,192,75115,1,0,0:0:0:70:snare-20.wav
329,192,75207,1,0,0:0:0:70:snare-20.wav
256,192,75298,1,0,0:0:0:70:snare-20.wav
182,192,75390,128,0,76853:0:0:0:0:
402,192,75390,1,0,0:0:0:70:snare-22.wav
36,192,75390,128,0,76853:0:0:0:0:
402,192,75755,1,0,0:0:0:70:snare-22.wav
402,192,76121,1,0,0:0:0:70:snare-22.wav
402,192,76304,1,0,0:0:0:70:snare-22.wav
329,192,76487,1,0,0:0:0:70:snare-22.wav
402,192,76579,1,0,0:0:0:70:snare-22.wav
329,192,76670,1,0,0:0:0:70:snare-22.wav
402,192,76762,1,0,0:0:0:70:snare-22.wav
109,192,76853,1,0,0:0:0:0:
475,192,76853,1,0,0:0:0:70:snare-22.wav
182,192,76945,1,0,0:0:0:0:
256,192,77036,1,0,0:0:0:0:
329,192,77127,1,0,0:0:0:0:
402,192,77219,1,0,0:0:0:0:
475,192,77310,1,0,0:0:0:0:
329,192,77402,1,0,0:0:0:0:
402,192,77493,1,0,0:0:0:0:
36,192,77585,1,0,0:0:0:70:snare-22.wav
475,192,77585,1,0,0:0:0:0:
402,192,77676,1,0,0:0:0:0:
329,192,77768,1,0,0:0:0:0:
36,192,77768,1,0,0:0:0:70:snare-22.wav
256,192,77859,1,0,0:0:0:0:
329,192,77951,1,0,0:0:0:0:
256,192,78042,1,0,0:0:0:0:
182,192,78134,1,0,0:0:0:0:
109,192,78225,1,0,0:0:0:0:
36,192,78316,1,0,0:0:0:0:
475,192,78316,1,0,0:0:0:70:snare-22.wav
109,192,78408,1,0,0:0:0:0:
182,192,78499,1,0,0:0:0:0:
256,192,78591,1,0,0:0:0:0:
329,192,78682,1,0,0:0:0:0:
36,192,78682,1,0,0:0:0:70:snare-22.wav
402,192,78774,1,0,0:0:0:0:
475,192,78865,1,0,0:0:0:0:
402,192,78957,1,0,0:0:0:0:
36,192,79048,1,0,0:0:0:70:snare-22.wav
475,192,79048,1,0,0:0:0:0:
402,192,79140,1,0,0:0:0:0:
329,192,79231,1,0,0:0:0:0:
36,192,79231,1,0,0:0:0:70:snare-22.wav
256,192,79323,1,0,0:0:0:0:
329,192,79414,1,0,0:0:0:0:
256,192,79505,1,0,0:0:0:0:
182,192,79597,1,0,0:0:0:0:
109,192,79688,1,0,0:0:0:0:
36,192,79780,1,0,0:0:0:0:
475,192,79780,1,0,0:0:0:70:snare-22.wav
109,192,79871,1,0,0:0:0:0:
182,192,79963,1,0,0:0:0:0:
256,192,80054,1,0,0:0:0:0:
329,192,80146,1,0,0:0:0:0:
402,192,80237,1,0,0:0:0:0:
475,192,80329,1,0,0:0:0:0:
402,192,80420,1,0,0:0:0:0:
475,192,80512,1,0,0:0:0:0:
36,192,80512,1,0,0:0:0:70:snare-22.wav
402,192,80603,1,0,0:0:0:0:
329,192,80695,1,0,0:0:0:0:
36,192,80695,1,0,0:0:0:70:snare-22.wav
256,192,80786,1,0,0:0:0:0:
329,192,80877,1,0,0:0:0:0:
256,192,80969,1,0,0:0:0:0:
182,192,81060,1,0,0:0:0:0:
109,192,81152,1,0,0:0:0:0:
36,192,81243,1,0,0:0:0:0:
475,192,81243,1,0,0:0:0:70:snare-22.wav
109,192,81335,1,0,0:0:0:0:
182,192,81426,1,0,0:0:0:0:
256,192,81518,1,0,0:0:0:0:
329,192,81609,1,0,0:0:0:0:
36,192,81609,1,0,0:0:0:70:snare-22.wav
402,192,81701,1,0,0:0:0:0:
475,192,81792,1,0,0:0:0:0:
402,192,81884,1,0,0:0:0:0:
475,192,81975,1,0,0:0:0:0:
36,192,81975,1,0,0:0:0:70:snare-22.wav
402,192,82066,1,0,0:0:0:0:
329,192,82158,1,0,0:0:0:0:
36,192,82158,1,0,0:0:0:70:snare-22.wav
256,192,82249,1,0,0:0:0:0:
329,192,82341,1,0,0:0:0:0:
256,192,82432,1,0,0:0:0:0:
182,192,82524,1,0,0:0:0:0:
109,192,82615,1,0,0:0:0:0:
36,192,82707,1,0,0:0:0:0:
475,192,82707,1,0,0:0:0:70:snare-22.wav
182,192,82798,1,0,0:0:0:0:
109,192,82890,1,0,0:0:0:0:
256,192,82981,1,0,0:0:0:0:
182,192,83073,1,0,0:0:0:0:
329,192,83164,1,0,0:0:0:0:
256,192,83255,1,0,0:0:0:0:
402,192,83347,1,0,0:0:0:0:
329,192,83438,1,0,0:0:0:0:
36,192,83438,1,0,0:0:0:70:snare-22.wav
475,192,83530,1,0,0:0:0:0:
402,192,83621,1,0,0:0:0:0:
36,192,83621,1,0,0:0:0:70:snare-22.wav
329,192,83713,1,0,0:0:0:0:
402,192,83804,1,0,0:0:0:0:
256,192,83896,1,0,0:0:0:0:
329,192,83987,1,0,0:0:0:0:
256,192,84079,1,0,0:0:0:0:
109,192,84170,1,0,0:0:0:0:
475,192,84170,1,0,0:0:0:70:snare-22.wav
256,192,84262,1,0,0:0:0:0:
109,192,84353,1,0,0:0:0:0:
329,192,84445,1,0,0:0:0:0:
182,192,84536,1,0,0:0:0:0:
36,192,84536,1,0,0:0:0:70:snare-22.wav
402,192,84627,1,0,0:0:0:0:
256,192,84719,1,0,0:0:0:0:
475,192,84810,1,0,0:0:0:0:
256,192,84902,1,0,0:0:0:0:
36,192,84902,1,0,0:0:0:70:snare-22.wav
402,192,84993,1,0,0:0:0:0:
256,192,85085,1,0,0:0:0:0:
36,192,85085,1,0,0:0:0:70:snare-22.wav
402,192,85176,1,0,0:0:0:0:
182,192,85268,1,0,0:0:0:0:
329,192,85359,1,0,0:0:0:0:
182,192,85451,1,0,0:0:0:0:
329,192,85542,1,0,0:0:0:0:
36,192,85634,1,0,0:0:0:0:
475,192,85634,1,0,0:0:0:70:snare-22.wav
182,192,85725,1,0,0:0:0:0:
36,192,85816,1,0,0:0:0:0:
182,192,85908,1,0,0:0:0:0:
109,192,85999,1,0,0:0:0:0:
256,192,86091,1,0,0:0:0:0:
109,192,86182,1,0,0:0:0:0:
256,192,86274,1,0,0:0:0:0:
182,192,86365,1,0,0:0:0:0:
475,192,86365,1,0,0:0:0:70:snare-22.wav
329,192,86457,1,0,0:0:0:0:
182,192,86548,1,0,0:0:0:0:
475,192,86548,1,0,0:0:0:70:snare-22.wav
329,192,86640,1,0,0:0:0:0:
256,192,86731,1,0,0:0:0:0:
402,192,86823,1,0,0:0:0:0:
256,192,86914,1,0,0:0:0:0:
402,192,87005,1,0,0:0:0:0:
109,192,87097,1,0,0:0:0:0:
256,192,87188,1,0,0:0:0:0:
109,192,87280,1,0,0:0:0:0:
402,192,87371,5,0,0:0:0:0:
256,192,87463,1,0,0:0:0:0:
402,192,87554,1,0,0:0:0:0:
109,192,87646,1,0,0:0:0:0:
256,192,87737,1,0,0:0:0:0:
109,192,87829,1,0,0:0:0:0:
402,192,87920,1,0,0:0:0:0:
256,192,88012,1,0,0:0:0:0:
402,192,88103,1,0,0:0:0:0:
329,192,88195,1,0,0:0:0:70:snare-25.wav
36,192,88195,1,0,0:0:0:0:
475,192,88195,1,0,0:0:0:0:
182,192,88286,1,0,0:0:0:70:snare-25.wav
329,192,88377,1,0,0:0:0:70:snare-25.wav
36,192,88377,1,0,0:0:0:0:
182,192,88469,1,0,0:0:0:70:snare-25.wav
475,192,88469,1,0,0:0:0:0:
36,192,88560,5,0,0:0:0:0:
329,192,88560,1,0,0:0:0:25:Hi-hat-2.wav
475,192,88560,128,0,91487:0:0:0:0:
109,192,88743,1,0,0:0:0:25:Hi-hat-2.wav
256,192,88926,1,0,0:0:0:25:Hi-hat-2.wav
36,192,89109,1,0,0:0:0:25:Hi-hat-2.wav
329,192,89292,1,0,0:0:0:25:Hi-hat-2.wav
182,192,89475,1,0,0:0:0:25:Hi-hat-2.wav
109,192,89658,1,0,0:0:0:25:Hi-hat-2.wav
329,192,89841,1,0,0:0:0:25:Hi-hat-2.wav
182,192,90024,1,0,0:0:0:25:Hi-hat-2.wav
256,192,90207,1,0,0:0:0:25:Hi-hat-2.wav
109,192,90390,1,0,0:0:0:25:Hi-hat-2.wav
182,192,90573,1,0,0:0:0:25:Hi-hat-2.wav
36,192,90755,1,0,0:0:0:25:Hi-hat-2.wav
109,192,90938,1,0,0:0:0:25:Hi-hat-2.wav
329,192,91121,1,0,0:0:0:25:Hi-hat-2.wav
256,192,91304,1,0,0:0:0:25:Hi-hat-2.wav
329,192,91487,128,0,94414:0:0:0:0:
256,192,91487,1,0,0:0:0:25:Hi-hat-2.wav
109,192,91670,1,0,0:0:0:25:Hi-hat-2.wav
182,192,91853,1,0,0:0:0:25:Hi-hat-2.wav
36,192,92036,1,0,0:0:0:25:Hi-hat-2.wav
256,192,92219,1,0,0:0:0:25:Hi-hat-2.wav
109,192,92402,1,0,0:0:0:25:Hi-hat-2.wav
182,192,92585,1,0,0:0:0:25:Hi-hat-2.wav
109,192,92768,1,0,0:0:0:25:Hi-hat-2.wav
36,192,92951,1,0,0:0:0:25:Hi-hat-2.wav
256,192,93134,1,0,0:0:0:25:Hi-hat-2.wav
36,192,93316,1,0,0:0:0:25:Hi-hat-2.wav
182,192,93499,1,0,0:0:0:25:Hi-hat-2.wav
109,192,93682,1,0,0:0:0:25:Hi-hat-2.wav
36,192,93865,1,0,0:0:0:25:Hi-hat-2.wav
182,192,94048,1,0,0:0:0:25:Hi-hat-2.wav
109,192,94231,1,0,0:0:0:25:Hi-hat-2.wav
36,192,94323,1,0,0:0:0:25:Hi-hat-2.wav
475,192,94414,1,0,0:0:0:25:Hi-hat-2.wav
182,192,94414,128,0,97341:0:0:0:0:
329,192,94597,1,0,0:0:0:25:Hi-hat-2.wav
402,192,94780,1,0,0:0:0:25:Hi-hat-2.wav
256,192,94963,1,0,0:0:0:25:Hi-hat-2.wav
475,192,95146,1,0,0:0:0:25:Hi-hat-2.wav
402,192,95329,1,0,0:0:0:25:Hi-hat-2.wav
256,192,95512,1,0,0:0:0:25:Hi-hat-2.wav
329,192,95695,1,0,0:0:0:25:Hi-hat-2.wav
475,192,95877,1,0,0:0:0:25:Hi-hat-2.wav
329,192,96060,1,0,0:0:0:25:Hi-hat-2.wav
402,192,96243,1,0,0:0:0:25:Hi-hat-2.wav
256,192,96426,1,0,0:0:0:25:Hi-hat-2.wav
329,192,96609,1,0,0:0:0:25:Hi-hat-2.wav
475,192,96792,1,0,0:0:0:25:Hi-hat-2.wav
256,192,96975,1,0,0:0:0:25:Hi-hat-2.wav
475,192,97158,1,0,0:0:0:25:Hi-hat-2.wav
402,192,97341,1,0,0:0:0:25:Hi-hat-2.wav
36,192,97341,128,0,100268:0:0:0:0:
475,192,97524,1,0,0:0:0:25:Hi-hat-2.wav
329,192,97707,1,0,0:0:0:25:Hi-hat-2.wav
475,192,97890,1,0,0:0:0:25:Hi-hat-2.wav
256,192,98073,1,0,0:0:0:25:Hi-hat-2.wav
475,192,98255,1,0,0:0:0:25:Hi-hat-2.wav
182,192,98438,1,0,0:0:0:25:Hi-hat-2.wav
475,192,98621,1,0,0:0:0:25:Hi-hat-2.wav
109,192,98804,1,0,0:0:0:25:Hi-hat-2.wav
475,192,98987,1,0,0:0:0:25:Hi-hat-2.wav
182,192,99170,5,0,0:0:0:25:Hi-hat-2.wav
475,192,99353,1,0,0:0:0:25:Hi-hat-2.wav
256,192,99536,1,0,0:0:0:25:Hi-hat-2.wav
475,192,99719,1,0,0:0:0:25:Hi-hat-2.wav
329,192,99902,1,0,0:0:0:25:Hi-hat-2.wav
475,192,100085,1,0,0:0:0:25:Hi-hat-2.wav
475,192,100176,1,0,0:0:0:25:Hi-hat-2.wav
109,192,100268,128,0,100451:0:0:0:0:
329,192,100268,1,0,0:0:0:25:Hi-hat-2.wav
402,192,100451,1,0,0:0:0:25:Hi-hat-12.wav
109,192,100634,128,0,100816:0:0:0:0:
329,192,100634,1,0,0:0:0:25:Hi-hat-2.wav
475,192,100816,1,0,0:0:0:25:Hi-hat-12.wav
182,192,100999,128,0,101365:0:0:0:0:
329,192,100999,1,0,0:0:0:25:Hi-hat-2.wav
402,192,101182,1,0,0:0:0:25:Hi-hat-12.wav
329,192,101365,1,0,0:0:0:25:Hi-hat-2.wav
109,192,101548,128,0,101731:0:0:0:0:
475,192,101548,1,0,0:0:0:25:Hi-hat-12.wav
329,192,101731,1,0,0:0:0:25:Hi-hat-2.wav
109,192,101914,128,0,102097:0:0:0:0:
402,192,101914,1,0,0:0:0:25:Hi-hat-12.wav
329,192,102097,1,0,0:0:0:25:Hi-hat-2.wav
109,192,102280,128,0,102371:0:0:0:0:
475,192,102280,1,0,0:0:0:25:Hi-hat-12.wav
182,192,102463,128,0,103012:0:0:0:0:
329,192,102463,1,0,0:0:0:25:Hi-hat-2.wav
402,192,102646,1,0,0:0:0:25:Hi-hat-12.wav
329,192,102829,1,0,0:0:0:25:Hi-hat-2.wav
475,192,103012,1,0,0:0:0:25:Hi-hat-12.wav
109,192,103195,128,0,103377:0:0:0:0:
329,192,103195,1,0,0:0:0:25:Hi-hat-2.wav
402,192,103377,1,0,0:0:0:25:Hi-hat-12.wav
109,192,103560,128,0,103743:0:0:0:0:
329,192,103560,1,0,0:0:0:25:Hi-hat-2.wav
475,192,103743,1,0,0:0:0:25:Hi-hat-12.wav
182,192,103926,128,0,104292:0:0:0:0:
329,192,103926,1,0,0:0:0:25:Hi-hat-2.wav
402,192,104109,1,0,0:0:0:25:Hi-hat-12.wav
329,192,104292,1,0,0:0:0:25:Hi-hat-2.wav
109,192,104475,128,0,104658:0:0:0:0:
475,192,104475,1,0,0:0:0:25:Hi-hat-12.wav
329,192,104658,1,0,0:0:0:25:Hi-hat-2.wav
109,192,104841,128,0,105024:0:0:0:0:
402,192,104841,1,0,0:0:0:25:Hi-hat-12.wav
329,192,105024,1,0,0:0:0:25:Hi-hat-2.wav
109,192,105207,128,0,105298:0:0:0:0:
475,192,105207,1,0,0:0:0:25:Hi-hat-12.wav
182,192,105390,128,0,105938:0:0:0:0:
329,192,105390,1,0,0:0:0:25:Hi-hat-2.wav
402,192,105573,1,0,0:0:0:25:Hi-hat-12.wav
329,192,105755,1,0,0:0:0:25:Hi-hat-2.wav
36,192,105938,1,0,0:0:0:25:Hi-hat-12.wav
109,192,106030,1,0,0:0:0:25:Hi-hat-12.wav
402,192,106121,128,0,106304:0:0:0:0:
182,192,106121,1,0,0:0:0:25:Hi-hat-2.wav
109,192,106304,1,0,0:0:0:25:Hi-hat-12.wav
402,192,106487,128,0,106670:0:0:0:0:
182,192,106487,1,0,0:0:0:25:Hi-hat-2.wav
36,192,106670,1,0,0:0:0:25:Hi-hat-12.wav
329,192,106853,128,0,107219:0:0:0:0:
182,192,106853,1,0,0:0:0:25:Hi-hat-2.wav
109,192,107036,1,0,0:0:0:25:Hi-hat-12.wav
182,192,107219,1,0,0:0:0:25:Hi-hat-2.wav
402,192,107402,128,0,107585:0:0:0:0:
36,192,107402,1,0,0:0:0:25:Hi-hat-12.wav
182,192,107585,1,0,0:0:0:25:Hi-hat-2.wav
402,192,107768,128,0,107951:0:0:0:0:
109,192,107768,1,0,0:0:0:25:Hi-hat-12.wav
182,192,107951,1,0,0:0:0:25:Hi-hat-2.wav
402,192,108134,128,0,108225:0:0:0:0:
36,192,108134,1,0,0:0:0:25:Hi-hat-12.wav
329,192,108316,128,0,108865:0:0:0:0:
182,192,108316,1,0,0:0:0:25:Hi-hat-2.wav
109,192,108499,1,0,0:0:0:25:Hi-hat-12.wav
182,192,108682,1,0,0:0:0:25:Hi-hat-2.wav
36,192,108865,1,0,0:0:0:25:Hi-hat-12.wav
109,192,108957,1,0,0:0:0:25:Hi-hat-12.wav
402,192,109048,128,0,109231:0:0:0:0:
182,192,109048,1,0,0:0:0:25:Hi-hat-2.wav
109,192,109231,1,0,0:0:0:25:Hi-hat-12.wav
402,192,109414,128,0,109597:0:0:0:0:
182,192,109414,1,0,0:0:0:25:Hi-hat-2.wav
36,192,109597,1,0,0:0:0:25:Hi-hat-12.wav
329,192,109780,128,0,110146:0:0:0:0:
182,192,109780,1,0,0:0:0:25:Hi-hat-2.wav
109,192,109963,1,0,0:0:0:25:Hi-hat-12.wav
402,192,110329,128,0,110512:0:0:0:0:
402,192,110695,128,0,110877:0:0:0:0:
36,192,110695,1,0,0:0:0:15:Hi-hat-2.wav
182,192,110786,1,0,0:0:0:15:Hi-hat-2.wav
36,192,110877,1,0,0:0:0:15:Hi-hat-2.wav
182,192,110969,1,0,0:0:0:15:Hi-hat-2.wav
329,192,111060,128,0,111152:0:0:0:0:
36,192,111060,1,0,0:0:0:30:Hi-hat-2.wav
182,192,111152,1,0,0:0:0:30:Hi-hat-2.wav
256,192,111243,128,0,111975:0:0:0:0:
36,192,111243,1,0,0:0:0:30:Hi-hat-2.wav
475,192,111335,1,0,0:0:0:30:Hi-hat-2.wav
329,192,111426,1,0,0:0:0:45:Hi-hat-2.wav
475,192,111518,1,0,0:0:0:45:Hi-hat-2.wav
329,192,111609,1,0,0:0:0:45:Hi-hat-2.wav
475,192,111701,1,0,0:0:0:45:Hi-hat-2.wav
329,192,111792,1,0,0:0:0:45:Hi-hat-2.wav
475,192,111884,1,0,0:0:0:45:Hi-hat-2.wav
36,192,111975,1,0,0:0:0:45:Hi-hat-2.wav
109,192,112066,1,0,0:0:0:45:Hi-hat-2.wav
182,192,112158,1,0,0:0:0:45:Hi-hat-2.wav
256,192,112249,1,0,0:0:0:45:Hi-hat-2.wav
109,192,112341,1,0,0:0:0:45:Hi-hat-2.wav
182,192,112432,1,0,0:0:0:45:Hi-hat-2.wav
256,192,112524,1,0,0:0:0:45:Hi-hat-2.wav
329,192,112615,1,0,0:0:0:45:Hi-hat-2.wav
475,192,112707,1,0,0:0:0:45:Hi-hat-2.wav
402,192,112798,1,0,0:0:0:45:Hi-hat-2.wav
329,192,112890,1,0,0:0:0:45:Hi-hat-2.wav
256,192,112981,1,0,0:0:0:45:Hi-hat-2.wav
402,192,113073,1,0,0:0:0:45:Hi-hat-2.wav
329,192,113164,1,0,0:0:0:45:Hi-hat-2.wav
256,192,113255,1,0,0:0:0:45:Hi-hat-2.wav
182,192,113347,1,0,0:0:0:45:Hi-hat-2.wav
109,192,113438,1,0,0:0:0:45:Hi-hat-2.wav
182,192,113530,1,0,0:0:0:45:Hi-hat-2.wav
256,192,113621,1,0,0:0:0:45:Hi-hat-2.wav
329,192,113713,1,0,0:0:0:45:Hi-hat-2.wav
182,192,113804,1,0,0:0:0:45:Hi-hat-2.wav
256,192,113896,1,0,0:0:0:45:Hi-hat-2.wav
329,192,113987,1,0,0:0:0:45:Hi-hat-2.wav
402,192,114079,1,0,0:0:0:45:Hi-hat-2.wav
402,192,114170,1,0,0:0:0:45:Hi-hat-2.wav
329,192,114262,1,0,0:0:0:45:Hi-hat-2.wav
256,192,114353,1,0,0:0:0:45:Hi-hat-2.wav
182,192,114445,1,0,0:0:0:45:Hi-hat-2.wav
329,192,114536,1,0,0:0:0:45:Hi-hat-2.wav
256,192,114627,1,0,0:0:0:45:Hi-hat-2.wav
182,192,114719,1,0,0:0:0:45:Hi-hat-2.wav
109,192,114810,1,0,0:0:0:45:Hi-hat-2.wav
329,192,114902,1,0,0:0:0:45:Hi-hat-2.wav
402,192,114993,1,0,0:0:0:45:Hi-hat-2.wav
475,192,115085,1,0,0:0:0:45:Hi-hat-2.wav
329,192,115176,1,0,0:0:0:45:Hi-hat-2.wav
256,192,115268,1,0,0:0:0:45:Hi-hat-2.wav
329,192,115359,1,0,0:0:0:45:Hi-hat-2.wav
402,192,115451,1,0,0:0:0:45:Hi-hat-2.wav
256,192,115542,1,0,0:0:0:45:Hi-hat-2.wav
182,192,115634,1,0,0:0:0:45:Hi-hat-2.wav
256,192,115725,1,0,0:0:0:45:Hi-hat-2.wav
329,192,115816,1,0,0:0:0:45:Hi-hat-2.wav
182,192,115908,1,0,0:0:0:45:Hi-hat-2.wav
109,192,115999,1,0,0:0:0:45:Hi-hat-2.wav
182,192,116091,1,0,0:0:0:45:Hi-hat-2.wav
256,192,116182,1,0,0:0:0:45:Hi-hat-2.wav
109,192,116274,1,0,0:0:0:45:Hi-hat-2.wav
182,192,116365,1,0,0:0:0:45:Hi-hat-2.wav
109,192,116457,1,0,0:0:0:45:Hi-hat-2.wav
36,192,116548,1,0,0:0:0:45:Hi-hat-2.wav
182,192,116640,1,0,0:0:0:45:Hi-hat-2.wav
256,192,116731,1,0,0:0:0:45:Hi-hat-2.wav
182,192,116823,1,0,0:0:0:45:Hi-hat-2.wav
109,192,116914,1,0,0:0:0:45:Hi-hat-2.wav
256,192,117005,1,0,0:0:0:45:Hi-hat-2.wav
329,192,117097,1,0,0:0:0:45:Hi-hat-2.wav
256,192,117188,1,0,0:0:0:45:Hi-hat-2.wav
182,192,117280,1,0,0:0:0:45:Hi-hat-2.wav
329,192,117371,1,0,0:0:0:45:Hi-hat-2.wav
402,192,117463,1,0,0:0:0:45:Hi-hat-2.wav
329,192,117554,1,0,0:0:0:45:Hi-hat-2.wav
256,192,117646,1,0,0:0:0:45:Hi-hat-2.wav
402,192,117737,1,0,0:0:0:45:Hi-hat-2.wav
36,192,117829,1,0,0:0:0:45:Hi-hat-2.wav
182,192,117920,1,0,0:0:0:45:Hi-hat-2.wav
109,192,118012,1,0,0:0:0:45:Hi-hat-2.wav
36,192,118103,1,0,0:0:0:45:Hi-hat-2.wav
182,192,118195,1,0,0:0:0:45:Hi-hat-2.wav
329,192,118286,1,0,0:0:0:45:Hi-hat-2.wav
256,192,118377,1,0,0:0:0:45:Hi-hat-2.wav
182,192,118469,1,0,0:0:0:45:Hi-hat-2.wav
329,192,118560,1,0,0:0:0:45:Hi-hat-2.wav
475,192,118652,1,0,0:0:0:45:Hi-hat-2.wav
402,192,118743,1,0,0:0:0:45:Hi-hat-2.wav
329,192,118835,1,0,0:0:0:45:Hi-hat-2.wav
475,192,118926,1,0,0:0:0:45:Hi-hat-2.wav
329,192,119018,1,0,0:0:0:45:Hi-hat-2.wav
402,192,119109,1,0,0:0:0:45:Hi-hat-2.wav
475,192,119201,1,0,0:0:0:45:Hi-hat-2.wav
329,192,119292,1,0,0:0:0:45:Hi-hat-2.wav
182,192,119384,1,0,0:0:0:45:Hi-hat-2.wav
256,192,119475,1,0,0:0:0:45:Hi-hat-2.wav
329,192,119566,1,0,0:0:0:45:Hi-hat-2.wav
182,192,119658,1,0,0:0:0:45:Hi-hat-2.wav
36,192,119749,1,0,0:0:0:45:Hi-hat-2.wav
109,192,119841,1,0,0:0:0:45:Hi-hat-2.wav
182,192,119932,1,0,0:0:0:45:Hi-hat-2.wav
329,192,120024,1,0,0:0:0:45:Hi-hat-2.wav
182,192,120115,1,0,0:0:0:45:Hi-hat-2.wav
256,192,120207,1,0,0:0:0:45:Hi-hat-2.wav
329,192,120298,1,0,0:0:0:45:Hi-hat-2.wav
475,192,120390,1,0,0:0:0:45:Hi-hat-2.wav
329,192,120481,1,0,0:0:0:45:Hi-hat-2.wav
402,192,120573,1,0,0:0:0:45:Hi-hat-2.wav
475,192,120664,1,0,0:0:0:45:Hi-hat-2.wav
109,192,120755,1,0,0:0:0:45:Hi-hat-2.wav
36,192,120847,1,0,0:0:0:45:Hi-hat-2.wav
182,192,120938,1,0,0:0:0:45:Hi-hat-2.wav
109,192,121030,1,0,0:0:0:45:Hi-hat-2.wav
256,192,121121,1,0,0:0:0:45:Hi-hat-2.wav
182,192,121213,1,0,0:0:0:45:Hi-hat-2.wav
329,192,121304,1,0,0:0:0:45:Hi-hat-2.wav
256,192,121396,1,0,0:0:0:45:Hi-hat-2.wav
402,192,121487,1,0,0:0:0:45:Hi-hat-2.wav
329,192,121579,1,0,0:0:0:45:Hi-hat-2.wav
475,192,121670,1,0,0:0:0:45:Hi-hat-2.wav
402,192,121762,1,0,0:0:0:45:Hi-hat-2.wav
329,192,121853,1,0,0:0:0:45:Hi-hat-2.wav
475,192,121945,1,0,0:0:0:45:Hi-hat-2.wav
256,192,122036,1,0,0:0:0:45:Hi-hat-2.wav
402,192,122127,1,0,0:0:0:45:Hi-hat-2.wav
182,192,122219,1,0,0:0:0:45:Hi-hat-2.wav
329,192,122310,1,0,0:0:0:45:Hi-hat-2.wav
109,192,122402,1,0,0:0:0:45:Hi-hat-2.wav
256,192,122493,1,0,0:0:0:45:Hi-hat-2.wav
36,192,122585,1,0,0:0:0:45:Hi-hat-2.wav
182,192,122676,1,0,0:0:0:45:Hi-hat-2.wav
329,192,122768,1,0,0:0:0:45:Hi-hat-2.wav
109,192,122859,1,0,0:0:0:45:Hi-hat-2.wav
402,192,122951,1,0,0:0:0:45:Hi-hat-2.wav
182,192,123042,1,0,0:0:0:45:Hi-hat-2.wav
475,192,123134,1,0,0:0:0:45:Hi-hat-2.wav
256,192,123225,1,0,0:0:0:45:Hi-hat-2.wav
329,192,123316,1,0,0:0:0:45:Hi-hat-2.wav
109,192,123408,1,0,0:0:0:45:Hi-hat-2.wav
402,192,123499,1,0,0:0:0:45:Hi-hat-2.wav
182,192,123591,1,0,0:0:0:45:Hi-hat-2.wav
36,192,123682,1,0,0:0:0:45:Hi-hat-2.wav
475,192,123682,1,0,0:0:0:70:kick-6.wav
109,192,123774,1,0,0:0:0:45:Hi-hat-2.wav
182,192,123865,1,0,0:0:0:45:Hi-hat-2.wav
256,192,123957,1,0,0:0:0:45:Hi-hat-2.wav
329,192,124048,1,0,0:0:0:45:Hi-hat-2.wav
36,192,124048,1,0,0:0:0:70:kick-6.wav
402,192,124140,1,0,0:0:0:45:Hi-hat-2.wav
475,192,124231,1,0,0:0:0:45:Hi-hat-2.wav
402,192,124323,1,0,0:0:0:45:Hi-hat-2.wav
36,192,124414,1,0,0:0:0:70:kick-6.wav
475,192,124414,1,0,0:0:0:45:Hi-hat-2.wav
402,192,124505,1,0,0:0:0:45:Hi-hat-2.wav
329,192,124597,1,0,0:0:0:45:Hi-hat-2.wav
256,192,124688,1,0,0:0:0:45:Hi-hat-2.wav
329,192,124780,1,0,0:0:0:45:Hi-hat-2.wav
36,192,124780,1,0,0:0:0:70:kick-6.wav
256,192,124871,1,0,0:0:0:45:Hi-hat-2.wav
182,192,124963,1,0,0:0:0:45:Hi-hat-2.wav
109,192,125054,1,0,0:0:0:45:Hi-hat-2.wav
36,192,125146,1,0,0:0:0:70:kick-6.wav
475,192,125146,1,0,0:0:0:70:kick-6.wav
109,192,125237,1,0,0:0:0:45:Hi-hat-2.wav
182,192,125329,1,0,0:0:0:45:Hi-hat-2.wav
256,192,125420,1,0,0:0:0:45:Hi-hat-2.wav
329,192,125512,1,0,0:0:0:45:Hi-hat-2.wav
36,192,125512,1,0,0:0:0:70:kick-6.wav
402,192,125603,1,0,0:0:0:45:Hi-hat-2.wav
475,192,125695,1,0,0:0:0:45:Hi-hat-2.wav
402,192,125786,1,0,0:0:0:45:Hi-hat-2.wav
36,192,125877,1,0,0:0:0:70:kick-6.wav
475,192,125877,1,0,0:0:0:45:Hi-hat-2.wav
402,192,125969,1,0,0:0:0:45:Hi-hat-2.wav
329,192,126060,1,0,0:0:0:45:Hi-hat-2.wav
256,192,126152,1,0,0:0:0:45:Hi-hat-2.wav
36,192,126243,1,0,0:0:0:70:kick-6.wav
329,192,126243,1,0,0:0:0:45:Hi-hat-2.wav
256,192,126335,1,0,0:0:0:45:Hi-hat-2.wav
182,192,126426,1,0,0:0:0:45:Hi-hat-2.wav
109,192,126518,1,0,0:0:0:45:Hi-hat-2.wav
475,192,126609,1,0,0:0:0:70:kick-6.wav
182,192,126609,1,0,0:0:0:45:Hi-hat-2.wav
36,192,126701,1,0,0:0:0:45:Hi-hat-2.wav
109,192,126792,1,0,0:0:0:45:Hi-hat-2.wav
182,192,126884,1,0,0:0:0:45:Hi-hat-2.wav
329,192,126975,1,0,0:0:0:45:Hi-hat-2.wav
36,192,126975,1,0,0:0:0:70:kick-6.wav
182,192,127066,1,0,0:0:0:45:Hi-hat-2.wav
256,192,127158,1,0,0:0:0:45:Hi-hat-2.wav
329,192,127249,1,0,0:0:0:45:Hi-hat-2.wav
475,192,127341,1,0,0:0:0:45:Hi-hat-2.wav
36,192,127341,1,0,0:0:0:70:kick-6.wav
329,192,127432,1,0,0:0:0:45:Hi-hat-2.wav
402,192,127524,1,0,0:0:0:45:Hi-hat-2.wav
475,192,127615,1,0,0:0:0:45:Hi-hat-2.wav
329,192,127707,1,0,0:0:0:45:Hi-hat-2.wav
36,192,127707,1,0,0:0:0:70:kick-6.wav
182,192,127798,1,0,0:0:0:45:Hi-hat-2.wav
256,192,127890,1,0,0:0:0:45:Hi-hat-2.wav
329,192,127981,1,0,0:0:0:45:Hi-hat-2.wav
475,192,128073,1,0,0:0:0:70:kick-6.wav
182,192,128073,1,0,0:0:0:45:Hi-hat-2.wav
36,192,128164,1,0,0:0:0:45:Hi-hat-2.wav
109,192,128255,1,0,0:0:0:45:Hi-hat-2.wav
182,192,128347,1,0,0:0:0:45:Hi-hat-2.wav
36,192,128438,1,0,0:0:0:70:kick-6.wav
329,192,128438,1,0,0:0:0:45:Hi-hat-2.wav
182,192,128530,1,0,0:0:0:45:Hi-hat-2.wav
256,192,128621,1,0,0:0:0:45:Hi-hat-2.wav
329,192,128713,1,0,0:0:0:45:Hi-hat-2.wav
36,192,128804,1,0,0:0:0:70:kick-6.wav
475,192,128804,1,0,0:0:0:45:Hi-hat-2.wav
329,192,128896,1,0,0:0:0:45:Hi-hat-2.wav
402,192,128987,1,0,0:0:0:45:Hi-hat-2.wav
475,192,129079,1,0,0:0:0:45:Hi-hat-2.wav
36,192,129170,1,0,0:0:0:70:kick-6.wav
329,192,129170,1,0,0:0:0:45:Hi-hat-2.wav
182,192,129262,1,0,0:0:0:45:Hi-hat-2.wav
256,192,129353,1,0,0:0:0:45:Hi-hat-2.wav
329,192,129445,1,0,0:0:0:45:Hi-hat-2.wav
475,192,129536,1,0,0:0:0:70:kick-6.wav
182,192,129536,1,0,0:0:0:45:Hi-hat-2.wav
109,192,129627,1,0,0:0:0:45:Hi-hat-2.wav
182,192,129719,1,0,0:0:0:45:Hi-hat-2.wav
256,192,129810,1,0,0:0:0:45:Hi-hat-2.wav
329,192,129902,1,0,0:0:0:45:Hi-hat-2.wav
36,192,129902,1,0,0:0:0:70:kick-6.wav
402,192,129993,1,0,0:0:0:45:Hi-hat-2.wav
329,192,130085,1,0,0:0:0:45:Hi-hat-2.wav
256,192,130176,1,0,0:0:0:45:Hi-hat-2.wav
36,192,130268,1,0,0:0:0:70:kick-6.wav
182,192,130268,1,0,0:0:0:45:Hi-hat-2.wav
109,192,130359,1,0,0:0:0:45:Hi-hat-2.wav
182,192,130451,1,0,0:0:0:45:Hi-hat-2.wav
256,192,130542,1,0,0:0:0:45:Hi-hat-2.wav
36,192,130634,1,0,0:0:0:70:kick-6.wav
329,192,130634,1,0,0:0:0:45:Hi-hat-2.wav
402,192,130725,1,0,0:0:0:45:Hi-hat-2.wav
329,192,130816,1,0,0:0:0:45:Hi-hat-2.wav
256,192,130908,1,0,0:0:0:45:Hi-hat-2.wav
475,192,130999,1,0,0:0:0:70:kick-6.wav
109,192,130999,1,0,0:0:0:45:Hi-hat-2.wav
182,192,131091,1,0,0:0:0:45:Hi-hat-2.wav
109,192,131182,1,0,0:0:0:45:Hi-hat-2.wav
256,192,131274,1,0,0:0:0:45:Hi-hat-2.wav
402,192,131365,1,0,0:0:0:45:Hi-hat-2.wav
36,192,131365,1,0,0:0:0:70:kick-6.wav
329,192,131457,1,0,0:0:0:45:Hi-hat-2.wav
402,192,131548,1,0,0:0:0:45:Hi-hat-2.wav
256,192,131640,1,0,0:0:0:45:Hi-hat-2.wav
109,192,131731,1,0,0:0:0:45:Hi-hat-2.wav
36,192,131731,1,0,0:0:0:70:kick-6.wav
182,192,131823,1,0,0:0:0:45:Hi-hat-2.wav
109,192,131914,1,0,0:0:0:45:Hi-hat-2.wav
256,192,132005,1,0,0:0:0:45:Hi-hat-2.wav
402,192,132097,1,0,0:0:0:45:Hi-hat-2.wav
36,192,132097,1,0,0:0:0:70:kick-6.wav
329,192,132188,1,0,0:0:0:45:Hi-hat-2.wav
402,192,132280,1,0,0:0:0:45:Hi-hat-2.wav
256,192,132371,1,0,0:0:0:45:Hi-hat-2.wav
475,192,132463,1,0,0:0:0:70:kick-6.wav
109,192,132463,1,0,0:0:0:45:Hi-hat-2.wav
36,192,132554,1,0,0:0:0:45:Hi-hat-2.wav
182,192,132646,1,0,0:0:0:45:Hi-hat-2.wav
109,192,132737,1,0,0:0:0:45:Hi-hat-2.wav
256,192,132829,1,0,0:0:0:45:Hi-hat-2.wav
36,192,132829,1,0,0:0:0:70:kick-6.wav
182,192,132920,1,0,0:0:0:45:Hi-hat-2.wav
329,192,133012,1,0,0:0:0:45:Hi-hat-2.wav
256,192,133103,1,0,0:0:0:45:Hi-hat-2.wav
402,192,133195,1,0,0:0:0:45:Hi-hat-2.wav
36,192,133195,1,0,0:0:0:70:kick-6.wav
329,192,133286,1,0,0:0:0:45:Hi-hat-2.wav
475,192,133377,1,0,0:0:0:45:Hi-hat-2.wav
402,192,133469,1,0,0:0:0:45:Hi-hat-2.wav
36,192,133560,1,0,0:0:0:70:kick-6.wav
256,192,133560,1,0,0:0:0:45:Hi-hat-2.wav
475,192,133652,1,0,0:0:0:45:Hi-hat-2.wav
182,192,133743,1,0,0:0:0:45:Hi-hat-2.wav
402,192,133835,1,0,0:0:0:45:Hi-hat-2.wav
329,192,133926,1,0,0:0:0:45:snare-22.wav
182,192,134018,1,0,0:0:0:45:snare-22.wav
329,192,134109,1,0,0:0:0:45:snare-22.wav
182,192,134201,1,0,0:0:0:45:snare-22.wav
329,192,134292,1,0,0:0:0:60:snare-22.wav
182,192,134384,1,0,0:0:0:60:snare-22.wav
329,192,134475,1,0,0:0:0:60:snare-22.wav
182,192,134566,1,0,0:0:0:60:snare-22.wav
402,192,134658,1,0,0:0:0:70:snare-22.wav
109,192,134749,1,0,0:0:0:70:snare-22.wav
402,192,134841,1,0,0:0:0:70:snare-22.wav
109,192,134932,1,0,0:0:0:70:snare-22.wav
402,192,135024,1,0,0:0:0:70:snare-22.wav
109,192,135115,1,0,0:0:0:70:snare-22.wav
402,192,135207,1,0,0:0:0:70:snare-22.wav
109,192,135298,1,0,0:0:0:70:snare-22.wav
36,192,135390,128,0,135755:0:0:0:70:kick-6.wav
475,192,135390,128,0,135573:0:0:0:0:
475,192,135755,128,0,135938:0:0:0:0:
36,192,136121,1,0,0:0:0:70:kick-6.wav
402,192,136121,1,0,0:0:0:0:
402,192,136304,128,0,136487:0:0:0:0:
36,192,136304,128,0,136487:0:0:0:70:kick-6.wav
36,192,136853,128,0,137036:0:0:0:70:kick-6.wav
475,192,136853,128,0,137036:0:0:0:0:
475,192,137219,128,0,137402:0:0:0:0:
36,192,137219,128,0,137402:0:0:0:70:kick-6.wav
402,192,137585,1,0,0:0:0:0:
36,192,137585,1,0,0:0:0:70:kick-6.wav
402,192,137768,128,0,137951:0:0:0:0:
36,192,137768,128,0,137951:0:0:0:70:kick-6.wav
36,192,138316,128,0,138682:0:0:0:50:kick-6.wav
109,192,138316,128,0,138682:0:0:0:50:kick-6.wav
475,192,138316,128,0,138499:0:0:0:0:
475,192,138682,128,0,138865:0:0:0:0:
402,192,139048,1,0,0:0:0:0:
36,192,139048,1,0,0:0:0:50:kick-6.wav
109,192,139048,1,0,0:0:0:50:kick-6.wav
402,192,139231,128,0,139414:0:0:0:0:
36,192,139231,128,0,139414:0:0:0:50:kick-6.wav
109,192,139231,128,0,139414:0:0:0:50:kick-6.wav
36,192,139780,128,0,139963:0:0:0:50:kick-6.wav
109,192,139780,128,0,139963:0:0:0:50:kick-6.wav
475,192,139780,128,0,139963:0:0:0:0:
475,192,140146,128,0,140329:0:0:0:0:
36,192,140146,128,0,140329:0:0:0:50:kick-6.wav
109,192,140146,128,0,140329:0:0:0:50:kick-6.wav
402,192,140512,1,0,0:0:0:0:
36,192,140512,1,0,0:0:0:50:kick-6.wav
109,192,140512,1,0,0:0:0:50:kick-6.wav
402,192,140695,128,0,140877:0:0:0:0:
36,192,140695,128,0,140877:0:0:0:50:kick-6.wav
109,192,140695,128,0,140877:0:0:0:50:kick-6.wav
36,192,141243,128,0,141609:0:0:0:30:kick-6.wav
109,192,141243,128,0,141609:0:0:0:30:kick-6.wav
182,192,141243,128,0,141609:0:0:0:30:kick-6.wav
475,192,141243,128,0,141426:0:0:0:0:
475,192,141609,128,0,141792:0:0:0:0:
402,192,141975,1,0,0:0:0:0:
36,192,141975,1,0,0:0:0:30:kick-6.wav
109,192,141975,1,0,0:0:0:30:kick-6.wav
182,192,141975,1,0,0:0:0:30:kick-6.wav
402,192,142158,128,0,142341:0:0:0:0:
36,192,142158,128,0,142341:0:0:0:30:kick-6.wav
109,192,142158,128,0,142341:0:0:0:30:kick-6.wav
182,192,142158,128,0,142341:0:0:0:30:kick-6.wav
36,192,142707,128,0,142890:0:0:0:30:kick-6.wav
109,192,142707,128,0,142890:0:0:0:30:kick-6.wav
182,192,142707,128,0,142890:0:0:0:30:kick-6.wav
475,192,142707,128,0,142890:0:0:0:0:
475,192,143073,128,0,143255:0:0:0:0:
36,192,143073,128,0,143255:0:0:0:30:kick-6.wav
109,192,143073,128,0,143255:0:0:0:30:kick-6.wav
182,192,143073,128,0,143255:0:0:0:30:kick-6.wav
36,192,143438,1,0,0:0:0:30:kick-6.wav
109,192,143438,1,0,0:0:0:30:kick-6.wav
182,192,143438,1,0,0:0:0:30:kick-6.wav
402,192,143438,1,0,0:0:0:0:
36,192,143621,128,0,143804:0:0:0:30:kick-6.wav
109,192,143621,128,0,143804:0:0:0:30:kick-6.wav
182,192,143621,128,0,143804:0:0:0:30:kick-6.wav
402,192,143621,128,0,143804:0:0:0:0:
36,192,144170,128,0,144536:0:0:0:20:kick-6.wav
109,192,144170,128,0,144536:0:0:0:20:kick-6.wav
182,192,144170,128,0,144536:0:0:0:20:kick-6.wav
256,192,144170,128,0,144536:0:0:0:20:kick-6.wav
475,192,144170,128,0,144353:0:0:0:0:
475,192,144536,128,0,144719:0:0:0:0:
36,192,144902,1,0,0:0:0:20:kick-6.wav
109,192,144902,1,0,0:0:0:20:kick-6.wav
182,192,144902,1,0,0:0:0:20:kick-6.wav
256,192,144902,1,0,0:0:0:20:kick-6.wav
402,192,144902,1,0,0:0:0:0:
36,192,145085,128,0,145268:0:0:0:20:kick-6.wav
109,192,145085,128,0,145268:0:0:0:20:kick-6.wav
182,192,145085,128,0,145268:0:0:0:20:kick-6.wav
256,192,145085,128,0,145268:0:0:0:20:kick-6.wav
402,192,145085,128,0,145268:0:0:0:0:
36,192,145451,128,0,145816:0:0:0:20:kick-6.wav
109,192,145451,128,0,145816:0:0:0:20:kick-6.wav
182,192,145451,128,0,145816:0:0:0:20:kick-6.wav
256,192,145451,128,0,145816:0:0:0:20:kick-6.wav
475,192,145634,128,0,145816:0:0:0:0:
475,192,145999,128,0,146182:0:0:0:0:
36,192,145999,128,0,146182:0:0:0:20:kick-6.wav
182,192,145999,128,0,146182:0:0:0:20:kick-6.wav
109,192,145999,128,0,146182:0:0:0:20:kick-6.wav
256,192,145999,128,0,146182:0:0:0:20:kick-6.wav
182,192,146365,128,0,146457:0:0:0:20:kick-6.wav
36,192,146365,128,0,146457:0:0:0:20:kick-6.wav
109,192,146365,128,0,146457:0:0:0:20:kick-6.wav
256,192,146365,128,0,146457:0:0:0:20:kick-6.wav
475,192,146365,128,0,147097:0:0:0:0:
36,192,146548,128,0,146640:0:0:0:20:kick-6.wav
182,192,146548,128,0,146640:0:0:0:20:kick-6.wav
109,192,146548,128,0,146640:0:0:0:20:kick-6.wav
256,192,146548,128,0,146640:0:0:0:20:kick-6.wav
402,192,146731,1,0,0:0:0:70:snare-20.wav
109,192,146731,128,0,147097:0:0:0:50:kick-6.wav
182,192,146731,128,0,147097:0:0:0:50:kick-6.wav
329,192,146823,1,0,0:0:0:70:snare-20.wav
402,192,146914,1,0,0:0:0:70:snare-20.wav
329,192,147005,1,0,0:0:0:70:snare-20.wav
256,192,147097,5,0,0:0:0:70:kick-6.wav
36,192,147097,1,0,0:0:0:45:Hi-hat-2.wav
329,192,147280,1,0,0:0:0:45:Hi-hat-12.wav
182,192,147463,1,0,0:0:0:45:Hi-hat-2.wav
256,192,147463,1,0,0:0:0:70:kick-6.wav
402,192,147646,1,0,0:0:0:45:Hi-hat-12.wav
256,192,147829,1,0,0:0:0:70:kick-6.wav
109,192,147829,1,0,0:0:0:45:Hi-hat-2.wav
256,192,148012,1,0,0:0:0:70:kick-6.wav
475,192,148012,1,0,0:0:0:45:Hi-hat-12.wav
36,192,148195,1,0,0:0:0:45:Hi-hat-2.wav
256,192,148195,1,0,0:0:0:70:kick-6.wav
402,192,148377,1,0,0:0:0:45:Hi-hat-12.wav
109,192,148560,1,0,0:0:0:45:Hi-hat-2.wav
256,192,148560,1,0,0:0:0:70:kick-6.wav
329,192,148743,1,0,0:0:0:45:Hi-hat-12.wav
182,192,148926,1,0,0:0:0:45:Hi-hat-2.wav
256,192,148926,1,0,0:0:0:70:kick-6.wav
402,192,149109,1,0,0:0:0:45:Hi-hat-12.wav
109,192,149292,1,0,0:0:0:45:Hi-hat-2.wav
256,192,149292,1,0,0:0:0:70:kick-6.wav
256,192,149475,1,0,0:0:0:70:kick-6.wav
475,192,149475,1,0,0:0:0:45:Hi-hat-12.wav
36,192,149658,1,0,0:0:0:45:Hi-hat-2.wav
256,192,149658,1,0,0:0:0:70:kick-6.wav
402,192,149841,1,0,0:0:0:45:Hi-hat-12.wav
36,192,150024,1,0,0:0:0:45:Hi-hat-2.wav
256,192,150024,1,0,0:0:0:70:kick-6.wav
329,192,150207,1,0,0:0:0:45:Hi-hat-12.wav
109,192,150390,1,0,0:0:0:45:Hi-hat-2.wav
256,192,150390,1,0,0:0:0:70:kick-6.wav
402,192,150573,1,0,0:0:0:45:Hi-hat-12.wav
182,192,150755,1,0,0:0:0:45:Hi-hat-2.wav
256,192,150755,1,0,0:0:0:70:kick-6.wav
475,192,150938,1,0,0:0:0:45:Hi-hat-12.wav
256,192,150938,1,0,0:0:0:70:kick-6.wav
256,192,151121,1,0,0:0:0:70:kick-6.wav
109,192,151121,1,0,0:0:0:45:Hi-hat-2.wav
402,192,151304,1,0,0:0:0:45:Hi-hat-12.wav
256,192,151487,1,0,0:0:0:70:kick-6.wav
475,192,151487,1,0,0:0:0:45:Hi-hat-2.wav
182,192,151670,1,0,0:0:0:45:Hi-hat-12.wav
256,192,151853,1,0,0:0:0:70:kick-6.wav
402,192,151853,1,0,0:0:0:45:Hi-hat-2.wav
109,192,152036,1,0,0:0:0:45:Hi-hat-12.wav
256,192,152219,1,0,0:0:0:70:kick-6.wav
329,192,152219,1,0,0:0:0:45:Hi-hat-2.wav
36,192,152402,1,0,0:0:0:45:Hi-hat-12.wav
256,192,152402,1,0,0:0:0:70:kick-6.wav
402,192,152585,1,0,0:0:0:45:Hi-hat-2.wav
256,192,152585,1,0,0:0:0:70:kick-6.wav
109,192,152768,1,0,0:0:0:45:Hi-hat-12.wav
256,192,152951,1,0,0:0:0:70:kick-6.wav
475,192,152951,1,0,0:0:0:45:Hi-hat-2.wav
182,192,153134,1,0,0:0:0:45:Hi-hat-12.wav
402,192,153316,1,0,0:0:0:45:Hi-hat-2.wav
256,192,153316,1,0,0:0:0:70:kick-6.wav
109,192,153499,1,0,0:0:0:45:Hi-hat-12.wav
329,192,153682,1,0,0:0:0:45:Hi-hat-2.wav
256,192,153682,1,0,0:0:0:70:kick-6.wav
36,192,153865,1,0,0:0:0:45:Hi-hat-12.wav
256,192,153865,1,0,0:0:0:70:kick-6.wav
402,192,154048,1,0,0:0:0:0:
256,192,154048,1,0,0:0:0:70:kick-6.wav
109,192,154231,1,0,0:0:0:45:Hi-hat-12.wav
256,192,154414,1,0,0:0:0:70:kick-6.wav
329,192,154414,1,0,0:0:0:45:Hi-hat-2.wav
182,192,154597,1,0,0:0:0:45:Hi-hat-12.wav
256,192,154780,1,0,0:0:0:70:kick-6.wav
329,192,154780,1,0,0:0:0:45:Hi-hat-2.wav
109,192,154963,1,0,0:0:0:45:Hi-hat-12.wav
402,192,155146,1,0,0:0:0:45:Hi-hat-2.wav
256,192,155146,1,0,0:0:0:70:kick-6.wav
109,192,155329,1,0,0:0:0:45:Hi-hat-12.wav
256,192,155329,1,0,0:0:0:70:kick-6.wav
475,192,155512,1,0,0:0:0:45:Hi-hat-2.wav
256,192,155512,1,0,0:0:0:70:kick-6.wav
36,192,155695,1,0,0:0:0:45:Hi-hat-12.wav
256,192,155877,1,0,0:0:0:70:kick-6.wav
475,192,155877,1,0,0:0:0:45:Hi-hat-2.wav
182,192,156060,1,0,0:0:0:45:Hi-hat-12.wav
475,192,156243,1,0,0:0:0:45:Hi-hat-2.wav
256,192,156243,1,0,0:0:0:70:kick-6.wav
109,192,156426,1,0,0:0:0:45:Hi-hat-12.wav
402,192,156609,1,0,0:0:0:45:Hi-hat-2.wav
256,192,156609,1,0,0:0:0:70:kick-6.wav
36,192,156792,1,0,0:0:0:45:Hi-hat-12.wav
256,192,156792,1,0,0:0:0:70:kick-6.wav
256,192,156975,1,0,0:0:0:70:kick-6.wav
329,192,156975,1,0,0:0:0:45:Hi-hat-2.wav
109,192,157158,1,0,0:0:0:45:Hi-hat-12.wav
256,192,157341,1,0,0:0:0:70:kick-6.wav
402,192,157341,1,0,0:0:0:45:Hi-hat-2.wav
36,192,157341,128,0,158804:0:0:0:0:
182,192,157524,1,0,0:0:0:45:Hi-hat-12.wav
256,192,157707,1,0,0:0:0:70:kick-6.wav
475,192,157707,1,0,0:0:0:0:
109,192,157890,1,0,0:0:0:45:Hi-hat-12.wav
256,192,158073,1,0,0:0:0:70:snare-22.wav
256,192,158255,1,0,0:0:0:70:snare-22.wav
256,192,158347,1,0,0:0:0:70:snare-22.wav
256,192,158438,1,0,0:0:0:70:snare-22.wav
256,192,158621,1,0,0:0:0:70:snare-22.wav
182,192,158804,1,0,0:0:0:45:Hi-hat-2.wav
256,192,158804,1,0,0:0:0:70:kick-6.wav
329,192,158987,1,0,0:0:0:45:Hi-hat-12.wav
256,192,159170,1,0,0:0:0:70:kick-6.wav
182,192,159170,1,0,0:0:0:45:Hi-hat-2.wav
329,192,159353,1,0,0:0:0:45:Hi-hat-12.wav
109,192,159536,1,0,0:0:0:45:Hi-hat-2.wav
256,192,159536,1,0,0:0:0:70:kick-6.wav
402,192,159719,1,0,0:0:0:45:Hi-hat-12.wav
256,192,159719,1,0,0:0:0:70:kick-6.wav
256,192,159902,1,0,0:0:0:70:kick-6.wav
109,192,159902,1,0,0:0:0:45:Hi-hat-2.wav
402,192,160085,1,0,0:0:0:45:Hi-hat-12.wav
256,192,160268,1,0,0:0:0:70:kick-6.wav
36,192,160268,1,0,0:0:0:45:Hi-hat-2.wav
475,192,160451,1,0,0:0:0:45:Hi-hat-12.wav
256,192,160634,1,0,0:0:0:70:kick-6.wav
36,192,160634,1,0,0:0:0:45:Hi-hat-2.wav
475,192,160816,1,0,0:0:0:45:Hi-hat-12.wav
109,192,160999,1,0,0:0:0:45:Hi-hat-2.wav
256,192,160999,1,0,0:0:0:70:kick-6.wav
475,192,161182,1,0,0:0:0:45:Hi-hat-12.wav
256,192,161182,1,0,0:0:0:70:kick-6.wav
256,192,161365,1,0,0:0:0:70:kick-6.wav
36,192,161365,1,0,0:0:0:45:Hi-hat-2.wav
402,192,161548,1,0,0:0:0:45:Hi-hat-12.wav
256,192,161731,1,0,0:0:0:70:kick-6.wav
36,192,161731,1,0,0:0:0:45:Hi-hat-2.wav
402,192,161914,1,0,0:0:0:45:Hi-hat-12.wav
256,192,162097,1,0,0:0:0:70:kick-6.wav
109,192,162097,1,0,0:0:0:45:Hi-hat-2.wav
475,192,162280,1,0,0:0:0:45:Hi-hat-12.wav
109,192,162463,1,0,0:0:0:45:Hi-hat-2.wav
256,192,162463,1,0,0:0:0:70:kick-6.wav
256,192,162646,1,0,0:0:0:70:kick-6.wav
475,192,162646,1,0,0:0:0:45:Hi-hat-12.wav
182,192,162829,1,0,0:0:0:45:Hi-hat-2.wav
256,192,162829,1,0,0:0:0:70:kick-6.wav
402,192,163012,1,0,0:0:0:45:Hi-hat-12.wav
182,192,163195,1,0,0:0:0:45:Hi-hat-2.wav
256,192,163195,1,0,0:0:0:70:kick-6.wav
402,192,163377,1,0,0:0:0:45:Hi-hat-12.wav
329,192,163560,1,0,0:0:0:45:Hi-hat-2.wav
256,192,163560,1,0,0:0:0:70:kick-6.wav
109,192,163743,1,0,0:0:0:45:Hi-hat-12.wav
329,192,163926,1,0,0:0:0:45:Hi-hat-2.wav
256,192,163926,1,0,0:0:0:70:kick-6.wav
256,192,164109,1,0,0:0:0:70:kick-6.wav
109,192,164109,1,0,0:0:0:45:Hi-hat-12.wav
256,192,164292,1,0,0:0:0:70:kick-6.wav
475,192,164292,1,0,0:0:0:45:Hi-hat-2.wav
329,192,164475,1,0,0:0:0:45:Hi-hat-12.wav
36,192,164658,1,0,0:0:0:45:Hi-hat-2.wav
256,192,164658,1,0,0:0:0:70:kick-6.wav
182,192,164841,1,0,0:0:0:45:Hi-hat-12.wav
256,192,165024,1,0,0:0:0:70:kick-6.wav
475,192,165024,1,0,0:0:0:45:Hi-hat-2.wav
329,192,165207,1,0,0:0:0:45:Hi-hat-12.wav
256,192,165390,1,0,0:0:0:70:kick-6.wav
36,192,165390,1,0,0:0:0:45:Hi-hat-2.wav
182,192,165573,1,0,0:0:0:45:Hi-hat-12.wav
256,192,165573,1,0,0:0:0:70:kick-6.wav
329,192,165755,1,0,0:0:0:45:Hi-hat-2.wav
256,192,165755,1,0,0:0:0:70:kick-6.wav
475,192,165938,1,0,0:0:0:45:Hi-hat-12.wav
182,192,166121,1,0,0:0:0:45:Hi-hat-2.wav
256,192,166121,1,0,0:0:0:70:kick-6.wav
36,192,166304,1,0,0:0:0:45:Hi-hat-12.wav
329,192,166487,1,0,0:0:0:45:Hi-hat-2.wav
256,192,166487,1,0,0:0:0:70:kick-6.wav
475,192,166670,1,0,0:0:0:45:Hi-hat-12.wav
256,192,166853,1,0,0:0:0:70:kick-6.wav
182,192,166853,1,0,0:0:0:45:Hi-hat-2.wav
256,192,167036,1,0,0:0:0:70:kick-6.wav
36,192,167036,1,0,0:0:0:45:Hi-hat-12.wav
256,192,167219,1,0,0:0:0:70:kick-6.wav
329,192,167219,1,0,0:0:0:45:Hi-hat-2.wav
475,192,167402,1,0,0:0:0:45:Hi-hat-12.wav
109,192,167585,1,0,0:0:0:45:Hi-hat-2.wav
256,192,167585,1,0,0:0:0:70:kick-6.wav
182,192,167768,1,0,0:0:0:45:Hi-hat-12.wav
256,192,167951,1,0,0:0:0:70:kick-6.wav
402,192,167951,1,0,0:0:0:45:Hi-hat-2.wav
329,192,168134,1,0,0:0:0:45:Hi-hat-12.wav
36,192,168316,1,0,0:0:0:45:Hi-hat-2.wav
256,192,168316,1,0,0:0:0:70:kick-6.wav
109,192,168499,1,0,0:0:0:45:Hi-hat-12.wav
256,192,168499,1,0,0:0:0:70:kick-6.wav
475,192,168682,1,0,0:0:0:45:Hi-hat-2.wav
256,192,168682,1,0,0:0:0:70:kick-6.wav
402,192,168865,1,0,0:0:0:45:Hi-hat-12.wav
36,192,169048,1,0,0:0:0:45:Hi-hat-2.wav
256,192,169048,1,0,0:0:0:70:kick-6.wav
182,192,169231,1,0,0:0:0:45:Hi-hat-12.wav
475,192,169323,1,0,0:0:0:45:Hi-hat-2.wav
256,192,169414,1,0,0:0:0:70:kick-6.wav
329,192,169597,1,0,0:0:0:45:Hi-hat-12.wav
256,192,169780,1,0,0:0:0:70:snare-22.wav
256,192,169963,1,0,0:0:0:70:snare-22.wav
256,192,170054,1,0,0:0:0:70:snare-22.wav
256,192,170146,1,0,0:0:0:70:snare-22.wav
256,192,170329,1,0,0:0:0:70:snare-22.wav
109,192,170512,1,0,0:0:0:0:
475,192,170512,1,0,0:0:0:70:kick-6.wav
182,192,170603,1,0,0:0:0:0:
256,192,170695,1,0,0:0:0:0:
36,192,170695,1,0,0:0:0:70:snare-22.wav
329,192,170786,1,0,0:0:0:0:
402,192,170877,1,0,0:0:0:0:
475,192,170877,1,0,0:0:0:70:kick-6.wav
329,192,170969,1,0,0:0:0:0:
256,192,171060,1,0,0:0:0:0:
36,192,171060,1,0,0:0:0:70:snare-22.wav
329,192,171152,1,0,0:0:0:0:
402,192,171243,1,0,0:0:0:0:
475,192,171243,1,0,0:0:0:70:kick-6.wav
329,192,171335,1,0,0:0:0:0:
256,192,171426,1,0,0:0:0:0:
36,192,171426,1,0,0:0:0:70:snare-22.wav
182,192,171518,1,0,0:0:0:0:
109,192,171609,1,0,0:0:0:0:
475,192,171609,1,0,0:0:0:70:kick-6.wav
182,192,171701,1,0,0:0:0:0:
256,192,171792,1,0,0:0:0:0:
36,192,171792,1,0,0:0:0:70:snare-22.wav
182,192,171884,1,0,0:0:0:0:
475,192,171975,1,0,0:0:0:70:kick-6.wav
109,192,171975,1,0,0:0:0:0:
182,192,172066,1,0,0:0:0:0:
256,192,172158,1,0,0:0:0:0:
36,192,172158,1,0,0:0:0:70:snare-22.wav
329,192,172249,1,0,0:0:0:0:
402,192,172341,1,0,0:0:0:0:
475,192,172341,1,0,0:0:0:70:kick-6.wav
329,192,172432,1,0,0:0:0:0:
256,192,172524,1,0,0:0:0:0:
36,192,172524,1,0,0:0:0:70:snare-22.wav
329,192,172615,1,0,0:0:0:0:
402,192,172707,1,0,0:0:0:0:
475,192,172707,1,0,0:0:0:70:kick-6.wav
329,192,172798,1,0,0:0:0:0:
256,192,172890,1,0,0:0:0:0:
36,192,172890,1,0,0:0:0:70:snare-22.wav
182,192,172981,1,0,0:0:0:0:
109,192,173073,1,0,0:0:0:0:
475,192,173073,1,0,0:0:0:70:kick-6.wav
182,192,173164,1,0,0:0:0:0:
256,192,173255,1,0,0:0:0:0:
36,192,173255,1,0,0:0:0:70:snare-22.wav
182,192,173347,1,0,0:0:0:0:
109,192,173438,1,0,0:0:0:0:
475,192,173438,1,0,0:0:0:70:kick-6.wav
182,192,173530,1,0,0:0:0:0:
256,192,173621,1,0,0:0:0:0:
36,192,173621,1,0,0:0:0:70:snare-22.wav
329,192,173713,1,0,0:0:0:0:
402,192,173804,1,0,0:0:0:0:
475,192,173804,1,0,0:0:0:70:kick-6.wav
329,192,173896,1,0,0:0:0:0:
256,192,173987,1,0,0:0:0:0:
36,192,173987,1,0,0:0:0:70:snare-22.wav
329,192,174079,1,0,0:0:0:0:
402,192,174170,1,0,0:0:0:0:
475,192,174170,1,0,0:0:0:70:kick-6.wav
329,192,174262,1,0,0:0:0:0:
256,192,174353,1,0,0:0:0:0:
36,192,174353,1,0,0:0:0:70:snare-22.wav
182,192,174445,1,0,0:0:0:0:
256,192,174536,1,0,0:0:0:0:
475,192,174536,1,0,0:0:0:70:kick-6.wav
329,192,174627,1,0,0:0:0:0:
256,192,174719,1,0,0:0:0:0:
36,192,174719,1,0,0:0:0:70:snare-22.wav
182,192,174810,1,0,0:0:0:0:
109,192,174902,1,0,0:0:0:0:
475,192,174902,1,0,0:0:0:70:kick-6.wav
182,192,174993,1,0,0:0:0:0:
256,192,175085,1,0,0:0:0:0:
36,192,175085,1,0,0:0:0:70:snare-22.wav
329,192,175176,1,0,0:0:0:0:
256,192,175268,1,0,0:0:0:0:
475,192,175268,1,0,0:0:0:70:kick-6.wav
182,192,175359,1,0,0:0:0:0:
256,192,175451,1,0,0:0:0:0:
36,192,175451,1,0,0:0:0:70:snare-22.wav
329,192,175542,1,0,0:0:0:0:
402,192,175634,1,0,0:0:0:0:
475,192,175634,1,0,0:0:0:70:kick-6.wav
329,192,175725,1,0,0:0:0:0:
256,192,175816,1,0,0:0:0:0:
36,192,175816,1,0,0:0:0:70:snare-22.wav
182,192,175908,1,0,0:0:0:0:
256,192,175999,1,0,0:0:0:0:
475,192,175999,1,0,0:0:0:70:kick-6.wav
329,192,176091,1,0,0:0:0:0:
256,192,176182,1,0,0:0:0:0:
36,192,176182,1,0,0:0:0:70:snare-22.wav
182,192,176274,1,0,0:0:0:0:
109,192,176365,1,0,0:0:0:0:
475,192,176365,1,0,0:0:0:70:kick-6.wav
182,192,176457,1,0,0:0:0:0:
256,192,176548,1,0,0:0:0:0:
36,192,176548,1,0,0:0:0:70:snare-22.wav
329,192,176640,1,0,0:0:0:0:
402,192,176731,1,0,0:0:0:0:
475,192,176731,1,0,0:0:0:70:kick-6.wav
329,192,176823,1,0,0:0:0:0:
256,192,176914,1,0,0:0:0:0:
36,192,176914,1,0,0:0:0:70:snare-22.wav
182,192,177005,1,0,0:0:0:0:
256,192,177097,1,0,0:0:0:0:
475,192,177097,1,0,0:0:0:70:kick-6.wav
329,192,177188,1,0,0:0:0:0:
256,192,177280,1,0,0:0:0:0:
36,192,177280,1,0,0:0:0:70:snare-22.wav
182,192,177371,1,0,0:0:0:0:
256,192,177463,1,0,0:0:0:0:
475,192,177463,1,0,0:0:0:70:kick-6.wav
329,192,177554,1,0,0:0:0:0:
256,192,177646,1,0,0:0:0:0:
36,192,177646,1,0,0:0:0:70:snare-22.wav
182,192,177737,1,0,0:0:0:0:
109,192,177829,1,0,0:0:0:0:
475,192,177829,1,0,0:0:0:70:kick-6.wav
182,192,177920,1,0,0:0:0:0:
256,192,178012,1,0,0:0:0:0:
36,192,178012,1,0,0:0:0:70:snare-22.wav
329,192,178103,1,0,0:0:0:0:
402,192,178195,1,0,0:0:0:0:
475,192,178195,1,0,0:0:0:70:kick-6.wav
329,192,178286,1,0,0:0:0:0:
256,192,178377,1,0,0:0:0:0:
36,192,178377,1,0,0:0:0:70:snare-22.wav
329,192,178469,1,0,0:0:0:0:
402,192,178560,1,0,0:0:0:0:
475,192,178560,1,0,0:0:0:70:kick-6.wav
329,192,178652,1,0,0:0:0:0:
256,192,178743,1,0,0:0:0:0:
36,192,178743,1,0,0:0:0:70:snare-22.wav
182,192,178835,1,0,0:0:0:0:
109,192,178926,1,0,0:0:0:0:
475,192,178926,1,0,0:0:0:70:kick-6.wav
182,192,179018,1,0,0:0:0:0:
256,192,179109,1,0,0:0:0:0:
36,192,179109,1,0,0:0:0:70:snare-22.wav
182,192,179201,1,0,0:0:0:0:
109,192,179292,1,0,0:0:0:0:
475,192,179292,1,0,0:0:0:70:kick-6.wav
182,192,179384,1,0,0:0:0:0:
256,192,179475,1,0,0:0:0:0:
36,192,179475,1,0,0:0:0:70:snare-22.wav
329,192,179566,1,0,0:0:0:0:
402,192,179658,1,0,0:0:0:0:
475,192,179658,1,0,0:0:0:70:kick-6.wav
329,192,179749,1,0,0:0:0:0:
256,192,179841,1,0,0:0:0:0:
36,192,179841,1,0,0:0:0:70:snare-22.wav
182,192,179932,1,0,0:0:0:0:
256,192,180024,1,0,0:0:0:0:
475,192,180024,1,0,0:0:0:70:kick-6.wav
329,192,180115,1,0,0:0:0:0:
256,192,180207,1,0,0:0:0:0:
36,192,180207,1,0,0:0:0:70:snare-22.wav
182,192,180298,1,0,0:0:0:0:
256,192,180390,1,0,0:0:0:0:
475,192,180390,1,0,0:0:0:70:kick-6.wav
182,192,180481,1,0,0:0:0:0:
109,192,180573,1,0,0:0:0:0:
36,192,180573,1,0,0:0:0:70:snare-22.wav
182,192,180664,1,0,0:0:0:0:
109,192,180755,1,0,0:0:0:0:
475,192,180755,1,0,0:0:0:70:kick-6.wav
182,192,180847,1,0,0:0:0:0:
256,192,180938,1,0,0:0:0:0:
36,192,180938,1,0,0:0:0:70:snare-22.wav
329,192,181030,1,0,0:0:0:0:
402,192,181121,1,0,0:0:0:0:
475,192,181121,1,0,0:0:0:70:kick-6.wav
329,192,181213,1,0,0:0:0:0:
475,192,181213,1,0,0:0:0:70:kick-6.wav
256,192,181304,1,0,0:0:0:0:
36,192,181304,1,0,0:0:0:70:snare-22.wav
109,192,181396,1,0,0:0:0:70:snare-22.wav
182,192,181396,1,0,0:0:0:0:
36,192,181487,1,0,0:0:0:70:snare-22.wav
256,192,181487,1,0,0:0:0:0:
475,192,181487,1,0,0:0:0:70:kick-6.wav
109,192,181579,1,0,0:0:0:70:snare-22.wav
329,192,181579,1,0,0:0:0:0:
402,192,181670,1,0,0:0:0:0:
36,192,181670,1,0,0:0:0:70:snare-22.wav
329,192,181762,1,0,0:0:0:0:
256,192,181853,1,0,0:0:0:0:
475,192,181853,1,0,0:0:0:70:kick-6.wav
36,192,181853,1,0,0:0:0:70:snare-22.wav
329,192,181945,1,0,0:0:0:0:
256,192,182036,1,0,0:0:0:0:
36,192,182036,1,0,0:0:0:70:snare-22.wav
182,192,182127,1,0,0:0:0:0:
36,192,182219,1,0,0:0:0:20:snare-22.wav
475,192,182219,1,0,0:0:0:70:kick-6.wav
109,192,182310,1,0,0:0:0:0:
182,192,182402,1,0,0:0:0:0:
402,192,182402,1,0,0:0:0:70:snare-22.wav
256,192,182493,1,0,0:0:0:0:
329,192,182585,1,0,0:0:0:0:
475,192,182585,1,0,0:0:0:70:kick-6.wav
256,192,182676,1,0,0:0:0:0:
182,192,182768,1,0,0:0:0:0:
402,192,182768,1,0,0:0:0:70:snare-22.wav
109,192,182859,1,0,0:0:0:0:
36,192,182951,1,0,0:0:0:0:
475,192,182951,1,0,0:0:0:70:kick-6.wav
109,192,183042,1,0,0:0:0:0:
182,192,183134,1,0,0:0:0:0:
402,192,183134,1,0,0:0:0:70:snare-22.wav
256,192,183225,1,0,0:0:0:0:
475,192,183316,1,0,0:0:0:70:kick-6.wav
329,192,183316,1,0,0:0:0:0:
256,192,183408,1,0,0:0:0:0:
402,192,183499,1,0,0:0:0:70:snare-22.wav
182,192,183499,1,0,0:0:0:0:
109,192,183591,1,0,0:0:0:0:
36,192,183682,1,0,0:0:0:0:
475,192,183682,1,0,0:0:0:70:kick-6.wav
109,192,183774,1,0,0:0:0:0:
182,192,183865,1,0,0:0:0:0:
402,192,183865,1,0,0:0:0:70:snare-22.wav
256,192,183957,1,0,0:0:0:0:
329,192,184048,1,0,0:0:0:0:
475,192,184048,1,0,0:0:0:70:kick-6.wav
256,192,184140,1,0,0:0:0:0:
182,192,184231,1,0,0:0:0:0:
402,192,184231,1,0,0:0:0:70:snare-22.wav
109,192,184323,1,0,0:0:0:0:
36,192,184414,1,0,0:0:0:0:
475,192,184414,1,0,0:0:0:70:kick-6.wav
109,192,184505,1,0,0:0:0:0:
182,192,184597,1,0,0:0:0:0:
402,192,184597,1,0,0:0:0:70:snare-22.wav
256,192,184688,1,0,0:0:0:0:
329,192,184780,1,0,0:0:0:0:
475,192,184780,1,0,0:0:0:70:kick-6.wav
256,192,184871,1,0,0:0:0:0:
182,192,184963,1,0,0:0:0:0:
402,192,184963,1,0,0:0:0:70:snare-22.wav
109,192,185054,1,0,0:0:0:0:
36,192,185146,1,0,0:0:0:0:
475,192,185146,1,0,0:0:0:70:kick-6.wav
109,192,185237,1,0,0:0:0:0:
182,192,185329,1,0,0:0:0:0:
402,192,185329,1,0,0:0:0:70:snare-22.wav
256,192,185420,1,0,0:0:0:0:
329,192,185512,1,0,0:0:0:0:
475,192,185512,1,0,0:0:0:70:kick-6.wav
256,192,185603,1,0,0:0:0:0:
402,192,185695,1,0,0:0:0:70:snare-22.wav
182,192,185695,1,0,0:0:0:0:
256,192,185786,1,0,0:0:0:0:
329,192,185877,1,0,0:0:0:0:
475,192,185877,1,0,0:0:0:70:kick-6.wav
256,192,185969,1,0,0:0:0:0:
402,192,186060,1,0,0:0:0:70:snare-22.wav
182,192,186060,1,0,0:0:0:0:
109,192,186152,1,0,0:0:0:0:
475,192,186243,1,0,0:0:0:70:kick-6.wav
182,192,186243,1,0,0:0:0:0:
256,192,186335,1,0,0:0:0:0:
402,192,186426,1,0,0:0:0:70:snare-22.wav
182,192,186426,1,0,0:0:0:0:
109,192,186518,1,0,0:0:0:0:
475,192,186609,1,0,0:0:0:70:kick-6.wav
36,192,186609,1,0,0:0:0:0:
109,192,186701,1,0,0:0:0:0:
402,192,186792,1,0,0:0:0:70:snare-22.wav
182,192,186792,1,0,0:0:0:0:
256,192,186884,1,0,0:0:0:0:
475,192,186975,1,0,0:0:0:70:kick-6.wav
329,192,186975,1,0,0:0:0:0:
256,192,187066,1,0,0:0:0:0:
402,192,187158,1,0,0:0:0:70:snare-22.wav
182,192,187158,1,0,0:0:0:0:
256,192,187249,1,0,0:0:0:0:
329,192,187341,1,0,0:0:0:0:
475,192,187341,1,0,0:0:0:70:kick-6.wav
256,192,187432,1,0,0:0:0:0:
182,192,187524,1,0,0:0:0:0:
402,192,187524,1,0,0:0:0:70:snare-22.wav
109,192,187615,1,0,0:0:0:0:
182,192,187707,1,0,0:0:0:0:
475,192,187707,1,0,0:0:0:70:kick-6.wav
256,192,187798,1,0,0:0:0:0:
182,192,187890,1,0,0:0:0:0:
402,192,187890,1,0,0:0:0:70:snare-22.wav
109,192,187981,1,0,0:0:0:0:
36,192,188073,1,0,0:0:0:0:
475,192,188073,1,0,0:0:0:70:kick-6.wav
109,192,188164,1,0,0:0:0:0:
402,192,188255,1,0,0:0:0:70:snare-22.wav
182,192,188255,1,0,0:0:0:0:
256,192,188347,1,0,0:0:0:0:
475,192,188438,1,0,0:0:0:70:kick-6.wav
329,192,188438,1,0,0:0:0:0:
256,192,188530,1,0,0:0:0:0:
182,192,188621,1,0,0:0:0:0:
402,192,188621,1,0,0:0:0:70:snare-22.wav
109,192,188713,1,0,0:0:0:0:
36,192,188804,1,0,0:0:0:0:
475,192,188804,1,0,0:0:0:70:kick-6.wav
182,192,188896,1,0,0:0:0:0:
402,192,188987,1,0,0:0:0:70:snare-22.wav
109,192,188987,1,0,0:0:0:0:
256,192,189079,1,0,0:0:0:0:
475,192,189170,1,0,0:0:0:70:kick-6.wav
182,192,189170,1,0,0:0:0:0:
329,192,189262,1,0,0:0:0:0:
402,192,189353,1,0,0:0:0:70:snare-22.wav
256,192,189353,1,0,0:0:0:0:
109,192,189445,1,0,0:0:0:0:
36,192,189536,1,0,0:0:0:0:
475,192,189536,1,0,0:0:0:70:kick-6.wav
109,192,189627,1,0,0:0:0:0:
182,192,189719,1,0,0:0:0:0:
402,192,189719,1,0,0:0:0:70:snare-22.wav
256,192,189810,1,0,0:0:0:0:
329,192,189902,1,0,0:0:0:0:
475,192,189902,1,0,0:0:0:70:kick-6.wav
256,192,189993,1,0,0:0:0:0:
182,192,190085,1,0,0:0:0:0:
402,192,190085,1,0,0:0:0:70:snare-22.wav
109,192,190176,1,0,0:0:0:0:
36,192,190268,1,0,0:0:0:0:
475,192,190268,1,0,0:0:0:70:kick-6.wav
182,192,190359,1,0,0:0:0:0:
109,192,190451,1,0,0:0:0:0:
402,192,190451,1,0,0:0:0:70:snare-22.wav
256,192,190542,1,0,0:0:0:0:
182,192,190634,1,0,0:0:0:0:
475,192,190634,1,0,0:0:0:70:kick-6.wav
329,192,190725,1,0,0:0:0:0:
402,192,190816,1,0,0:0:0:70:snare-22.wav
256,192,190816,1,0,0:0:0:0:
109,192,190908,1,0,0:0:0:0:
36,192,190999,1,0,0:0:0:0:
475,192,190999,1,0,0:0:0:70:kick-6.wav
109,192,191091,1,0,0:0:0:0:
182,192,191182,1,0,0:0:0:0:
256,192,191274,1,0,0:0:0:0:
329,192,191365,1,0,0:0:0:0:
475,192,191365,1,0,0:0:0:70:kick-6.wav
402,192,191457,1,0,0:0:0:0:
329,192,191548,1,0,0:0:0:0:
256,192,191640,1,0,0:0:0:0:
182,192,191731,1,0,0:0:0:0:
475,192,191731,1,0,0:0:0:70:kick-6.wav
109,192,191823,1,0,0:0:0:0:
182,192,191914,1,0,0:0:0:0:
475,192,191914,1,0,0:0:0:70:kick-6.wav
256,192,192005,1,0,0:0:0:0:
182,192,192097,1,0,0:0:0:0:
329,192,192188,1,0,0:0:0:0:
256,192,192280,1,0,0:0:0:0:
402,192,192280,1,0,0:0:0:70:snare-22.wav
109,192,192371,1,0,0:0:0:0:
475,192,192371,1,0,0:0:0:70:snare-22.wav
36,192,192463,1,0,0:0:0:0:
402,192,192463,1,0,0:0:0:70:snare-22.wav
475,192,192554,1,0,0:0:0:70:snare-22.wav
109,192,192554,1,0,0:0:0:0:
182,192,192646,1,0,0:0:0:0:
402,192,192646,1,0,0:0:0:70:snare-22.wav
256,192,192737,1,0,0:0:0:0:
329,192,192829,1,0,0:0:0:0:
475,192,192829,1,0,0:0:0:70:kick-6.wav
256,192,192920,1,0,0:0:0:0:
182,192,193012,1,0,0:0:0:0:
402,192,193012,1,0,0:0:0:70:snare-22.wav
109,192,193103,1,0,0:0:0:0:
475,192,193103,1,0,0:0:0:70:snare-22.wav
36,192,193195,1,0,0:0:0:0:
402,192,193195,1,0,0:0:0:70:snare-22.wav
182,192,193286,1,0,0:0:0:0:
475,192,193286,1,0,0:0:0:70:snare-22.wav
109,192,193377,1,0,0:0:0:0:
402,192,193377,1,0,0:0:0:70:snare-22.wav
256,192,193469,1,0,0:0:0:0:
475,192,193560,1,0,0:0:0:70:kick-6.wav
182,192,193560,1,0,0:0:0:0:
329,192,193652,1,0,0:0:0:0:
475,192,193743,1,0,0:0:0:70:kick-6.wav
256,192,193743,1,0,0:0:0:0:
182,192,193835,1,0,0:0:0:0:
36,192,193926,1,0,0:0:0:25:Hi-hat-11.wav
475,192,193926,128,0,194109:0:0:0:0:
329,192,193926,1,0,0:0:0:70:kick-6.wav
109,192,194018,1,0,0:0:0:25:Hi-hat-11.wav
182,192,194109,1,0,0:0:0:25:Hi-hat-11.wav
256,192,194201,1,0,0:0:0:25:Hi-hat-11.wav
475,192,194292,128,0,194475:0:0:0:0:
329,192,194292,1,0,0:0:0:25:Hi-hat-11.wav
36,192,194292,1,0,0:0:0:70:kick-6.wav
256,192,194384,1,0,0:0:0:25:Hi-hat-11.wav
182,192,194475,1,0,0:0:0:25:Hi-hat-11.wav
109,192,194566,1,0,0:0:0:25:Hi-hat-11.wav
402,192,194658,128,0,195024:0:0:0:0:
329,192,194658,1,0,0:0:0:25:Hi-hat-11.wav
36,192,194658,1,0,0:0:0:70:kick-6.wav
256,192,194749,1,0,0:0:0:25:Hi-hat-11.wav
182,192,194841,1,0,0:0:0:25:Hi-hat-11.wav
109,192,194932,1,0,0:0:0:25:Hi-hat-11.wav
36,192,195024,1,0,0:0:0:25:Hi-hat-11.wav
329,192,195024,1,0,0:0:0:70:kick-6.wav
109,192,195115,1,0,0:0:0:25:Hi-hat-11.wav
475,192,195207,128,0,195390:0:0:0:0:
182,192,195207,1,0,0:0:0:25:Hi-hat-11.wav
109,192,195298,1,0,0:0:0:25:Hi-hat-11.wav
36,192,195390,1,0,0:0:0:25:Hi-hat-11.wav
329,192,195390,1,0,0:0:0:70:kick-6.wav
109,192,195481,1,0,0:0:0:25:Hi-hat-11.wav
475,192,195573,128,0,195755:0:0:0:0:
182,192,195573,1,0,0:0:0:25:Hi-hat-11.wav
256,192,195664,1,0,0:0:0:25:Hi-hat-11.wav
329,192,195755,1,0,0:0:0:25:Hi-hat-11.wav
36,192,195755,1,0,0:0:0:70:kick-6.wav
256,192,195847,1,0,0:0:0:25:Hi-hat-11.wav
475,192,195938,128,0,196030:0:0:0:0:
182,192,195938,1,0,0:0:0:25:Hi-hat-11.wav
109,192,196030,1,0,0:0:0:25:Hi-hat-11.wav
402,192,196121,128,0,196670:0:0:0:0:
329,192,196121,1,0,0:0:0:25:Hi-hat-11.wav
36,192,196121,1,0,0:0:0:70:kick-6.wav
256,192,196213,1,0,0:0:0:25:Hi-hat-11.wav
182,192,196304,1,0,0:0:0:25:Hi-hat-11.wav
109,192,196396,1,0,0:0:0:25:Hi-hat-11.wav
36,192,196487,1,0,0:0:0:25:Hi-hat-11.wav
329,192,196487,1,0,0:0:0:70:kick-6.wav
109,192,196579,1,0,0:0:0:25:Hi-hat-11.wav
182,192,196670,1,0,0:0:0:25:Hi-hat-11.wav
109,192,196762,1,0,0:0:0:25:Hi-hat-11.wav
475,192,196853,128,0,197036:0:0:0:0:
329,192,196853,1,0,0:0:0:25:Hi-hat-11.wav
36,192,196853,1,0,0:0:0:70:kick-6.wav
256,192,196945,1,0,0:0:0:25:Hi-hat-11.wav
182,192,197036,1,0,0:0:0:25:Hi-hat-11.wav
256,192,197127,1,0,0:0:0:25:Hi-hat-11.wav
475,192,197219,128,0,197402:0:0:0:0:
109,192,197219,1,0,0:0:0:25:Hi-hat-11.wav
36,192,197219,1,0,0:0:0:70:kick-6.wav
182,192,197310,1,0,0:0:0:25:Hi-hat-11.wav
256,192,197402,1,0,0:0:0:25:Hi-hat-11.wav
329,192,197493,1,0,0:0:0:25:Hi-hat-11.wav
402,192,197585,128,0,197951:0:0:0:0:
256,192,197585,1,0,0:0:0:25:Hi-hat-11.wav
36,192,197585,1,0,0:0:0:70:kick-6.wav
182,192,197676,1,0,0:0:0:25:Hi-hat-11.wav
256,192,197768,1,0,0:0:0:25:Hi-hat-11.wav
182,192,197859,1,0,0:0:0:25:Hi-hat-11.wav
109,192,197951,1,0,0:0:0:25:Hi-hat-11.wav
329,192,197951,1,0,0:0:0:70:kick-6.wav
182,192,198042,1,0,0:0:0:25:Hi-hat-11.wav
402,192,198134,128,0,198316:0:0:0:0:
109,192,198134,1,0,0:0:0:25:Hi-hat-11.wav
36,192,198225,1,0,0:0:0:25:Hi-hat-11.wav
329,192,198316,1,0,0:0:0:25:Hi-hat-11.wav
36,192,198316,1,0,0:0:0:70:kick-6.wav
256,192,198408,1,0,0:0:0:25:Hi-hat-11.wav
402,192,198499,128,0,198682:0:0:0:0:
182,192,198499,1,0,0:0:0:25:Hi-hat-11.wav
256,192,198591,1,0,0:0:0:25:Hi-hat-11.wav
109,192,198682,1,0,0:0:0:25:Hi-hat-11.wav
36,192,198682,1,0,0:0:0:70:kick-6.wav
182,192,198774,1,0,0:0:0:25:Hi-hat-11.wav
475,192,198865,128,0,198957:0:0:0:0:
256,192,198865,1,0,0:0:0:25:Hi-hat-11.wav
329,192,198957,1,0,0:0:0:25:Hi-hat-11.wav
402,192,199048,128,0,199597:0:0:0:0:
256,192,199048,1,0,0:0:0:25:Hi-hat-11.wav
36,192,199048,1,0,0:0:0:70:kick-6.wav
182,192,199140,1,0,0:0:0:25:Hi-hat-11.wav
256,192,199231,1,0,0:0:0:25:Hi-hat-11.wav
182,192,199323,1,0,0:0:0:25:Hi-hat-11.wav
109,192,199414,1,0,0:0:0:25:Hi-hat-11.wav
36,192,199414,1,0,0:0:0:70:kick-6.wav
329,192,199414,1,0,0:0:0:70:kick-6.wav
182,192,199505,1,0,0:0:0:25:Hi-hat-11.wav
109,192,199597,1,0,0:0:0:25:Hi-hat-11.wav
36,192,199688,1,0,0:0:0:25:Hi-hat-11.wav
475,192,199780,128,0,199963:0:0:0:0:
109,192,199780,1,0,0:0:0:25:Hi-hat-11.wav
329,192,199780,1,0,0:0:0:70:kick-6.wav
182,192,199871,1,0,0:0:0:25:Hi-hat-11.wav
256,192,199963,1,0,0:0:0:25:Hi-hat-11.wav
182,192,200054,1,0,0:0:0:25:Hi-hat-11.wav
475,192,200146,128,0,200329:0:0:0:0:
109,192,200146,1,0,0:0:0:25:Hi-hat-11.wav
36,192,200146,1,0,0:0:0:70:kick-6.wav
182,192,200237,1,0,0:0:0:25:Hi-hat-11.wav
256,192,200329,1,0,0:0:0:25:Hi-hat-11.wav
329,192,200420,1,0,0:0:0:25:Hi-hat-11.wav
402,192,200512,128,0,200877:0:0:0:0:
256,192,200512,1,0,0:0:0:25:Hi-hat-11.wav
36,192,200512,1,0,0:0:0:70:kick-6.wav
182,192,200603,1,0,0:0:0:25:Hi-hat-11.wav
256,192,200695,1,0,0:0:0:25:Hi-hat-11.wav
109,192,200786,1,0,0:0:0:25:Hi-hat-11.wav
182,192,200877,1,0,0:0:0:25:Hi-hat-11.wav
36,192,200877,1,0,0:0:0:70:kick-6.wav
256,192,200969,1,0,0:0:0:25:Hi-hat-11.wav
475,192,201060,128,0,201243:0:0:0:0:
329,192,201060,1,0,0:0:0:25:Hi-hat-11.wav
256,192,201152,1,0,0:0:0:25:Hi-hat-11.wav
109,192,201243,1,0,0:0:0:25:Hi-hat-11.wav
36,192,201243,1,0,0:0:0:70:kick-6.wav
182,192,201335,1,0,0:0:0:25:Hi-hat-11.wav
475,192,201426,128,0,201609:0:0:0:0:
256,192,201426,1,0,0:0:0:25:Hi-hat-11.wav
182,192,201518,1,0,0:0:0:25:Hi-hat-11.wav
109,192,201609,1,0,0:0:0:25:Hi-hat-11.wav
36,192,201609,1,0,0:0:0:70:kick-6.wav
182,192,201701,1,0,0:0:0:25:Hi-hat-11.wav
475,192,201792,128,0,201884:0:0:0:0:
256,192,201792,1,0,0:0:0:25:Hi-hat-11.wav
329,192,201884,1,0,0:0:0:25:Hi-hat-11.wav
402,192,201975,128,0,202524:0:0:0:0:
256,192,201975,1,0,0:0:0:25:Hi-hat-11.wav
36,192,201975,1,0,0:0:0:70:kick-6.wav
182,192,202066,1,0,0:0:0:25:Hi-hat-11.wav
256,192,202158,1,0,0:0:0:25:Hi-hat-11.wav
329,192,202249,1,0,0:0:0:25:Hi-hat-11.wav
475,192,202341,1,0,0:0:0:25:Hi-hat-11.wav
36,192,202341,1,0,0:0:0:70:kick-6.wav
329,192,202432,1,0,0:0:0:25:Hi-hat-11.wav
256,192,202524,1,0,0:0:0:25:Hi-hat-11.wav
182,192,202615,1,0,0:0:0:25:Hi-hat-11.wav
329,192,202707,128,0,202890:0:0:0:0:
36,192,202707,1,0,0:0:0:25:Hi-hat-11.wav
256,192,202707,1,0,0:0:0:70:kick-6.wav
109,192,202798,1,0,0:0:0:25:Hi-hat-11.wav
475,192,202890,1,0,0:0:0:25:Hi-hat-11.wav
402,192,202981,1,0,0:0:0:25:Hi-hat-11.wav
329,192,203073,128,0,203255:0:0:0:0:
36,192,203073,1,0,0:0:0:25:Hi-hat-11.wav
256,192,203073,1,0,0:0:0:70:kick-6.wav
109,192,203164,1,0,0:0:0:25:Hi-hat-11.wav
475,192,203255,1,0,0:0:0:25:Hi-hat-11.wav
402,192,203347,1,0,0:0:0:25:Hi-hat-11.wav
329,192,203438,128,0,203530:0:0:0:0:
109,192,203438,1,0,0:0:0:25:Hi-hat-11.wav
256,192,203438,1,0,0:0:0:70:kick-6.wav
182,192,203530,1,0,0:0:0:25:Hi-hat-11.wav
329,192,203621,128,0,203804:0:0:0:0:
475,192,203621,1,0,0:0:0:25:Hi-hat-11.wav
402,192,203713,1,0,0:0:0:25:Hi-hat-11.wav
109,192,203804,1,0,0:0:0:25:Hi-hat-11.wav
256,192,203804,1,0,0:0:0:70:kick-6.wav
182,192,203896,1,0,0:0:0:25:Hi-hat-11.wav
329,192,203987,128,0,204170:0:0:0:0:
475,192,203987,1,0,0:0:0:25:Hi-hat-11.wav
402,192,204079,1,0,0:0:0:25:Hi-hat-11.wav
36,192,204170,1,0,0:0:0:25:Hi-hat-11.wav
256,192,204170,1,0,0:0:0:70:kick-6.wav
109,192,204262,1,0,0:0:0:25:Hi-hat-11.wav
329,192,204353,128,0,204536:0:0:0:0:
402,192,204353,1,0,0:0:0:25:Hi-hat-11.wav
475,192,204445,1,0,0:0:0:25:Hi-hat-11.wav
36,192,204536,1,0,0:0:0:70:snare-22.wav
109,192,204627,1,0,0:0:0:70:snare-22.wav
402,192,204719,128,0,204902:0:0:0:0:
182,192,204719,1,0,0:0:0:70:snare-22.wav
256,192,204810,1,0,0:0:0:70:snare-22.wav
109,192,204902,1,0,0:0:0:70:snare-22.wav
475,192,204902,128,0,205634:0:0:0:0:
256,192,204993,1,0,0:0:0:70:snare-22.wav
109,192,205085,1,0,0:0:0:70:snare-22.wav
256,192,205176,1,0,0:0:0:70:snare-22.wav
182,192,205268,1,0,0:0:0:70:snare-22.wav
329,192,205359,1,0,0:0:0:70:snare-22.wav
182,192,205451,1,0,0:0:0:70:snare-22.wav
329,192,205542,1,0,0:0:0:70:snare-22.wav
109,192,205634,128,0,205816:0:0:0:0:
256,192,205634,1,0,0:0:0:25:Hi-hat-11.wav
36,192,205634,1,0,0:0:0:70:kick-6.wav
329,192,205725,1,0,0:0:0:25:Hi-hat-11.wav
402,192,205816,1,0,0:0:0:25:Hi-hat-11.wav
475,192,205908,1,0,0:0:0:25:Hi-hat-11.wav
109,192,205999,128,0,206182:0:0:0:0:
182,192,205999,1,0,0:0:0:25:Hi-hat-11.wav
36,192,205999,1,0,0:0:0:70:kick-6.wav
256,192,206091,1,0,0:0:0:25:Hi-hat-11.wav
329,192,206182,1,0,0:0:0:25:Hi-hat-11.wav
402,192,206274,1,0,0:0:0:25:Hi-hat-11.wav
36,192,206365,128,0,206731:0:0:0:0:
475,192,206365,1,0,0:0:0:25:Hi-hat-11.wav
182,192,206365,1,0,0:0:0:70:kick-6.wav
402,192,206457,1,0,0:0:0:25:Hi-hat-11.wav
329,192,206548,1,0,0:0:0:25:Hi-hat-11.wav
256,192,206640,1,0,0:0:0:25:Hi-hat-11.wav
402,192,206731,1,0,0:0:0:25:Hi-hat-11.wav
182,192,206731,1,0,0:0:0:70:kick-6.wav
329,192,206823,1,0,0:0:0:25:Hi-hat-11.wav
109,192,206914,128,0,207097:0:0:0:0:
256,192,206914,1,0,0:0:0:25:Hi-hat-11.wav
182,192,207005,1,0,0:0:0:25:Hi-hat-11.wav
256,192,207097,1,0,0:0:0:25:Hi-hat-11.wav
36,192,207097,1,0,0:0:0:70:kick-6.wav
329,192,207188,1,0,0:0:0:25:Hi-hat-11.wav
109,192,207280,128,0,207463:0:0:0:0:
402,192,207280,1,0,0:0:0:25:Hi-hat-11.wav
475,192,207371,1,0,0:0:0:25:Hi-hat-11.wav
182,192,207463,1,0,0:0:0:25:Hi-hat-11.wav
36,192,207463,1,0,0:0:0:70:kick-6.wav
256,192,207554,1,0,0:0:0:25:Hi-hat-11.wav
109,192,207646,128,0,207737:0:0:0:0:
329,192,207646,1,0,0:0:0:25:Hi-hat-11.wav
402,192,207737,1,0,0:0:0:25:Hi-hat-11.wav
36,192,207829,128,0,208377:0:0:0:0:
475,192,207829,1,0,0:0:0:25:Hi-hat-11.wav
182,192,207829,1,0,0:0:0:70:kick-6.wav
402,192,207920,1,0,0:0:0:25:Hi-hat-11.wav
329,192,208012,1,0,0:0:0:25:Hi-hat-11.wav
256,192,208103,1,0,0:0:0:25:Hi-hat-11.wav
402,192,208195,1,0,0:0:0:25:Hi-hat-11.wav
182,192,208195,1,0,0:0:0:70:kick-6.wav
329,192,208286,1,0,0:0:0:25:Hi-hat-11.wav
256,192,208377,1,0,0:0:0:25:Hi-hat-11.wav
182,192,208469,1,0,0:0:0:25:Hi-hat-11.wav
109,192,208560,128,0,208743:0:0:0:0:
329,192,208560,1,0,0:0:0:25:Hi-hat-11.wav
36,192,208560,1,0,0:0:0:70:kick-6.wav
475,192,208652,1,0,0:0:0:25:Hi-hat-11.wav
256,192,208743,1,0,0:0:0:25:Hi-hat-11.wav
402,192,208835,1,0,0:0:0:25:Hi-hat-11.wav
109,192,208926,128,0,209109:0:0:0:0:
182,192,208926,1,0,0:0:0:25:Hi-hat-11.wav
36,192,208926,1,0,0:0:0:70:kick-6.wav
329,192,209018,1,0,0:0:0:25:Hi-hat-11.wav
36,192,209109,1,0,0:0:0:25:Hi-hat-11.wav
182,192,209201,1,0,0:0:0:25:Hi-hat-11.wav
36,192,209292,128,0,209658:0:0:0:0:
256,192,209292,1,0,0:0:0:25:Hi-hat-11.wav
475,192,209292,1,0,0:0:0:70:kick-6.wav
109,192,209384,1,0,0:0:0:25:Hi-hat-11.wav
329,192,209475,1,0,0:0:0:25:Hi-hat-11.wav
182,192,209566,1,0,0:0:0:25:Hi-hat-11.wav
402,192,209658,1,0,0:0:0:25:Hi-hat-11.wav
475,192,209658,1,0,0:0:0:70:kick-6.wav
256,192,209749,1,0,0:0:0:25:Hi-hat-11.wav
109,192,209841,128,0,210024:0:0:0:0:
475,192,209841,1,0,0:0:0:25:Hi-hat-11.wav
329,192,209932,1,0,0:0:0:25:Hi-hat-11.wav
402,192,210024,1,0,0:0:0:25:Hi-hat-11.wav
36,192,210024,1,0,0:0:0:70:kick-6.wav
475,192,210115,1,0,0:0:0:25:Hi-hat-11.wav
109,192,210207,128,0,210390:0:0:0:0:
329,192,210207,1,0,0:0:0:25:Hi-hat-11.wav
402,192,210298,1,0,0:0:0:25:Hi-hat-11.wav
256,192,210390,1,0,0:0:0:25:Hi-hat-11.wav
36,192,210390,1,0,0:0:0:70:kick-6.wav
329,192,210481,1,0,0:0:0:25:Hi-hat-11.wav
182,192,210573,128,0,210664:0:0:0:25:Hi-hat-11.wav
475,192,210573,1,0,0:0:0:25:Hi-hat-11.wav
402,192,210664,1,0,0:0:0:25:Hi-hat-11.wav
109,192,210755,128,0,211304:0:0:0:0:
329,192,210755,1,0,0:0:0:25:Hi-hat-11.wav
36,192,210755,1,0,0:0:0:70:kick-6.wav
256,192,210847,1,0,0:0:0:25:Hi-hat-11.wav
475,192,210938,1,0,0:0:0:25:Hi-hat-11.wav
329,192,211030,1,0,0:0:0:25:Hi-hat-11.wav
402,192,211121,1,0,0:0:0:25:Hi-hat-11.wav
36,192,211121,1,0,0:0:0:70:kick-6.wav
256,192,211213,1,0,0:0:0:25:Hi-hat-11.wav
329,192,211304,1,0,0:0:0:25:Hi-hat-11.wav
182,192,211396,1,0,0:0:0:25:Hi-hat-11.wav
36,192,211487,1,0,0:0:0:25:Hi-hat-11.wav
109,192,211487,128,0,211670:0:0:0:0:
475,192,211487,1,0,0:0:0:70:kick-6.wav
256,192,211579,1,0,0:0:0:25:Hi-hat-11.wav
182,192,211670,1,0,0:0:0:25:Hi-hat-11.wav
329,192,211762,1,0,0:0:0:25:Hi-hat-11.wav
109,192,211853,128,0,212036:0:0:0:0:
256,192,211853,1,0,0:0:0:25:Hi-hat-11.wav
475,192,211853,1,0,0:0:0:70:kick-6.wav
402,192,211945,1,0,0:0:0:25:Hi-hat-11.wav
329,192,212036,1,0,0:0:0:25:Hi-hat-11.wav
475,192,212127,1,0,0:0:0:25:Hi-hat-11.wav
36,192,212219,128,0,212585:0:0:0:0:
402,192,212219,1,0,0:0:0:25:Hi-hat-11.wav
109,192,212219,1,0,0:0:0:70:kick-6.wav
256,192,212310,1,0,0:0:0:25:Hi-hat-11.wav
329,192,212402,1,0,0:0:0:25:Hi-hat-11.wav
182,192,212493,1,0,0:0:0:25:Hi-hat-11.wav
256,192,212585,1,0,0:0:0:25:Hi-hat-11.wav
109,192,212585,1,0,0:0:0:70:kick-6.wav
475,192,212676,1,0,0:0:0:25:Hi-hat-11.wav
109,192,212768,128,0,212951:0:0:0:0:
402,192,212768,1,0,0:0:0:25:Hi-hat-11.wav
256,192,212859,1,0,0:0:0:25:Hi-hat-11.wav
182,192,212951,1,0,0:0:0:25:Hi-hat-11.wav
36,192,212951,1,0,0:0:0:70:kick-6.wav
402,192,213042,1,0,0:0:0:25:Hi-hat-11.wav
109,192,213134,128,0,213316:0:0:0:0:
256,192,213134,1,0,0:0:0:25:Hi-hat-11.wav
475,192,213225,1,0,0:0:0:25:Hi-hat-11.wav
329,192,213316,1,0,0:0:0:25:Hi-hat-11.wav
36,192,213316,1,0,0:0:0:70:kick-6.wav
475,192,213408,1,0,0:0:0:25:Hi-hat-11.wav
109,192,213499,128,0,213591:0:0:0:0:
256,192,213499,1,0,0:0:0:25:Hi-hat-11.wav
402,192,213591,1,0,0:0:0:25:Hi-hat-11.wav
36,192,213682,128,0,214231:0:0:0:0:
182,192,213682,1,0,0:0:0:25:Hi-hat-11.wav
475,192,213682,1,0,0:0:0:70:kick-6.wav
329,192,213774,1,0,0:0:0:25:Hi-hat-11.wav
109,192,213865,1,0,0:0:0:25:Hi-hat-11.wav
256,192,213957,1,0,0:0:0:25:Hi-hat-11.wav
402,192,214048,1,0,0:0:0:25:Hi-hat-11.wav
475,192,214048,1,0,0:0:0:70:kick-6.wav
182,192,214140,1,0,0:0:0:25:Hi-hat-11.wav
329,192,214231,1,0,0:0:0:25:Hi-hat-11.wav
109,192,214323,1,0,0:0:0:25:Hi-hat-11.wav
256,192,214414,128,0,214597:0:0:0:0:
475,192,214414,1,0,0:0:0:70:kick-6.wav
36,192,214414,1,0,0:0:0:70:snare-22.wav
256,192,214780,128,0,214963:0:0:0:0:
475,192,214780,1,0,0:0:0:70:kick-6.wav
36,192,214780,1,0,0:0:0:70:snare-22.wav
256,192,215146,128,0,215512:0:0:0:0:
475,192,215146,1,0,0:0:0:70:kick-6.wav
36,192,215146,1,0,0:0:0:70:snare-22.wav
182,192,215329,128,0,215512:0:0:0:70:kick-6.wav
109,192,215695,128,0,215877:0:0:0:0:
402,192,215695,1,0,0:0:0:70:snare-22.wav
256,192,215695,1,0,0:0:0:70:kick-6.wav
109,192,216060,128,0,216243:0:0:0:0:
402,192,216060,1,0,0:0:0:70:snare-22.wav
256,192,216060,1,0,0:0:0:70:kick-6.wav
109,192,216426,128,0,216518:0:0:0:0:
402,192,216426,1,0,0:0:0:70:snare-22.wav
256,192,216426,1,0,0:0:0:70:kick-6.wav
329,192,216609,128,0,220268:0:0:0:25:crashes-10.wav
182,192,216609,128,0,220268:0:0:0:25:crashes-10.wav
