osu file format v14

[General]
AudioFilename: Little Princess.mp3
AudioLeadIn: 0
PreviewTime: 170512
Countdown: 0
SampleSet: Soft
StackLeniency: 0.7
Mode: 3
LetterboxInBreaks: 0
SpecialStyle: 0
WidescreenStoryboard: 1

[Editor]
DistanceSpacing: 0.8
BeatDivisor: 4
GridSize: 8
TimelineZoom: 0.7

[Metadata]
Title:Kobito of the Shining Needle ~ Little Princess
TitleUnicode:輝く針の小人族 ~ Little Princess
Artist:ZUN
ArtistUnicode:ZUN
Creator:Nagato
Version:Easy
Source:Touhou
Tags:double dealing character Intensity Crystal
BeatmapID:363847
BeatmapSetID:146520

[Difficulty]
HPDrainRate:4
CircleSize:7
OverallDifficulty:7
ApproachRate:5
SliderMultiplier:1.4
SliderTickRate:1

[Events]
//Background and Video events
0,0,"38023798.jpg",0,0
//Break Periods
//Storyboard Layer 0 (Background)
//Storyboard Layer 1 (Fail)
//Storyboard Layer 2 (Pass)
//Storyboard Layer 3 (Foreground)
//Storyboard Layer 4 (Overlay)
//Storyboard Sound Samples

[TimingPoints]
756,365.853658536585,4,2,0,35,1,0

[HitObjects]
402,192,756,5,0,0:0:0:70:kick-6.wav
256,192,1487,1,0,0:0:0:70:kick-6.wav
256,192,1670,1,0,0:0:0:70:kick-6.wav
109,192,2219,1,0,0:0:0:70:kick-6.wav
109,192,2585,1,0,0:0:0:70:kick-6.wav
256,192,2951,1,0,0:0:0:70:kick-6.wav
256,192,3134,1,0,0:0:0:70:kick-6.wav
329,192,3682,1,0,0:0:0:70:kick-6.wav
256,192,4414,1,0,0:0:0:70:kick-6.wav
256,192,4597,1,0,0:0:0:70:kick-6.wav
182,192,5146,1,0,0:0:0:70:kick-6.wav
182,192,5512,1,0,0:0:0:70:kick-6.wav
256,192,5877,1,0,0:0:0:70:kick-6.wav
256,192,6060,1,0,0:0:0:70:kick-6.wav
109,192,6609,1,0,0:0:0:70:kick-6.wav
329,192,7341,1,0,0:0:0:70:kick-6.wav
329,192,7524,1,0,0:0:0:70:kick-6.wav
182,192,8073,1,0,0:0:0:70:kick-6.wav
182,192,8438,1,0,0:0:0:70:kick-6.wav
402,192,8804,1,0,0:0:0:70:kick-6.wav
402,192,8987,1,0,0:0:0:70:kick-6.wav
36,192,9536,1,0,0:0:0:70:kick-6.wav
182,192,10268,1,0,0:0:0:70:kick-6.wav
182,192,10451,1,0,0:0:0:70:kick-6.wav
475,192,10999,1,0,0:0:0:70:kick-6.wav
475,192,11365,1,0,0:0:0:70:kick-6.wav
256,192,11731,1,0,0:0:0:70:kick-6.wav
256,192,11914,1,0,0:0:0:70:kick-6.wav
36,192,12463,1,0,0:0:0:70:kick-6.wav
109,192,12829,1,0,0:0:0:70:kick-6.wav
182,192,13195,1,0,0:0:0:70:kick-6.wav
329,192,13560,1,0,0:0:0:70:kick-6.wav
402,192,13926,1,0,0:0:0:70:kick-6.wav
329,192,14292,1,0,0:0:0:70:kick-6.wav
182,192,14658,1,0,0:0:0:70:kick-6.wav
109,192,15024,1,0,0:0:0:70:kick-6.wav
475,192,15390,1,0,0:0:0:70:kick-6.wav
256,192,15755,1,0,0:0:0:70:kick-6.wav
36,192,16121,1,0,0:0:0:70:kick-6.wav
256,192,16487,1,0,0:0:0:70:kick-6.wav
475,192,16853,1,0,0:0:0:70:kick-6.wav
256,192,17219,1,0,0:0:0:70:kick-6.wav
36,192,17585,1,0,0:0:0:70:kick-6.wav
256,192,17951,1,0,0:0:0:70:kick-6.wav
402,192,18316,1,0,0:0:0:70:kick-6.wav
329,192,18682,1,0,0:0:0:70:kick-6.wav
109,192,19048,1,0,0:0:0:70:kick-6.wav
182,192,19414,1,0,0:0:0:70:kick-6.wav
402,192,19780,1,0,0:0:0:70:kick-6.wav
329,192,20146,1,0,0:0:0:70:kick-6.wav
109,192,20512,1,0,0:0:0:70:kick-6.wav
182,192,20877,1,0,0:0:0:0:
36,192,21243,1,0,0:0:0:0:
182,192,21609,1,0,0:0:0:0:
475,192,21975,1,0,0:0:0:0:
329,192,22341,1,0,0:0:0:0:
36,192,22707,1,0,0:0:0:0:
182,192,23073,1,0,0:0:0:0:
475,192,23438,1,0,0:0:0:0:
329,192,23804,1,0,0:0:0:0:
109,192,24170,128,0,24536:0:0:0:70:kick-6.wav
256,192,24536,1,0,0:0:0:0:
329,192,24902,128,0,25268:0:0:0:70:kick-6.wav
475,192,25268,1,0,0:0:0:0:
36,192,25634,128,0,25999:0:0:0:70:kick-6.wav
182,192,25999,1,0,0:0:0:0:
329,192,26365,128,0,26731:0:0:0:70:kick-6.wav
475,192,26731,1,0,0:0:0:0:
182,192,27097,128,0,27463:0:0:0:70:kick-6.wav
36,192,27463,1,0,0:0:0:0:
475,192,27829,128,0,28195:0:0:0:70:kick-6.wav
329,192,28195,1,0,0:0:0:0:
182,192,28560,128,0,28926:0:0:0:70:kick-6.wav
36,192,28926,1,0,0:0:0:0:
475,192,29292,128,0,29658:0:0:0:70:kick-6.wav
329,192,29658,1,0,0:0:0:0:
402,192,30024,128,0,30390:0:0:0:70:kick-6.wav
256,192,30390,1,0,0:0:0:0:
109,192,30755,128,0,31121:0:0:0:70:kick-6.wav
256,192,31121,1,0,0:0:0:0:
402,192,31487,128,0,31853:0:0:0:70:kick-6.wav
256,192,31853,1,0,0:0:0:0:
109,192,32219,128,0,32585:0:0:0:70:kick-6.wav
256,192,32585,1,0,0:0:0:0:
329,192,32951,128,0,33316:0:0:0:70:kick-6.wav
182,192,33316,1,0,0:0:0:0:
109,192,33682,128,0,34048:0:0:0:70:kick-6.wav
256,192,34048,1,0,0:0:0:0:
402,192,34414,128,0,34780:0:0:0:70:kick-6.wav
256,192,34780,1,0,0:0:0:0:
36,192,35146,128,0,35512:0:0:0:70:kick-6.wav
182,192,35512,1,0,0:0:0:0:
256,192,35877,1,0,0:0:0:70:kick-6.wav
329,192,36609,1,0,0:0:0:70:kick-6.wav
329,192,36792,1,0,0:0:0:70:kick-6.wav
256,192,37341,1,0,0:0:0:70:kick-6.wav
256,192,37707,1,0,0:0:0:70:kick-6.wav
182,192,38073,1,0,0:0:0:70:kick-6.wav
182,192,38255,1,0,0:0:0:70:kick-6.wav
402,192,38804,1,0,0:0:0:70:kick-6.wav
182,192,39536,1,0,0:0:0:70:kick-6.wav
182,192,39719,1,0,0:0:0:70:kick-6.wav
402,192,40268,1,0,0:0:0:70:kick-6.wav
402,192,40634,1,0,0:0:0:70:kick-6.wav
109,192,40999,1,0,0:0:0:70:kick-6.wav
109,192,41182,1,0,0:0:0:70:kick-6.wav
402,192,41731,1,0,0:0:0:35:kick-6.wav
329,192,42463,128,0,43195:0:0:0:35:kick-6.wav
256,192,43560,1,0,0:0:0:35:kick-6.wav
329,192,43926,1,0,0:0:0:35:kick-6.wav
402,192,44292,1,0,0:0:0:35:kick-6.wav
475,192,44658,1,0,0:0:0:35:kick-6.wav
402,192,45390,128,0,46121:0:0:0:35:kick-6.wav
182,192,46487,1,0,0:0:0:35:kick-6.wav
256,192,46853,1,0,0:0:0:35:kick-6.wav
329,192,47219,1,0,0:0:0:35:kick-6.wav
256,192,47585,128,0,48316:0:0:0:35:kick-6.wav
182,192,48682,1,0,0:0:0:35:
109,192,49048,1,0,0:0:0:35:
182,192,49414,1,0,0:0:0:35:
109,192,49597,1,0,0:0:0:35:
36,192,49963,1,0,0:0:0:35:
182,192,50329,128,0,51975:0:0:0:35:
256,192,51975,128,0,53438:0:0:0:35:
402,192,53438,1,0,0:0:0:0:
329,192,54170,128,0,54902:0:0:0:0:
109,192,55268,1,0,0:0:0:0:
182,192,55634,1,0,0:0:0:0:
256,192,55999,1,0,0:0:0:0:
329,192,56365,1,0,0:0:0:0:
256,192,57097,128,0,57829:0:0:0:0:
36,192,58195,1,0,0:0:0:0:
109,192,58560,1,0,0:0:0:0:
182,192,58926,1,0,0:0:0:0:
109,192,59292,128,0,60024:0:0:0:0:
402,192,60390,1,0,0:0:0:0:
256,192,60755,1,0,0:0:0:0:
329,192,61121,1,0,0:0:0:0:
182,192,61304,1,0,0:0:0:0:
109,192,61670,1,0,0:0:0:0:
182,192,62036,128,0,63682:0:0:0:0:
256,192,63682,128,0,65146:0:0:0:0:
402,192,65146,128,0,66609:0:0:0:0:
256,192,66609,128,0,67341:0:0:0:0:
36,192,67341,1,0,0:0:0:0:
109,192,67707,1,0,0:0:0:0:
182,192,68073,128,0,70268:0:0:0:0:
475,192,70451,1,0,0:0:0:0:
402,192,70634,1,0,0:0:0:0:
329,192,70816,1,0,0:0:0:0:
256,192,70999,128,0,71548:0:0:0:0:
109,192,71731,1,0,0:0:0:0:
402,192,71914,1,0,0:0:0:0:
475,192,72280,128,0,72829:0:0:0:0:
329,192,72829,1,0,0:0:0:0:
256,192,73012,1,0,0:0:0:0:
182,192,73195,1,0,0:0:0:0:
109,192,73377,1,0,0:0:0:0:
36,192,73560,1,0,0:0:0:0:
182,192,73926,128,0,75390:0:0:0:0:
36,192,75390,128,0,76853:0:0:0:0:
329,192,76853,1,0,0:0:0:70:kick-6.wav
182,192,77585,1,0,0:0:0:70:kick-6.wav
182,192,77768,1,0,0:0:0:70:kick-6.wav
329,192,78316,1,0,0:0:0:70:kick-6.wav
329,192,78682,1,0,0:0:0:70:kick-6.wav
182,192,79048,1,0,0:0:0:70:kick-6.wav
182,192,79231,1,0,0:0:0:70:kick-6.wav
402,192,79780,1,0,0:0:0:70:kick-6.wav
109,192,80512,1,0,0:0:0:70:kick-6.wav
109,192,80695,1,0,0:0:0:70:kick-6.wav
402,192,81243,1,0,0:0:0:70:kick-6.wav
402,192,81609,1,0,0:0:0:70:kick-6.wav
109,192,81975,1,0,0:0:0:70:kick-6.wav
109,192,82158,1,0,0:0:0:70:kick-6.wav
475,192,82707,1,0,0:0:0:70:kick-6.wav
36,192,83438,1,0,0:0:0:70:kick-6.wav
36,192,83621,1,0,0:0:0:70:kick-6.wav
475,192,84170,1,0,0:0:0:70:kick-6.wav
475,192,84536,1,0,0:0:0:70:kick-6.wav
36,192,84902,1,0,0:0:0:70:kick-6.wav
36,192,85085,1,0,0:0:0:70:kick-6.wav
109,192,85634,1,0,0:0:0:70:kick-6.wav
402,192,86365,1,0,0:0:0:70:kick-6.wav
402,192,86548,1,0,0:0:0:70:kick-6.wav
109,192,86914,1,0,0:0:0:70:kick-6.wav
109,192,87463,1,0,0:0:0:70:kick-6.wav
329,192,87829,1,0,0:0:0:70:kick-6.wav
182,192,88012,1,0,0:0:0:70:kick-6.wav
329,192,88195,1,0,0:0:0:70:kick-6.wav
475,192,88560,128,0,91487:0:0:0:0:
329,192,91487,128,0,94414:0:0:0:0:
182,192,94414,128,0,97341:0:0:0:0:
36,192,97341,128,0,100268:0:0:0:0:
109,192,100268,5,0,0:0:0:45:Hi-hat-2.wav
109,192,100634,1,0,0:0:0:45:Hi-hat-2.wav
402,192,100999,128,0,101365:0:0:0:0:
109,192,101548,1,0,0:0:0:45:Hi-hat-2.wav
109,192,101914,1,0,0:0:0:45:Hi-hat-2.wav
109,192,102280,1,0,0:0:0:45:Hi-hat-2.wav
402,192,102463,128,0,103012:0:0:0:0:
182,192,103195,1,0,0:0:0:45:Hi-hat-2.wav
182,192,103560,1,0,0:0:0:45:Hi-hat-2.wav
329,192,103926,128,0,104292:0:0:0:0:
182,192,104475,1,0,0:0:0:45:Hi-hat-2.wav
182,192,104841,1,0,0:0:0:45:Hi-hat-2.wav
182,192,105207,1,0,0:0:0:45:Hi-hat-2.wav
329,192,105390,128,0,105938:0:0:0:0:
36,192,106121,1,0,0:0:0:45:Hi-hat-2.wav
36,192,106487,1,0,0:0:0:45:Hi-hat-2.wav
475,192,106853,128,0,107219:0:0:0:0:
36,192,107402,1,0,0:0:0:45:Hi-hat-2.wav
36,192,107768,1,0,0:0:0:45:Hi-hat-2.wav
36,192,108134,1,0,0:0:0:45:Hi-hat-2.wav
329,192,108316,128,0,108865:0:0:0:0:
109,192,109048,1,0,0:0:0:45:Hi-hat-2.wav
109,192,109414,1,0,0:0:0:45:Hi-hat-2.wav
402,192,109780,128,0,110146:0:0:0:0:
109,192,110329,1,0,0:0:0:45:Hi-hat-2.wav
109,192,110695,1,0,0:0:0:45:Hi-hat-2.wav
109,192,111060,1,0,0:0:0:45:Hi-hat-2.wav
256,192,111243,128,0,111975:0:0:0:0:
402,192,111975,1,0,0:0:0:45:Hi-hat-2.wav
402,192,112341,1,0,0:0:0:45:Hi-hat-2.wav
109,192,112707,128,0,113073:0:0:0:0:
402,192,113255,1,0,0:0:0:45:Hi-hat-2.wav
402,192,113621,1,0,0:0:0:45:Hi-hat-2.wav
402,192,113987,1,0,0:0:0:45:Hi-hat-2.wav
109,192,114170,128,0,114719:0:0:0:0:
475,192,114902,1,0,0:0:0:45:Hi-hat-2.wav
475,192,115268,1,0,0:0:0:45:Hi-hat-2.wav
36,192,115634,128,0,115999:0:0:0:0:
475,192,116182,1,0,0:0:0:45:Hi-hat-2.wav
475,192,116548,1,0,0:0:0:45:Hi-hat-2.wav
475,192,116914,1,0,0:0:0:45:Hi-hat-2.wav
36,192,117097,128,0,117646:0:0:0:0:
329,192,117829,1,0,0:0:0:45:Hi-hat-2.wav
329,192,118195,1,0,0:0:0:45:Hi-hat-2.wav
182,192,118560,128,0,118926:0:0:0:0:
329,192,119109,1,0,0:0:0:45:Hi-hat-2.wav
329,192,119475,1,0,0:0:0:45:Hi-hat-2.wav
329,192,119841,1,0,0:0:0:45:Hi-hat-2.wav
182,192,120024,128,0,120573:0:0:0:0:
402,192,120755,1,0,0:0:0:45:Hi-hat-2.wav
402,192,121121,1,0,0:0:0:45:Hi-hat-2.wav
109,192,121487,1,0,0:0:0:45:Hi-hat-2.wav
402,192,121670,1,0,0:0:0:45:Hi-hat-2.wav
109,192,122036,1,0,0:0:0:45:Hi-hat-2.wav
109,192,122402,1,0,0:0:0:45:Hi-hat-2.wav
402,192,122768,1,0,0:0:0:45:Hi-hat-2.wav
256,192,122951,128,0,123682:0:0:0:0:
475,192,123682,5,0,0:0:0:45:Hi-hat-2.wav
36,192,123682,1,0,0:0:0:70:kick-6.wav
402,192,124048,1,0,0:0:0:45:Hi-hat-2.wav
329,192,124414,1,0,0:0:0:45:Hi-hat-2.wav
256,192,124780,1,0,0:0:0:45:Hi-hat-2.wav
402,192,125146,1,0,0:0:0:45:Hi-hat-2.wav
36,192,125146,1,0,0:0:0:70:kick-6.wav
329,192,125512,1,0,0:0:0:45:Hi-hat-2.wav
256,192,125877,1,0,0:0:0:45:Hi-hat-2.wav
182,192,126243,1,0,0:0:0:45:Hi-hat-2.wav
475,192,126609,1,0,0:0:0:45:Hi-hat-2.wav
36,192,126609,1,0,0:0:0:70:kick-6.wav
402,192,126975,1,0,0:0:0:45:Hi-hat-2.wav
329,192,127341,1,0,0:0:0:45:Hi-hat-2.wav
256,192,127707,1,0,0:0:0:45:Hi-hat-2.wav
402,192,128073,1,0,0:0:0:45:Hi-hat-2.wav
36,192,128073,1,0,0:0:0:70:kick-6.wav
329,192,128438,1,0,0:0:0:45:Hi-hat-2.wav
256,192,128804,1,0,0:0:0:45:Hi-hat-2.wav
182,192,129170,1,0,0:0:0:45:Hi-hat-2.wav
36,192,129536,1,0,0:0:0:45:Hi-hat-2.wav
475,192,129536,1,0,0:0:0:70:kick-6.wav
109,192,129902,1,0,0:0:0:45:Hi-hat-2.wav
182,192,130268,1,0,0:0:0:45:Hi-hat-2.wav
256,192,130634,1,0,0:0:0:45:Hi-hat-2.wav
109,192,130999,1,0,0:0:0:45:Hi-hat-2.wav
475,192,130999,1,0,0:0:0:70:kick-6.wav
182,192,131365,1,0,0:0:0:45:Hi-hat-2.wav
256,192,131731,1,0,0:0:0:45:Hi-hat-2.wav
329,192,132097,1,0,0:0:0:45:Hi-hat-2.wav
36,192,132463,1,0,0:0:0:45:Hi-hat-2.wav
475,192,132463,1,0,0:0:0:70:kick-6.wav
109,192,132829,1,0,0:0:0:45:Hi-hat-2.wav
182,192,133195,1,0,0:0:0:45:Hi-hat-2.wav
256,192,133560,1,0,0:0:0:45:Hi-hat-2.wav
475,192,133926,1,0,0:0:0:70:kick-6.wav
109,192,133926,1,0,0:0:0:45:Hi-hat-2.wav
182,192,134292,1,0,0:0:0:45:Hi-hat-2.wav
256,192,134658,1,0,0:0:0:45:Hi-hat-2.wav
329,192,135024,1,0,0:0:0:45:Hi-hat-2.wav
475,192,135390,1,0,0:0:0:70:snare-22.wav
36,192,135390,1,0,0:0:0:70:kick-6.wav
182,192,136121,1,0,0:0:0:70:kick-6.wav
182,192,136304,1,0,0:0:0:70:kick-6.wav
36,192,136853,1,0,0:0:0:70:kick-6.wav
36,192,137219,1,0,0:0:0:70:kick-6.wav
182,192,137585,1,0,0:0:0:70:kick-6.wav
182,192,137768,1,0,0:0:0:70:kick-6.wav
109,192,138316,1,0,0:0:0:70:kick-6.wav
475,192,138316,1,0,0:0:0:70:snare-22.wav
256,192,139048,1,0,0:0:0:70:kick-6.wav
256,192,139231,1,0,0:0:0:70:kick-6.wav
109,192,139780,1,0,0:0:0:70:kick-6.wav
109,192,140146,1,0,0:0:0:70:kick-6.wav
256,192,140512,1,0,0:0:0:70:kick-6.wav
256,192,140695,1,0,0:0:0:70:kick-6.wav
256,192,141243,1,0,0:0:0:70:kick-6.wav
475,192,141243,1,0,0:0:0:70:snare-22.wav
402,192,141975,1,0,0:0:0:70:kick-6.wav
402,192,142158,1,0,0:0:0:70:kick-6.wav
256,192,142707,1,0,0:0:0:70:kick-6.wav
256,192,143073,1,0,0:0:0:70:kick-6.wav
402,192,143438,1,0,0:0:0:70:kick-6.wav
402,192,143621,1,0,0:0:0:70:kick-6.wav
329,192,144170,1,0,0:0:0:70:kick-6.wav
475,192,144170,1,0,0:0:0:70:snare-22.wav
475,192,144902,1,0,0:0:0:70:kick-6.wav
475,192,145085,1,0,0:0:0:70:kick-6.wav
329,192,145451,1,0,0:0:0:70:kick-6.wav
329,192,145999,1,0,0:0:0:70:kick-6.wav
182,192,146365,1,0,0:0:0:70:kick-6.wav
329,192,146548,1,0,0:0:0:70:kick-6.wav
182,192,146731,1,0,0:0:0:70:kick-6.wav
402,192,147097,1,0,0:0:0:0:
329,192,147829,128,0,148560:0:0:0:0:
256,192,148926,1,0,0:0:0:0:
329,192,149292,1,0,0:0:0:0:
402,192,149658,1,0,0:0:0:0:
475,192,150024,1,0,0:0:0:0:
402,192,150755,128,0,151487:0:0:0:0:
182,192,151853,1,0,0:0:0:0:
256,192,152219,1,0,0:0:0:0:
329,192,152585,1,0,0:0:0:0:
256,192,152951,128,0,153682:0:0:0:0:
182,192,154048,1,0,0:0:0:0:
109,192,154414,1,0,0:0:0:0:
182,192,154780,1,0,0:0:0:0:
109,192,154963,1,0,0:0:0:0:
36,192,155329,1,0,0:0:0:0:
182,192,155695,128,0,157341:0:0:0:0:
256,192,157341,128,0,158804:0:0:0:0:
402,192,158804,1,0,0:0:0:0:
329,192,159536,128,0,160268:0:0:0:0:
109,192,160634,1,0,0:0:0:0:
182,192,160999,1,0,0:0:0:0:
256,192,161365,1,0,0:0:0:0:
329,192,161731,1,0,0:0:0:0:
256,192,162463,128,0,163195:0:0:0:0:
36,192,163560,1,0,0:0:0:0:
109,192,163926,1,0,0:0:0:0:
182,192,164292,1,0,0:0:0:0:
109,192,164658,128,0,165390:0:0:0:0:
402,192,165755,1,0,0:0:0:0:
256,192,166121,1,0,0:0:0:0:
329,192,166487,1,0,0:0:0:0:
182,192,166670,1,0,0:0:0:0:
109,192,167036,1,0,0:0:0:0:
182,192,167402,128,0,169048:0:0:0:0:
256,192,169048,128,0,170512:0:0:0:0:
475,192,170512,1,0,0:0:0:0:
36,192,170512,1,0,0:0:0:70:kick-6.wav
402,192,171243,128,0,171975:0:0:0:0:
109,192,171243,1,0,0:0:0:70:snare-22.wav
36,192,171975,1,0,0:0:0:70:kick-6.wav
329,192,172341,1,0,0:0:0:0:
402,192,172707,1,0,0:0:0:0:
109,192,172707,1,0,0:0:0:70:snare-22.wav
475,192,173073,1,0,0:0:0:0:
402,192,173438,1,0,0:0:0:0:
36,192,173438,1,0,0:0:0:70:kick-6.wav
329,192,174170,128,0,174902:0:0:0:0:
109,192,174170,1,0,0:0:0:70:snare-22.wav
36,192,174902,1,0,0:0:0:70:kick-6.wav
256,192,175268,1,0,0:0:0:0:
329,192,175634,1,0,0:0:0:0:
109,192,175634,1,0,0:0:0:70:snare-22.wav
402,192,175999,1,0,0:0:0:0:
475,192,176365,128,0,177463:0:0:0:0:
182,192,176365,1,0,0:0:0:70:kick-6.wav
109,192,177097,1,0,0:0:0:70:snare-22.wav
402,192,177463,1,0,0:0:0:0:
329,192,177829,1,0,0:0:0:0:
36,192,177829,1,0,0:0:0:70:kick-6.wav
402,192,178195,1,0,0:0:0:0:
256,192,178377,1,0,0:0:0:0:
182,192,178743,1,0,0:0:0:0:
109,192,179109,128,0,180755:0:0:0:0:
402,192,179109,128,0,180755:0:0:0:0:
256,192,180755,128,0,182219:0:0:0:0:
36,192,182219,1,0,0:0:0:0:
475,192,182219,1,0,0:0:0:70:kick-6.wav
109,192,182951,128,0,183682:0:0:0:0:
402,192,182951,1,0,0:0:0:70:snare-22.wav
475,192,183682,1,0,0:0:0:70:kick-6.wav
36,192,184048,1,0,0:0:0:0:
109,192,184414,1,0,0:0:0:0:
402,192,184414,1,0,0:0:0:70:snare-22.wav
182,192,184780,1,0,0:0:0:0:
256,192,185146,1,0,0:0:0:0:
475,192,185146,1,0,0:0:0:70:kick-6.wav
182,192,185877,128,0,186609:0:0:0:0:
402,192,185877,1,0,0:0:0:70:snare-22.wav
475,192,186609,1,0,0:0:0:70:kick-6.wav
109,192,186975,1,0,0:0:0:0:
182,192,187341,1,0,0:0:0:0:
402,192,187341,1,0,0:0:0:70:snare-22.wav
256,192,187707,1,0,0:0:0:0:
182,192,188073,128,0,189170:0:0:0:0:
475,192,188073,1,0,0:0:0:70:kick-6.wav
36,192,188073,128,0,189170:0:0:0:0:
402,192,189170,1,0,0:0:0:0:
329,192,189536,1,0,0:0:0:0:
402,192,189902,1,0,0:0:0:0:
256,192,190085,1,0,0:0:0:0:
182,192,190451,1,0,0:0:0:0:
256,192,190816,128,0,193926:0:0:0:0:
402,192,192463,128,0,193926:0:0:0:0:
109,192,193926,1,0,0:0:0:70:kick-6.wav
109,192,194292,1,0,0:0:0:70:kick-6.wav
402,192,194658,128,0,195024:0:0:0:70:snare-22.wav
109,192,195207,1,0,0:0:0:70:kick-6.wav
256,192,195573,1,0,0:0:0:70:kick-6.wav
402,192,195938,1,0,0:0:0:70:kick-6.wav
256,192,196121,128,0,196670:0:0:0:70:snare-22.wav
402,192,196853,1,0,0:0:0:70:kick-6.wav
402,192,197219,1,0,0:0:0:70:kick-6.wav
109,192,197585,128,0,197951:0:0:0:70:snare-22.wav
402,192,198134,1,0,0:0:0:70:kick-6.wav
256,192,198499,1,0,0:0:0:70:kick-6.wav
109,192,198865,1,0,0:0:0:70:kick-6.wav
256,192,199048,128,0,199597:0:0:0:70:snare-22.wav
475,192,199780,1,0,0:0:0:70:kick-6.wav
475,192,200146,1,0,0:0:0:70:kick-6.wav
256,192,200512,128,0,200877:0:0:0:70:snare-22.wav
36,192,201060,1,0,0:0:0:70:kick-6.wav
182,192,201426,1,0,0:0:0:70:kick-6.wav
329,192,201792,1,0,0:0:0:70:kick-6.wav
475,192,201975,128,0,202524:0:0:0:70:snare-22.wav
36,192,202707,1,0,0:0:0:70:kick-6.wav
36,192,203073,1,0,0:0:0:70:kick-6.wav
182,192,203438,1,0,0:0:0:70:kick-6.wav
256,192,203621,1,0,0:0:0:70:snare-22.wav
256,192,203987,1,0,0:0:0:70:snare-22.wav
256,192,204353,1,0,0:0:0:70:snare-22.wav
329,192,204719,1,0,0:0:0:70:kick-6.wav
475,192,204902,128,0,205634:0:0:0:70:snare-22.wav
329,192,205634,1,0,0:0:0:70:kick-6.wav
329,192,205999,1,0,0:0:0:70:kick-6.wav
109,192,206365,128,0,206731:0:0:0:70:snare-22.wav
402,192,206914,1,0,0:0:0:70:kick-6.wav
402,192,207280,1,0,0:0:0:70:kick-6.wav
402,192,207646,1,0,0:0:0:70:kick-6.wav
182,192,207829,128,0,208377:0:0:0:70:snare-22.wav
36,192,208560,1,0,0:0:0:70:kick-6.wav
36,192,208926,1,0,0:0:0:70:kick-6.wav
256,192,209292,128,0,209658:0:0:0:70:snare-22.wav
475,192,209841,1,0,0:0:0:70:kick-6.wav
475,192,210207,1,0,0:0:0:70:kick-6.wav
475,192,210573,1,0,0:0:0:70:kick-6.wav
256,192,210755,128,0,211304:0:0:0:70:snare-22.wav
109,192,211487,1,0,0:0:0:70:kick-6.wav
109,192,211853,1,0,0:0:0:70:kick-6.wav
402,192,212219,128,0,212585:0:0:0:70:snare-22.wav
256,192,212768,1,0,0:0:0:70:kick-6.wav
256,192,213134,1,0,0:0:0:70:kick-6.wav
256,192,213499,1,0,0:0:0:70:kick-6.wav
109,192,213682,128,0,214231:0:0:0:70:snare-22.wav
36,192,214414,1,0,0:0:0:70:kick-6.wav
475,192,214414,1,0,0:0:0:70:snare-22.wav
36,192,214780,1,0,0:0:0:70:kick-6.wav
475,192,214780,1,0,0:0:0:70:snare-22.wav
109,192,215146,128,0,215512:0:0:0:70:kick-6.wav
402,192,215146,128,0,215512:0:0:0:70:snare-22.wav
182,192,215695,1,0,0:0:0:70:kick-6.wav
329,192,215695,1,0,0:0:0:70:snare-22.wav
182,192,216060,1,0,0:0:0:70:kick-6.wav
329,192,216060,1,0,0:0:0:70:snare-22.wav
182,192,216426,1,0,0:0:0:70:kick-6.wav
329,192,216426,1,0,0:0:0:70:snare-22.wav
256,192,216609,128,0,220268:0:0:0:35:crashes-10.wav
