osu file format v14

[General]
AudioFilename: Minoriko's Theme - Because Princess Inada Is Scolding Me.mp3
AudioLeadIn: 0
PreviewTime: 44369
Countdown: 0
SampleSet: Soft
StackLeniency: 0.5
Mode: 0
LetterboxInBreaks: 0
WidescreenStoryboard: 0

[Editor]
DistanceSpacing: 0.8
BeatDivisor: 4
GridSize: 16
TimelineZoom: 1.7

[Metadata]
Title:Inada Himesama ni Shikarareru kara
TitleUnicode:稲田姫様に叱られるから
Artist:ZUN
ArtistUnicode:ZUN
Creator:- Rabbit -
Version:Normal
Source:東方Project
Tags:TH10 Aki Minoriko Aki Sizuha touhou fuujinroku 東方風神録 ~ Mountain of Faith
BeatmapID:861231
BeatmapSetID:392633

[Difficulty]
HPDrainRate:3
CircleSize:3
OverallDifficulty:3
ApproachRate:5
SliderMultiplier:1.2
SliderTickRate:1

[Events]
//Background and Video events
0,0,"66d8ded337507297fd7f66071826455f.jpg",0,0
//Break Periods
//Storyboard Layer 0 (Background)
//Storyboard Layer 1 (Fail)
//Storyboard Layer 2 (Pass)
//Storyboard Layer 3 (Foreground)
//Storyboard Sound Samples

[TimingPoints]
1130,372.740262160651,4,2,0,40,1,0
24239,-100,4,2,1,50,0,1
35422,-100,4,2,1,50,0,0
67477,-100,4,2,1,50,0,1
78659,-100,4,2,1,50,0,0

[Colours]
Combo1 : 255,128,255
Combo2 : 63,255,223
Combo3 : 95,255,191
Combo4 : 255,0,0
Combo5 : 255,255,0

[HitObjects]
356,126,1130,6,2,P|399:77|433:65,2,60
352,223,1875,2,2,L|436:181,2,60
265,264,2620,1,2,0:0:0:0:
179,307,2993,1,2,0:0:0:0:
91,345,3366,6,2,P|126:377|168:380,2,60
38,264,4111,2,2,L|-34:353,2,60
108,197,4857,2,2,B|140:209|183:191,2,60
21,155,5602,1,2,0:0:0:0:
99,99,5975,1,2,0:0:0:0:
188,65,6348,6,2,B|237:84|237:84|267:156,1,120
279,240,7093,2,2,P|308:272|415:300,1,120
464,272,7839,2,2,P|435:240|328:212,1,120
279,240,8584,1,2,0:0:0:0:
188,272,8957,1,2,0:0:0:0:
94,293,9330,6,2,B|112:213|112:213|155:192,1,120
234,160,10075,2,2,P|316:126|329:82,1,120
355,10,10821,2,2,P|408:35|444:82,1,120
439,178,11566,1,2,0:0:0:0:
406,268,11939,1,2,0:0:0:0:
333,331,12312,1,2,0:0:0:0:
322,235,12684,5,2,0:0:0:0:
322,235,13057,2,2,B|248:233|193:278,1,120
132,325,13803,1,2,0:0:0:0:
115,230,14175,1,2,0:0:0:0:
163,147,14548,1,2,0:0:0:0:
120,60,14921,2,2,B|194:70|260:50,1,120
333,36,15666,5,2,0:0:0:0:
429,37,16039,2,2,B|410:103|348:128,1,120
262,155,16785,6,2,B|291:220|291:220|345:236,1,120
431,252,17530,2,2,P|350:352|235:326,1,240
171,284,18648,5,2,0:0:0:0:
97,222,19021,2,2,B|119:164|213:154,1,120
286,141,19767,1,2,0:0:0:0:
380,127,20139,1,2,0:0:0:0:
475,115,20512,1,2,0:0:0:0:
475,115,20885,2,2,P|450:184|390:211,1,120
317,219,21630,5,2,0:0:0:0:
317,219,22003,2,2,B|292:296|292:296|237:320,1,120
163,336,22748,1,2,0:0:0:0:
110,255,23121,1,2,0:0:0:0:
64,170,23494,2,2,P|183:133|218:236,1,240
133,252,24612,5,2,0:0:0:0:
50,300,24985,2,2,B|86:369|170:345,1,120
244,332,25730,1,2,0:0:0:0:
339,306,26103,1,2,0:0:0:0:
431,278,26476,1,2,0:0:0:0:
431,278,26849,2,2,B|423:215|348:203,1,120
257,233,27594,5,2,0:0:0:0:
257,233,27967,2,2,B|134:181,1,120
65,134,28712,1,2,0:0:0:0:
153,97,29085,1,2,0:0:0:0:
244,66,29458,2,0,P|338:81|348:215,1,240
288,277,30576,5,2,0:0:0:0:
202,321,30949,2,2,B|159:330|159:330|91:293,1,120
27,222,31694,1,2,0:0:0:0:
36,126,32067,1,2,0:0:0:0:
95,43,32440,1,2,0:0:0:0:
95,43,32813,2,2,B|175:46|199:120,1,120
235,187,33558,5,2,0:0:0:0:
282,270,33931,2,2,B|355:307|355:307|418:286,1,120
474,247,34676,1,2,0:0:0:0:
480,151,35049,1,2,0:0:0:0:
485,56,35422,5,2,0:0:0:0:
485,56,35794,1,2,0:0:0:0:
485,56,36167,1,2,0:0:0:0:
404,108,36540,5,2,0:0:0:0:
404,108,36913,1,2,0:0:0:0:
404,108,37285,1,2,0:0:0:0:
317,150,37658,5,2,0:0:0:0:
317,150,38031,1,2,0:0:0:0:
317,150,38404,1,2,0:0:0:0:
231,192,38776,2,0,P|246:300|375:311,1,240
448,283,39894,5,2,0:0:0:0:
448,283,40267,1,2,0:0:0:0:
448,283,40640,1,2,0:0:0:0:
375,219,41013,5,2,0:0:0:0:
375,219,41385,1,2,0:0:0:0:
375,219,41758,1,2,0:0:0:0:
311,146,42131,5,2,0:0:0:0:
311,146,42504,1,2,0:0:0:0:
311,146,42876,1,0,0:0:0:0:
256,48,43249,2,0,P|384:80|416:176,1,240
356,258,44367,6,2,P|399:307|433:319,2,60
352,161,45112,2,2,L|436:203,2,60
265,120,45857,1,2,0:0:0:0:
179,77,46230,1,2,0:0:0:0:
91,39,46603,6,2,P|126:7|168:4,2,60
38,120,47348,2,2,L|-34:31,2,60
108,187,48094,2,2,B|140:175|183:193,2,60
21,229,48839,1,2,0:0:0:0:
99,285,49212,1,2,0:0:0:0:
188,319,49585,6,2,B|237:300|237:300|267:228,1,120
279,144,50330,2,2,P|308:112|415:84,1,120
464,112,51076,2,2,P|435:144|328:172,1,120
279,144,51821,1,2,0:0:0:0:
188,112,52194,1,2,0:0:0:0:
94,91,52567,6,2,B|112:171|112:171|155:192,1,120
234,224,53312,2,2,P|316:258|329:302,1,120
355,374,54058,2,2,P|408:349|444:302,1,120
439,206,54803,1,2,0:0:0:0:
406,116,55176,1,2,0:0:0:0:
333,53,55549,1,2,0:0:0:0:
322,149,55921,5,2,0:0:0:0:
322,149,56294,2,2,B|248:151|193:106,1,120
132,59,57040,1,2,0:0:0:0:
115,154,57412,1,2,0:0:0:0:
163,237,57785,1,2,0:0:0:0:
120,324,58158,2,2,B|194:314|260:334,1,120
333,348,58903,5,2,0:0:0:0:
429,347,59276,2,2,B|410:281|348:256,1,120
262,229,60022,6,2,B|291:164|291:164|345:148,1,120
431,132,60767,2,2,P|350:32|235:58,1,240
171,100,61885,5,2,0:0:0:0:
97,162,62258,2,2,B|119:220|213:230,1,120
286,243,63004,1,2,0:0:0:0:
380,257,63376,1,2,0:0:0:0:
475,269,63749,1,2,0:0:0:0:
475,269,64122,2,2,P|450:200|390:173,1,120
317,165,64867,5,2,0:0:0:0:
317,165,65240,2,2,B|292:88|292:88|237:64,1,120
163,48,65985,1,2,0:0:0:0:
110,129,66358,1,2,0:0:0:0:
64,214,66731,2,2,P|183:251|218:148,1,240
133,132,67849,5,2,0:0:0:0:
50,84,68222,2,2,B|86:15|170:39,1,120
244,52,68967,1,2,0:0:0:0:
339,78,69340,1,2,0:0:0:0:
431,106,69713,1,2,0:0:0:0:
431,106,70086,2,2,B|423:169|348:181,1,120
257,151,70831,5,2,0:0:0:0:
257,151,71204,2,2,B|134:203,1,120
65,250,71949,1,2,0:0:0:0:
153,287,72322,1,2,0:0:0:0:
244,318,72695,2,0,P|338:303|348:169,1,240
288,107,73813,5,2,0:0:0:0:
202,63,74186,2,2,B|159:54|159:54|91:91,1,120
27,162,74931,1,2,0:0:0:0:
36,258,75304,1,2,0:0:0:0:
95,341,75677,1,2,0:0:0:0:
95,341,76050,2,2,B|175:338|199:264,1,120
235,197,76795,5,2,0:0:0:0:
282,114,77168,2,2,B|355:77|355:77|418:98,1,120
474,137,77913,1,2,0:0:0:0:
480,233,78286,1,2,0:0:0:0:
485,328,78659,5,2,0:0:0:0:
485,328,79031,1,2,0:0:0:0:
485,328,79404,1,2,0:0:0:0:
404,276,79777,5,2,0:0:0:0:
404,276,80150,1,2,0:0:0:0:
404,276,80522,1,2,0:0:0:0:
317,234,80895,5,2,0:0:0:0:
317,234,81268,1,2,0:0:0:0:
317,234,81641,1,2,0:0:0:0:
231,192,82013,2,0,P|246:84|375:73,1,240
448,101,83131,5,2,0:0:0:0:
448,101,83504,1,2,0:0:0:0:
448,101,83877,1,2,0:0:0:0:
375,165,84250,5,2,0:0:0:0:
375,165,84622,1,2,0:0:0:0:
375,165,84995,1,2,0:0:0:0:
311,238,85368,5,2,0:0:0:0:
311,238,85741,1,2,0:0:0:0:
311,238,86113,1,0,0:0:0:0:
256,336,86486,2,0,P|384:304|416:208,1,240
