osu file format v14

[General]
AudioFilename: audio.mp3
AudioLeadIn: 0
PreviewTime: 16
Countdown: 0
SampleSet: Soft
StackLeniency: 0.9
Mode: 0
LetterboxInBreaks: 0
WidescreenStoryboard: 1

[Editor]
Bookmarks: 5630,11244,22472,33700,44928,56156,67384,89840,101068,106682,112296,123525,134753,145981,157209,179665
DistanceSpacing: 0.8
BeatDivisor: 8
GridSize: 32
TimelineZoom: 2.1

[Metadata]
Title:Heian no Alien
TitleUnicode:平安のエイリアン
Artist:ZUN
ArtistUnicode:ZUN
Creator:Halfslashed
Version:defiance's Lunatic
Source:東方星蓮船 ~ Undefined Fantastic Object.
Tags:th12 touhou seirensen nue houjuu 封獣 ぬえ owc2020 semifinals sf fm2 video game instrumental defiance quanhitter39 shurelia nik nikolomara 東方Project Project UFO team shanghai alice
BeatmapID:3226925
BeatmapSetID:1301413

[Difficulty]
HPDrainRate:6
CircleSize:4
OverallDifficulty:8
ApproachRate:8
SliderMultiplier:1.6
SliderTickRate:1

[Events]
//Background and Video events
0,0,"28179777_p0_master1200.jpg",0,0
//Break Periods
//Storyboard Layer 0 (Background)
//Storyboard Layer 1 (Fail)
//Storyboard Layer 2 (Pass)
//Storyboard Layer 3 (Foreground)
//Storyboard Layer 4 (Overlay)
//Storyboard Sound Samples

[TimingPoints]
16,350.877192982456,4,2,1,40,1,0
5630,-83.3333333333333,4,2,1,80,0,0
11244,-83.3333333333333,4,2,1,50,0,0
22472,-76.9230769230769,4,2,1,60,0,0
31594,-66.6666666666667,4,2,1,60,0,0
32296,-80,4,2,1,60,0,0
33700,-83.3333333333333,4,2,1,80,0,0
44928,-100,4,2,1,50,0,0
56156,-90.9090909090909,4,2,1,60,0,0
65279,-66.6666666666667,4,2,1,60,0,0
65980,-80,4,2,1,60,0,0
67385,-125,4,2,1,40,0,0
77793,-500,4,2,1,40,0,0
78612,-125,4,2,1,40,0,0
89840,-100,4,2,1,40,0,0
99489,-125,4,2,1,50,0,0
101068,-100,4,2,1,40,0,0
106682,-76.9230769230769,4,2,1,80,0,0
112296,-100,4,2,1,60,0,0
132647,-66.6666666666667,4,2,1,60,0,0
133349,-80,4,2,1,60,0,0
134752,-125,4,2,1,40,0,0
145980,-76.9230769230769,4,3,1,60,0,0
157208,-55.5555555555556,4,2,1,90,0,1
179665,-66.6666666666667,4,2,1,40,0,0

[Colours]
Combo1 : 223,223,223
Combo2 : 255,51,51
Combo3 : 0,255,255
Combo4 : 158,80,254

[HitObjects]
458,280,16,6,0,L|436:359,2,80,10|0|0,0:0|0:0|0:0,0:0:0:0:
412,152,542,1,0,1:0:0:0:
412,152,630,1,0,1:0:0:0:
412,152,717,2,0,L|389:72,2,80,10|0|0,1:2|0:0|0:0,0:0:0:0:
498,142,1244,1,0,0:0:0:0:
335,203,1419,6,0,L|226:190,2,80,10|0|0,0:0|0:0|0:0,0:0:0:0:
167,331,1945,1,0,1:0:0:0:
167,331,2033,1,0,1:0:0:0:
167,331,2121,2,0,L|237:247,2,80,10|0|0,1:2|0:0|0:0,0:0:0:0:
187,163,2647,1,0,0:0:0:0:
97,205,2823,6,0,L|-5:182,2,80,10|0|0,0:0|0:0|0:0,0:0:0:0:
183,70,3349,1,0,1:0:0:0:
183,70,3437,1,0,1:0:0:0:
183,70,3524,2,0,L|282:57,2,80,10|0|0,1:2|0:0|0:0,0:0:0:0:
350,0,4051,1,0,0:0:0:0:
350,0,4226,6,0,L|344:95,1,80,2|0,3:0|0:0,0:0:0:0:
473,129,4577,2,0,L|408:181,1,80,2|0,3:0|1:0,0:0:0:0:
328,263,4840,1,0,1:0:0:0:
328,263,4928,2,0,L|419:275,1,80,2|0,3:0|0:0,0:0:0:0:
501,283,5279,1,2,3:0:0:0:
262,371,5454,1,0,3:0:0:0:
268,319,5542,1,0,3:0:0:0:
312,308,5630,1,4,1:2:0:0:
312,308,5805,5,2,0:0:0:0:
167,279,5980,1,8,3:2:0:0:
167,279,6156,2,0,L|51:300,2,95.9999970703126,2|0|2,3:2|1:2|0:0,0:0:0:0:
52,126,6682,1,8,0:0:0:0:
52,126,6770,1,0,3:2:0:0:
52,126,6858,2,0,L|24:237,1,95.9999970703126,2|0,3:2|1:2,0:0:0:0:
265,37,7208,5,2,0:0:0:0:
265,37,7384,2,0,L|156:75,2,95.9999970703126,8|2|0,0:0|3:2|1:2,0:0:0:0:
416,91,7910,1,2,0:0:0:0:
416,91,8086,1,8,0:0:0:0:
416,91,8173,1,0,3:2:0:0:
416,91,8261,2,0,L|527:111,1,95.9999970703126,2|0,3:2|1:2,0:0:0:0:
321,228,8612,2,0,L|292:116,2,95.9999970703126,2|8|2,0:0|0:0|0:0,0:0:0:0:
269,361,9138,1,0,1:2:0:0:
398,259,9314,5,2,0:0:0:0:
208,225,9489,1,8,0:0:0:0:
208,225,9665,1,2,3:2:0:0:
208,225,9752,1,0,3:2:0:0:
208,225,9840,2,0,L|109:207,1,95.9999970703126,4|2,1:2|0:0,0:0:0:0:
25,136,10191,2,0,P|11:87|11:28,1,95.9999970703126,8|2,0:0|0:0,0:0:0:0:
34,298,10542,1,4,1:2:0:0:
39,308,10717,1,8,0:0:0:0:
79,323,10805,1,8,0:0:0:0:
133,341,10893,1,8,0:0:0:0:
453,368,11156,1,8,0:0:0:0:
423,352,11244,6,0,P|425:302|476:236,1,95.9999970703126,6|0,1:2|0:0,0:0:0:0:
347,114,11594,2,0,P|320:72|276:41,1,95.9999970703126,8|0,0:0|0:0,0:0:0:0:
92,88,11945,2,0,P|151:69|199:37,3,95.9999970703126,2|0|8|0,1:2|0:0|0:0|0:0,0:0:0:0:
2,181,12647,6,0,P|0:241|27:299,1,95.9999970703126,2|0,1:2|0:0,0:0:0:0:
125,383,12998,1,8,0:0:0:0:
184,272,13173,1,0,0:0:0:0:
136,147,13349,2,0,P|91:118|40:103,1,95.9999970703126,2|0,1:2|0:0,0:0:0:0:
257,11,13700,2,0,P|333:22|435:42,1,143.999995605469,10|0,0:0|0:0,0:0:0:0:
411,13,14051,6,0,P|432:59|444:108,1,95.9999970703126,2|0,1:2|0:0,0:0:0:0:
322,195,14401,2,0,P|325:254|345:294,1,95.9999970703126,8|0,0:0|0:0,0:0:0:0:
489,366,14752,1,2,1:2:0:0:
384,313,14928,1,0,0:0:0:0:
279,359,15103,2,0,L|160:367,1,95.9999970703126,8|0,0:0|0:0,0:0:0:0:
11,240,15454,6,0,P|37:295|71:341,3,95.9999970703126,2|0|10|8,1:2|0:0|0:0|0:0,0:0:0:0:
31,135,16156,2,0,P|78:70|193:26,1,191.999994140625,2|8,1:2|0:0,0:0:0:0:
299,67,16682,1,0,0:0:0:0:
187,34,16858,6,0,P|188:106|205:145,1,95.9999970703126,2|0,1:2|0:0,0:0:0:0:
297,258,17208,2,0,P|322:326|330:367,1,95.9999970703126,8|0,0:0|0:0,0:0:0:0:
198,370,17559,1,2,1:2:0:0:
253,249,17735,1,0,0:0:0:0:
369,210,17910,2,0,P|451:198|495:198,1,95.9999970703126,8|0,0:0|0:0,0:0:0:0:
350,41,18261,6,0,P|395:91|449:118,3,95.9999970703126,2|0|8|0,1:2|0:0|0:0|0:0,0:0:0:0:
213,13,18963,2,0,P|167:51|148:110,1,95.9999970703126,2|0,1:2|0:0,0:0:0:0:
164,198,19314,2,0,P|91:212|2:231,1,143.999995605469,10|0,0:0|0:0,0:0:0:0:
0,240,19665,6,0,P|32:299|49:352,1,95.9999970703126,2|0,1:2|0:0,0:0:0:0:
171,369,20015,2,0,P|203:323|256:292,1,95.9999970703126,8|0,0:0|0:0,0:0:0:0:
358,355,20366,1,2,1:2:0:0:
281,276,20542,1,0,0:0:0:0:
308,153,20717,2,0,P|348:120|418:104,1,95.9999970703126,8|0,0:0|0:0,0:0:0:0:
511,79,21068,6,0,L|316:57,2,191.999994140625,2|10|2,1:2|0:0|1:2,0:0:0:0:
173,4,22121,1,8,0:0:0:0:
194,362,22472,5,4,1:2:0:0:
104,164,22647,1,8,0:0:0:0:
198,207,22823,2,0,L|85:184,1,103.999995239258,2|8,1:2|0:0,0:0:0:0:
8,247,23173,1,0,1:2:0:0:
107,374,23349,1,8,0:0:0:0:
107,374,23524,2,0,L|122:258,1,103.999995239258,2|8,1:2|0:0,0:0:0:0:
137,69,23875,1,0,1:2:0:0:
137,69,24051,1,8,0:0:0:0:
237,139,24226,2,0,P|293:129|375:122,1,103.999995239258,2|8,1:2|0:0,0:0:0:0:
490,94,24577,1,0,1:2:0:0:
510,141,24752,1,8,0:0:0:0:
470,87,24840,1,0,3:0:0:0:
474,36,24928,6,0,P|441:86|408:130,1,103.999995239258,2|8,1:2|0:0,0:0:0:0:
349,263,25279,2,0,P|396:363|511:352,1,207.999990478516,2|0,1:2|1:2,0:0:0:0:
495,291,25805,1,8,0:0:0:0:
300,186,25980,2,0,P|254:239|238:278,1,103.999995239258,0|8,1:2|0:0,0:0:0:0:
84,367,26331,2,0,P|46:316|27:261,1,103.999995239258,2|8,1:2|0:0,0:0:0:0:
47,124,26682,1,0,1:2:0:0:
47,124,26858,1,8,0:0:0:0:
56,257,27033,1,2,1:2:0:0:
56,257,27208,1,8,0:0:0:0:
181,122,27384,2,0,P|152:75|3:15,1,207.999990478516,2|0,1:2|1:2,0:0:0:0:
245,239,28086,6,0,P|286:186|285:135,1,103.999995239258,2|8,1:2|0:0,0:0:0:0:
271,16,28437,1,0,1:2:0:0:
271,16,28612,1,8,0:0:0:0:
286,128,28787,2,0,L|423:151,1,103.999995239258,0|10,1:2|0:0,0:0:0:0:
512,32,29138,1,0,1:2:0:0:
492,168,29314,1,10,0:0:0:0:
512,32,29489,6,0,P|517:120|488:274,2,207.999990478516,2|0|2,1:2|1:2|1:2,0:0:0:0:
415,365,30542,1,0,1:2:0:0:
307,170,30717,1,8,0:0:0:0:
376,246,30893,6,0,P|337:308|168:331,1,207.999990478516,6|0,1:0|0:0,0:0:0:0:
111,138,31594,2,0,P|199:193|219:328,1,240.000009155274,6|0,1:0|0:0,0:0:0:0:
6,371,32208,1,8,0:0:0:0:
26,344,32296,6,0,P|16:254|-8:113,1,200,6|0,1:0|0:0,0:0:0:0:
68,0,32823,1,0,0:0:0:0:
1,108,32998,1,6,1:0:0:0:
76,10,33173,1,8,0:0:0:0:
121,18,33261,1,8,0:0:0:0:
158,52,33349,1,0,1:0:0:0:
262,198,33524,5,8,0:0:0:0:
251,251,33612,1,8,0:0:0:0:
241,299,33700,1,4,1:2:0:0:
241,299,33875,1,2,0:0:0:0:
409,384,34051,1,8,0:0:0:0:
383,250,34226,1,2,0:0:0:0:
383,250,34401,1,0,1:2:0:0:
512,198,34577,1,2,0:0:0:0:
285,105,34752,1,8,0:0:0:0:
236,87,34840,1,8,0:0:0:0:
186,74,34928,1,2,0:0:0:0:
186,74,35103,5,0,1:2:0:0:
384,0,35279,1,2,0:0:0:0:
341,191,35454,2,0,L|312:293,1,95.9999970703126,8|2,0:0|0:0,0:0:0:0:
204,374,35805,5,0,1:2:0:0:
204,374,35980,1,2,0:0:0:0:
4,197,36156,1,8,0:0:0:0:
0,301,36331,1,2,0:0:0:0:
85,112,36507,5,0,1:2:0:0:
172,182,36682,1,2,0:0:0:0:
231,272,36858,2,0,P|209:348|181:386,1,95.9999970703126,8|2,0:0|0:0,0:0:0:0:
97,339,37208,1,0,1:2:0:0:
151,187,37384,1,2,0:0:0:0:
296,164,37559,2,0,L|396:179,1,95.9999970703126,8|2,0:0|0:0,0:0:0:0:
475,170,37823,1,0,0:0:0:0:
475,170,37910,1,0,1:2:0:0:
512,70,38086,5,2,0:0:0:0:
422,6,38261,1,8,0:0:0:0:
422,6,38437,1,2,0:0:0:0:
294,78,38612,1,0,1:2:0:0:
186,66,38787,1,10,0:0:0:0:
236,70,38875,1,8,0:0:0:0:
288,75,38963,1,0,1:0:0:0:
388,266,39226,1,8,0:0:0:0:
403,295,39314,5,0,1:2:0:0:
403,295,39489,1,2,0:0:0:0:
272,221,39665,1,8,0:0:0:0:
272,221,39840,1,2,0:0:0:0:
212,351,40015,1,0,1:2:0:0:
119,270,40191,1,2,0:0:0:0:
119,270,40366,1,8,0:0:0:0:
66,278,40454,1,8,0:0:0:0:
14,290,40542,1,2,0:0:0:0:
3,164,40717,5,0,1:2:0:0:
71,76,40893,1,2,0:0:0:0:
167,35,41068,2,0,P|228:48|287:80,1,95.9999970703126,8|2,0:0|0:0,0:0:0:0:
340,132,41419,5,0,1:2:0:0:
337,252,41594,1,2,0:0:0:0:
225,314,41770,1,8,3:2:0:0:
225,314,41945,1,2,3:2:0:0:
320,377,42121,5,0,1:2:0:0:
317,245,42296,1,2,0:0:0:0:
424,193,42472,2,0,P|489:211|534:246,1,95.9999970703126,8|2,0:0|0:0,0:0:0:0:
485,37,42823,5,0,1:2:0:0:
388,95,42998,1,2,0:0:0:0:
281,117,43173,1,8,0:0:0:0:
281,117,43349,1,2,0:0:0:0:
224,100,43437,1,0,3:0:0:0:
168,82,43524,5,4,1:2:0:0:
27,114,43700,1,0,0:0:0:0:
106,179,43875,2,0,L|84:292,1,95.9999970703126,8|0,0:0|0:0,0:0:0:0:
145,384,44226,1,4,1:2:0:0:
246,368,44401,1,8,0:0:0:0:
204,373,44489,1,8,0:0:0:0:
155,380,44577,1,8,1:2:0:0:
424,365,44752,1,8,0:0:0:0:
415,315,44840,1,8,0:0:0:0:
386,278,44928,6,0,P|332:265|282:262,1,80,6|0,1:2|0:0,0:0:0:0:
179,235,45279,2,0,P|140:187|131:154,1,80,8|0,0:0|0:0,0:0:0:0:
211,20,45630,2,0,L|294:35,1,80,2|0,1:2|0:0,0:0:0:0:
410,61,45980,2,0,P|422:101|424:150,1,80,8|0,0:0|0:0,0:0:0:0:
280,215,46331,6,0,P|355:189|469:173,2,160,2|8|2,1:2|0:0|1:2,0:0:0:0:
508,261,47384,1,8,0:0:0:0:
273,8,47735,6,0,P|237:59|203:86,1,80,2|0,1:2|0:0,0:0:0:0:
74,118,48086,2,0,P|42:157|28:198,1,80,8|0,0:0|0:0,0:0:0:0:
135,279,48437,2,0,P|161:317|174:359,1,80,0|0,1:2|0:0,0:0:0:0:
320,367,48787,2,0,P|335:314|364:276,1,80,8|0,0:0|0:0,0:0:0:0:
504,255,49138,5,2,1:2:0:0:
130,132,49489,1,10,0:0:0:0:
353,9,49840,2,0,L|546:23,1,160,2|8,1:2|0:0,0:0:0:0:
211,167,50542,6,0,P|194:221|198:255,1,80,2|2,1:2|0:3,0:0:0:0:
53,145,50893,2,0,P|34:74|21:55,1,80,8|2,0:0|0:3,0:0:0:0:
171,0,51244,2,0,P|214:17|247:27,1,80,2|2,1:2|0:3,0:0:0:0:
336,123,51594,2,0,P|353:165|360:218,1,80,8|2,0:0|0:3,0:0:0:0:
410,350,51945,2,0,P|462:365|490:366,1,80,2|2,1:2|0:3,0:0:0:0:
282,279,52296,2,0,P|237:279|193:296,1,80,8|2,0:0|0:3,0:0:0:0:
106,364,52647,5,2,1:2:0:0:
242,66,52998,1,10,0:0:0:0:
395,218,53349,6,0,P|428:196|453:154,1,80,2|2,1:2|0:3,0:0:0:0:
225,306,53700,2,0,P|234:353|236:389,1,80,8|2,0:0|0:3,0:0:0:0:
36,227,54051,2,0,P|47:185|62:144,1,80,2|2,1:2|0:3,0:0:0:0:
147,40,54401,2,0,P|198:29|236:29,1,80,8|2,0:0|0:3,0:0:0:0:
24,66,54752,6,0,L|207:90,2,160,2|10|2,1:2|0:0|1:2,0:0:0:0:
255,155,55805,1,8,0:0:0:0:
286,150,55893,1,8,0:0:0:0:
317,145,55980,1,8,0:0:0:0:
348,140,56068,1,8,0:0:0:0:
380,137,56156,5,4,1:2:0:0:
449,233,56331,1,8,0:0:0:0:
420,337,56507,2,0,P|372:363|317:366,1,88.000002685547,2|8,1:2|0:0,0:0:0:0:
226,305,56858,5,0,1:2:0:0:
141,246,57033,1,8,0:0:0:0:
46,284,57208,2,0,P|24:326|10:370,1,88.000002685547,2|8,1:2|0:0,0:0:0:0:
157,230,57559,2,0,P|141:175|113:142,1,88.000002685547,0|8,1:2|0:0,0:0:0:0:
24,84,57910,5,2,1:2:0:0:
24,84,58086,1,8,0:0:0:0:
213,45,58261,1,0,1:2:0:0:
158,20,58437,1,8,0:0:0:0:
202,52,58524,1,0,0:0:0:0:
245,75,58612,2,0,P|295:60|331:28,1,88.000002685547,2|8,1:2|0:0,0:0:0:0:
373,161,58963,6,0,P|356:247|349:337,1,176.000005371094,2|0,1:2|1:2,0:0:0:0:
430,368,59489,1,8,0:0:0:0:
260,281,59665,2,0,P|214:320|188:362,1,88.000002685547,0|8,1:2|0:0,0:0:0:0:
462,208,60015,2,0,P|476:155|468:116,1,88.000002685547,2|8,1:2|0:0,0:0:0:0:
374,21,60366,1,0,1:2:0:0:
374,21,60542,1,8,0:0:0:0:
292,129,60717,2,0,P|235:125|184:107,1,88.000002685547,2|8,1:2|0:0,0:0:0:0:
22,37,61068,2,0,P|111:18|230:17,1,176.000005371094,2|0,1:2|1:2,0:0:0:0:
310,142,61770,6,0,P|306:198|293:239,1,88.000002685547,2|8,1:2|0:0,0:0:0:0:
208,364,62121,1,0,1:2:0:0:
208,364,62296,1,8,0:0:0:0:
273,245,62472,2,0,P|208:253|152:263,1,88.000002685547,0|10,1:2|0:0,0:0:0:0:
16,224,62823,1,0,1:2:0:0:
70,354,62998,1,10,0:0:0:0:
16,224,63173,6,0,P|47:126|45:24,2,176.000005371094,2|0|2,1:2|1:2|1:2,0:0:0:0:
118,12,64226,1,0,1:2:0:0:
180,202,64401,1,8,0:0:0:0:
168,98,64577,6,0,P|220:48|339:17,1,176.000005371094,6|0,1:0|0:0,0:0:0:0:
374,250,65279,2,0,P|309:166|319:-8,1,240.000009155274,6|0,1:0|0:0,0:0:0:0:
506,11,65893,1,8,0:0:0:0:
472,27,65980,6,0,P|470:133|481:244,1,200,6|0,1:0|0:0,0:0:0:0:
512,371,66507,1,0,0:0:0:0:
360,294,66682,1,6,1:2:0:0:
434,333,66858,1,8,0:0:0:0:
399,325,66946,1,8,0:0:0:0:
361,312,67034,1,0,1:0:0:0:
211,368,67296,1,8,0:0:0:0:
217,342,67384,5,0,1:0:0:0:
128,329,67735,1,2,3:0:0:0:
51,341,68437,1,2,3:0:0:0:
65,228,69138,5,2,3:0:0:0:
136,242,69840,1,2,3:0:0:0:
212,256,70015,1,2,0:0:0:0:
150,141,70191,5,0,1:0:0:0:
134,229,70366,1,0,0:0:0:0:
219,241,70542,1,2,3:0:0:0:
239,154,70717,1,0,0:0:0:0:
74,86,70893,5,0,1:0:0:0:
74,86,71068,1,2,0:0:0:0:
145,46,71244,1,2,3:0:0:0:
8,133,71419,1,2,0:0:0:0:
8,133,71594,5,2,3:0:0:0:
214,156,71945,1,2,3:0:0:0:
461,172,72296,1,2,3:0:0:0:
491,101,72472,1,2,0:0:0:0:
407,108,72647,1,2,3:0:0:0:
440,32,72823,1,2,0:0:0:0:
473,245,72998,5,2,1:2:0:0:
81,12,73700,1,2,1:2:0:0:
143,62,73875,1,0,0:0:0:0:
66,87,74051,1,2,3:0:0:0:
127,135,74226,1,0,0:0:0:0:
9,258,74401,5,2,1:2:0:0:
22,263,74665,2,0,L|103:255,1,64,2|2,0:0|0:0,0:0:0:0:
167,256,74972,1,2,0:0:0:0:
155,235,75103,1,2,1:2:0:0:
446,363,75454,1,2,3:0:0:0:
499,305,75630,1,2,0:0:0:0:
341,355,75805,5,2,1:2:0:0:
341,355,76331,1,2,3:0:0:0:
341,355,76858,1,2,3:0:0:0:
325,263,77033,1,0,0:0:0:0:
301,176,77208,5,2,3:0:0:0:
273,151,77501,1,2,3:0:0:0:
237,140,77793,2,0,L|195:149,1,42.6666666666667,2|2,3:0|3:0,0:0:0:0:
98,156,78378,1,2,0:0:0:0:
98,156,78495,1,2,0:0:0:0:
96,116,78612,6,0,P|66:64|13:2,1,128,6|2,1:2|3:0,0:0:0:0:
31,323,79314,1,2,1:2:0:0:
185,355,79577,1,2,0:0:0:0:
238,209,79811,1,2,0:0:0:0:
99,357,80015,6,0,P|134:297|195:253,1,128,2|2,1:2|3:0,0:0:0:0:
455,333,80717,1,2,1:2:0:0:
311,374,80980,1,2,0:0:0:0:
462,134,81214,1,2,0:0:0:0:
497,244,81419,6,0,P|418:249|361:263,1,128,2|2,1:2|3:0,0:0:0:0:
230,145,82121,1,2,1:2:0:0:
388,106,82355,1,2,0:0:0:0:
181,37,82589,1,2,0:0:0:0:
302,211,82823,6,0,L|296:240,2,16,2|0|0,1:2|0:0|0:0,0:0:0:0:
319,137,82998,1,0,0:0:0:0:
319,137,83173,1,0,0:0:0:0:
185,212,83349,1,0,0:0:0:0:
194,299,83524,1,2,1:2:0:0:
62,353,83744,2,0,L|5:357,2,48,0|0|0,0:0|0:0|0:0,0:0:0:0:
247,346,84226,6,0,P|318:350|386:361,1,128,0|2,1:0|3:0,0:0:0:0:
501,249,84928,1,2,1:2:0:0:
326,193,85191,1,2,0:0:0:0:
497,110,85396,1,2,0:0:0:0:
408,14,85630,6,0,P|393:74|385:159,1,128,2|2,1:2|3:0,0:0:0:0:
254,245,86244,2,0,L|230:251,2,16,2|2|0,0:0|0:0|1:2,0:0:0:0:
334,235,86594,1,2,0:0:0:0:
334,235,86799,1,2,0:0:0:0:
225,133,87033,5,2,0:0:0:0:
138,113,87238,1,2,0:0:0:0:
108,4,87559,1,2,0:0:0:0:
27,15,87735,1,2,0:0:0:0:
27,15,87823,1,2,0:0:0:0:
11,96,87998,1,2,0:0:0:0:
74,162,88173,1,2,0:0:0:0:
3,233,88349,1,0,0:3:0:0:
36,246,88437,6,0,P|13:323|-19:379,1,128,2|0,0:0|0:0,0:0:0:0:
271,217,89138,2,0,P|254:166|241:81,1,128,2|0,0:0|0:0,0:0:0:0:
277,12,89665,1,8,0:0:0:0:
364,63,89840,5,6,1:2:0:0:
364,63,89928,1,0,3:0:0:0:
364,63,90015,2,0,L|423:50,1,40,0|0,3:0|0:0,0:0:0:0:
509,115,90191,1,8,3:2:0:0:
509,115,90279,1,0,3:0:0:0:
509,115,90366,2,0,L|476:147,1,40,0|0,3:0|0:0,0:0:0:0:
359,163,90542,1,2,2:0:0:0:
512,227,90805,1,2,2:0:0:0:
291,342,91068,1,2,2:0:0:0:
338,262,91244,5,2,1:2:0:0:
338,262,91331,1,0,3:0:0:0:
338,262,91419,2,0,L|274:258,1,40,0|0,3:0|0:0,0:0:0:0:
202,246,91594,2,0,P|195:200|195:152,1,80,8|0,3:2|0:0,0:0:0:0:
233,7,91945,1,2,2:0:0:0:
0,104,92208,1,2,2:0:0:0:
127,1,92472,1,2,2:0:0:0:
143,115,92647,5,2,1:2:0:0:
143,115,92735,1,0,3:0:0:0:
143,115,92823,2,0,L|130:157,1,40,0|0,3:0|0:0,0:0:0:0:
32,224,92998,1,8,3:2:0:0:
32,224,93086,1,0,3:0:0:0:
32,224,93173,2,0,L|88:231,1,40,0|0,3:0|0:0,0:0:0:0:
196,292,93349,1,2,2:0:0:0:
56,359,93612,1,2,2:0:0:0:
314,328,93875,1,2,2:0:0:0:
200,280,94051,5,2,1:2:0:0:
203,231,94138,1,0,3:0:0:0:
206,182,94226,1,0,3:0:0:0:
216,282,94401,1,10,3:2:0:0:
295,260,94577,1,0,2:0:0:0:
432,340,94752,1,2,1:2:0:0:
432,340,94972,2,0,L|442:272,2,60,0|0|0,0:0|0:0|2:0,0:0:0:0:
499,176,95454,5,0,3:0:0:0:
499,176,95542,1,0,3:0:0:0:
499,176,95630,2,0,L|492:123,1,40,2|0,3:2|0:0,0:0:0:0:
439,41,95805,2,0,L|352:59,1,80,8|0,3:2|0:0,0:0:0:0:
186,94,96156,1,2,2:0:0:0:
314,4,96419,1,2,2:0:0:0:
74,13,96682,1,2,2:0:0:0:
180,111,96858,5,2,3:2:0:0:
180,111,96945,1,0,3:0:0:0:
180,111,97033,2,0,L|165:160,1,40,2|0,3:2|0:0,0:0:0:0:
254,222,97208,1,8,3:2:0:0:
254,222,97296,1,0,3:0:0:0:
254,222,97384,2,0,L|320:206,1,40,0|0,3:0|0:0,0:0:0:0:
451,239,97559,1,2,1:2:0:0:
331,339,97823,1,0,0:0:0:0:
164,330,98086,1,0,0:0:0:0:
243,368,98261,5,2,1:2:0:0:
253,344,98349,1,0,3:0:0:0:
257,318,98437,1,0,3:0:0:0:
257,292,98524,1,0,3:0:0:0:
251,266,98612,2,0,P|116:233|11:262,1,240,8|0,3:2|0:0,0:0:0:0:
0,329,99314,1,10,3:2:0:0:
92,154,99489,6,0,P|81:100|34:39,1,128,2|0,0:0|0:0,0:0:0:0:
223,0,100015,1,2,0:0:0:0:
172,70,100191,1,0,0:0:0:0:
370,176,100366,1,10,0:0:0:0:
253,185,100542,1,8,0:0:0:0:
309,179,100630,1,8,0:0:0:0:
362,178,100717,1,10,0:0:0:0:
170,296,100893,1,10,0:0:0:0:
300,376,101068,5,14,0:0:0:0:
300,376,101244,1,0,0:0:0:0:
373,296,101419,1,0,0:0:0:0:
485,277,101594,1,0,1:0:0:0:
447,306,101682,1,0,0:0:0:0:
399,304,101770,1,10,0:0:0:0:
290,234,101945,1,0,0:0:0:0:
337,112,102121,1,0,0:0:0:0:
450,49,102296,1,0,0:0:0:0:
450,49,102472,5,10,0:0:0:0:
297,9,102647,1,0,0:0:0:0:
187,85,102823,1,0,0:0:0:0:
183,197,102998,1,0,1:0:0:0:
164,150,103086,1,0,0:0:0:0:
180,95,103173,1,10,0:0:0:0:
280,114,103349,1,0,0:0:0:0:
136,151,103524,1,0,0:0:0:0:
24,100,103700,1,0,0:0:0:0:
24,100,103875,5,10,0:0:0:0:
57,205,104051,1,0,0:0:0:0:
40,316,104226,1,0,0:0:0:0:
143,361,104401,1,0,1:0:0:0:
89,349,104489,1,0,0:0:0:0:
39,327,104577,1,10,0:0:0:0:
112,263,104752,1,0,0:0:0:0:
215,269,104928,1,0,0:0:0:0:
300,383,105103,1,0,0:0:0:0:
300,383,105279,6,0,L|323:301,1,80,2|0,3:0|0:0,0:0:0:0:
417,250,105630,2,0,L|368:158,1,80,2|0,3:0|1:0,0:0:0:0:
348,96,105893,1,0,0:0:0:0:
348,96,105980,2,0,L|461:111,1,80,2|0,3:0|0:0,0:0:0:0:
499,23,106331,6,0,L|483:7,6,20,2|0|0|0|0|0|0,3:0|0:0|0:0|0:0|0:0|0:0|0:0,0:0:0:0:
506,63,106682,5,4,1:2:0:0:
465,220,106858,1,2,0:0:0:0:
407,234,106945,1,0,0:0:0:0:
354,250,107033,1,8,0:0:0:0:
346,250,107208,2,0,P|270:233|201:220,1,103.999995239258,2|0,3:2|1:2,0:0:0:0:
130,99,107559,1,2,3:2:0:0:
139,51,107647,1,0,0:0:0:0:
146,3,107735,1,8,0:0:0:0:
133,107,107910,1,2,3:2:0:0:
137,209,108086,5,0,1:2:0:0:
188,341,108261,1,2,3:2:0:0:
291,368,108437,1,8,0:0:0:0:
247,357,108524,1,0,0:0:0:0:
200,341,108612,1,2,0:0:0:0:
43,360,108787,2,0,P|36:293|47:245,1,103.999995239258,0|2,1:2|3:2,0:0:0:0:
166,182,109138,1,8,0:0:0:0:
222,166,109226,1,0,0:0:0:0:
280,170,109314,1,2,3:2:0:0:
295,181,109489,5,0,1:2:0:0:
482,190,109665,1,2,3:2:0:0:
440,278,109840,1,8,0:0:0:0:
446,240,109928,1,0,0:0:0:0:
454,188,110015,1,2,3:2:0:0:
360,10,110191,1,0,1:2:0:0:
360,10,110366,1,2,3:2:0:0:
267,88,110542,1,8,0:0:0:0:
365,27,110717,1,2,3:2:0:0:
314,45,110805,1,0,3:0:0:0:
264,95,110893,6,0,P|199:107|149:107,1,103.999995239258,4|2,1:2|0:0,0:0:0:0:
8,184,111244,2,0,P|26:240|28:292,1,103.999995239258,8|2,0:0|0:0,0:0:0:0:
187,364,111594,1,4,1:2:0:0:
88,331,111770,1,8,0:0:0:0:
132,346,111858,1,8,0:0:0:0:
177,360,111945,1,8,0:0:0:0:
411,357,112208,1,8,0:0:0:0:
387,328,112296,6,0,P|406:283|439:248,1,80,6|0,1:2|0:0,0:0:0:0:
378,127,112647,2,0,P|352:69|339:23,1,80,8|0,0:0|0:0,0:0:0:0:
219,15,112998,2,0,P|189:55|154:86,1,80,2|0,1:2|0:0,0:0:0:0:
31,145,113349,2,0,P|5:96|-4:56,1,80,8|0,0:0|0:0,0:0:0:0:
181,199,113700,2,0,P|117:211|14:243,2,160,2|8|2,1:2|0:0|1:2,0:0:0:0:
13,319,114752,1,8,0:0:0:0:
378,299,115103,6,0,P|416:355|427:381,1,80,2|0,1:2|0:0,0:0:0:0:
318,187,115454,2,0,P|345:131|371:102,1,80,8|0,0:0|0:0,0:0:0:0:
481,76,115805,2,0,P|463:30|436:0,1,80,0|0,1:2|0:0,0:0:0:0:
244,12,116156,2,0,P|220:56|212:100,1,80,8|0,0:0|0:0,0:0:0:0:
291,263,116507,5,2,1:2:0:0:
472,162,116858,1,10,0:0:0:0:
229,10,117208,2,0,L|56:23,1,160,2|8,1:2|0:0,0:0:0:0:
12,226,117910,6,0,P|24:271|26:327,1,80,2|2,1:2|0:3,0:0:0:0:
181,355,118261,2,0,P|207:305|240:282,1,80,8|2,0:0|0:3,0:0:0:0:
400,264,118612,2,0,P|412:221|401:178,1,80,2|2,1:2|0:3,0:0:0:0:
311,26,118963,2,0,P|350:61|380:72,1,80,8|2,0:0|0:3,0:0:0:0:
154,18,119314,2,0,P|110:72|97:100,1,80,2|2,1:2|0:3,0:0:0:0:
225,224,119665,2,0,P|254:286|261:314,1,80,8|2,0:0|0:3,0:0:0:0:
98,379,120015,1,2,1:2:0:0:
427,238,120366,1,10,0:0:0:0:
269,103,120717,6,0,P|251:37|248:6,1,80,2|2,1:2|0:3,0:0:0:0:
74,188,121068,2,0,P|55:224|27:258,1,80,8|2,0:0|0:3,0:0:0:0:
264,369,121419,2,0,P|244:334|231:288,1,80,2|2,1:2|0:3,0:0:0:0:
371,204,121770,2,0,P|419:196|484:197,1,80,8|2,0:0|0:3,0:0:0:0:
271,125,122121,6,0,P|253:225|241:302,2,160,2|10|2,1:2|0:0|1:2,0:0:0:0:
161,17,123173,5,8,0:0:0:0:
129,21,123261,1,8,0:0:0:0:
97,24,123349,1,8,0:0:0:0:
65,29,123437,1,8,0:0:0:0:
27,32,123524,5,4,1:2:0:0:
50,155,123700,1,8,0:0:0:0:
150,201,123875,2,0,P|197:187|228:167,1,80,2|8,1:2|0:0,0:0:0:0:
312,89,124226,1,0,1:2:0:0:
419,113,124401,1,8,0:0:0:0:
491,195,124577,2,0,P|501:243|494:285,1,80,2|8,1:2|0:0,0:0:0:0:
301,348,124928,2,0,P|306:290|326:257,1,80,0|8,1:2|0:0,0:0:0:0:
235,154,125279,5,2,1:2:0:0:
235,154,125454,1,8,0:0:0:0:
99,270,125630,1,0,1:2:0:0:
160,286,125805,1,8,0:0:0:0:
113,265,125893,1,0,0:0:0:0:
86,221,125980,2,0,P|81:179|88:132,1,80,2|8,1:2|0:0,0:0:0:0:
245,20,126331,6,0,P|321:46|424:68,1,160,2|0,1:2|1:2,0:0:0:0:
509,8,126858,1,8,0:0:0:0:
391,155,127033,2,0,P|411:191|452:214,1,80,0|8,1:2|0:0,0:0:0:0:
325,380,127384,2,0,L|295:281,1,80,2|8,1:2|0:0,0:0:0:0:
224,175,127735,1,0,1:2:0:0:
224,175,127910,1,8,0:0:0:0:
119,264,128086,2,0,P|68:277|33:282,1,80,2|8,1:2|0:0,0:0:0:0:
34,32,128437,2,0,P|112:69|147:167,1,160,2|0,1:2|1:2,0:0:0:0:
210,362,129138,6,0,P|217:306|233:269,1,80,2|8,1:2|0:0,0:0:0:0:
291,156,129489,1,0,1:2:0:0:
291,156,129665,1,8,0:0:0:0:
246,276,129840,2,0,P|301:267|340:264,1,80,0|10,1:2|0:0,0:0:0:0:
483,198,130191,1,0,1:2:0:0:
380,374,130366,1,10,0:0:0:0:
490,188,130542,6,0,P|497:273|486:368,2,160,2|0|2,1:2|1:2|1:2,0:0:0:0:
291,0,131594,1,0,1:2:0:0:
343,185,131770,1,8,0:0:0:0:
408,78,131945,6,0,P|321:83|237:133,1,160,6|0,1:0|0:0,0:0:0:0:
83,10,132647,2,0,P|166:61|237:192,1,240.000009155274,6|0,1:0|0:0,0:0:0:0:
104,382,133261,1,8,0:0:0:0:
126,364,133349,6,0,P|107:268|46:142,1,200,6|0,1:0|0:0,0:0:0:0:
1,317,133875,1,0,0:0:0:0:
95,68,134051,1,6,1:0:0:0:
223,79,134226,1,8,0:0:0:0:
175,84,134313,1,8,0:0:0:0:
120,86,134401,1,8,0:0:0:0:
437,41,134665,1,8,0:0:0:0:
408,37,134752,6,0,P|416:82|454:170,1,128,6|2,1:2|3:0,0:0:0:0:
415,350,135454,1,2,1:2:0:0:
507,267,135717,1,2,0:0:0:0:
286,329,135951,1,2,0:0:0:0:
373,183,136156,6,0,P|325:227|243:264,1,128,2|2,1:2|3:0,0:0:0:0:
68,180,136858,1,2,1:2:0:0:
201,237,137122,1,2,0:0:0:0:
143,25,137355,1,2,0:0:0:0:
40,112,137559,6,0,P|22:173|19:241,1,128,2|2,1:2|3:0,0:0:0:0:
130,363,138261,1,2,1:2:0:0:
256,261,138495,1,2,0:0:0:0:
104,60,138729,1,2,0:0:0:0:
231,153,138963,6,0,L|259:157,2,16,0|0|0,1:0|0:0|0:0,0:0:0:0:
151,145,139138,1,0,0:0:0:0:
151,145,139314,1,2,3:0:0:0:
335,211,139489,1,0,0:0:0:0:
299,35,139665,1,2,1:2:0:0:
299,35,139884,2,0,L|279:92,2,48,2|0|0,0:0|0:0|0:0,0:0:0:0:
394,12,140366,5,0,1:0:0:0:
459,83,140542,2,0,P|495:100|529:104,1,64,0|2,0:0|3:0,0:0:0:0:
318,243,141068,1,2,1:2:0:0:
495,364,141331,1,2,0:0:0:0:
494,208,141536,1,2,0:0:0:0:
364,158,141770,5,0,1:0:0:0:
310,253,141945,2,0,P|312:305|330:329,1,64,2|2,0:0|3:0,0:0:0:0:
194,370,142384,2,0,L|171:368,2,16,2|0|2,0:0|0:0|1:2,0:0:0:0:
101,285,142736,1,2,0:0:0:0:
209,165,142939,1,2,0:0:0:0:
323,211,143173,5,2,0:0:0:0:
415,165,143378,1,2,0:0:0:0:
315,4,143699,1,2,0:0:0:0:
227,24,143875,1,2,0:0:0:0:
227,24,143963,1,2,0:0:0:0:
130,54,144138,1,2,0:0:0:0:
37,120,144313,1,2,0:0:0:0:
3,233,144489,1,2,0:0:0:0:
36,246,144577,6,0,P|13:323|-19:379,1,128,2|0,0:0|0:0,0:0:0:0:
323,367,145279,2,0,P|289:305|272:230,1,128,2|0,0:0|0:0,0:0:0:0:
372,7,145805,1,8,0:0:0:0:
504,129,145980,6,0,P|429:108|285:101,1,207.999990478516,6|8,1:2|3:2,0:0:0:0:
54,218,146682,2,0,P|24:172|17:107,1,103.999995239258,2|0,1:2|0:0,0:0:0:0:
45,42,146945,1,2,3:2:0:0:
111,72,147121,1,0,0:0:0:0:
56,42,147209,1,2,2:0:0:0:
184,225,147384,6,0,P|251:211|410:202,1,207.999990478516,2|8,1:2|3:2,0:0:0:0:
298,359,148086,2,0,P|225:351|184:351,1,103.999995239258,2|0,1:2|0:0,0:0:0:0:
124,372,148349,1,2,3:2:0:0:
84,320,148524,1,0,0:0:0:0:
121,358,148612,1,2,2:0:0:0:
136,159,148787,6,0,P|117:90|7:4,1,207.999990478516,2|8,1:2|3:2,0:0:0:0:
332,19,149489,2,0,P|379:58|429:78,1,103.999995239258,2|0,1:2|0:0,0:0:0:0:
499,98,149752,2,0,P|517:159|518:205,1,103.999995239258,2|0,3:2|0:0,0:0:0:0:
495,286,150015,2,0,P|463:258|434:242,1,51.999997619629,2|0,2:2|2:0,2:2:0:0:
314,222,150191,5,2,1:2:0:0:
277,228,150279,1,0,0:0:0:0:
238,235,150366,1,0,0:0:0:0:
129,347,150542,1,10,2:2:0:0:
234,359,150717,1,0,2:0:0:0:
146,199,150893,1,2,1:2:0:0:
146,199,151068,1,2,3:2:0:0:
19,260,151244,1,10,3:2:0:0:
19,260,151419,1,2,3:2:0:0:
51,29,151594,6,0,P|164:45|266:82,1,207.999990478516,0|8,1:2|3:2,0:0:0:0:
503,235,152296,2,0,P|485:177|473:125,1,103.999995239258,2|0,1:2|0:0,0:0:0:0:
503,55,152559,1,2,3:2:0:0:
435,50,152735,1,0,0:0:0:0:
495,42,152823,1,2,2:2:0:0:
300,178,152998,6,0,P|297:267|268:387,1,207.999990478516,2|8,1:2|3:2,0:0:0:0:
20,296,153700,2,0,P|81:264|122:252,1,103.999995239258,2|0,1:2|0:0,0:0:0:0:
168,192,153963,2,0,P|152:138|116:98,1,103.999995239258,0|0,0:0|0:0,0:0:0:0:
33,62,154226,2,0,P|13:107|11:134,1,51.999997619629,0|0,2:0|2:0,2:2:0:0:
111,263,154401,6,0,P|225:304|324:367,2,207.999990478516,2|8|0,1:2|3:2|1:2,0:0:0:0:
428,374,155454,1,10,3:2:0:0:
304,296,155630,2,0,P|411:270|516:272,1,207.999990478516,0|0,0:0|0:0,0:0:0:0:
488,182,156156,1,8,2:0:0:0:
457,100,156331,1,0,2:0:0:0:
253,198,156507,1,8,2:0:0:0:
188,330,156682,1,8,2:0:0:0:
133,334,156770,1,8,2:0:0:0:
80,338,156858,1,8,2:0:0:0:
287,379,157033,1,8,2:0:0:0:
464,355,157208,6,0,P|437:294|447:192,1,143.999995605469,6|10,1:2|0:0,0:0:0:0:
470,60,157559,1,0,1:0:0:0:
427,222,157735,1,10,0:0:0:0:
441,58,157910,2,0,P|366:89|306:136,1,143.999995605469,2|10,1:2|0:0,0:0:0:0:
211,161,158173,2,0,P|178:102|198:17,1,143.999995605469,2|0,0:0|0:0,0:0:0:0:
329,0,158437,2,0,P|312:18|258:74,1,71.9999978027344,10|0,0:0|0:0,0:0:0:0:
105,208,158612,5,6,1:2:0:0:
105,208,158787,1,10,0:0:0:0:
16,26,158963,2,0,P|-5:96|2:180,1,143.999995605469,0|10,1:0|0:0,0:0:0:0:
177,328,159314,6,0,P|119:366|15:385,1,143.999995605469,2|10,1:2|0:0,0:0:0:0:
100,227,159577,2,0,P|164:203|253:213,1,143.999995605469,2|0,0:0|0:0,0:0:0:0:
280,321,159840,2,0,L|375:360,1,71.9999978027344,10|0,0:0|0:0,0:0:0:0:
501,201,160015,6,0,L|521:42,1,143.999995605469,6|10,1:2|0:0,0:0:0:0:
420,273,160366,1,0,1:0:0:0:
496,350,160542,1,10,0:0:0:0:
370,136,160717,2,0,P|305:154|227:199,1,143.999995605469,2|10,1:2|0:0,0:0:0:0:
147,237,160980,2,0,P|72:232|10:195,1,143.999995605469,2|0,0:0|0:0,0:0:0:0:
144,91,161244,2,0,P|160:122|177:177,1,71.9999978027344,10|0,0:0|0:0,0:0:0:0:
188,353,161419,5,6,1:2:0:0:
240,363,161507,1,0,0:0:0:0:
294,373,161594,1,10,0:0:0:0:
173,338,161770,1,2,1:2:0:0:
289,222,161945,1,10,0:0:0:0:
273,102,162121,1,6,1:2:0:0:
59,277,162296,1,10,0:0:0:0:
273,102,162472,1,2,1:2:0:0:
59,277,162647,1,10,0:0:0:0:
149,181,162823,6,0,P|120:117|93:20,1,143.999995605469,6|10,1:2|0:0,0:0:0:0:
15,127,163173,1,0,1:0:0:0:
230,12,163349,1,10,0:0:0:0:
238,19,163524,2,0,P|331:37|401:40,1,143.999995605469,2|10,1:2|0:0,0:0:0:0:
478,2,163787,2,0,P|497:77|516:162,1,143.999995605469,2|0,0:0|0:0,0:0:0:0:
491,237,164051,2,0,P|441:256|389:292,1,71.9999978027344,10|0,0:0|0:0,0:0:0:0:
261,337,164226,6,0,P|172:346|60:365,1,143.999995605469,6|10,1:2|0:0,0:0:0:0:
377,372,164577,1,0,1:0:0:0:
339,259,164752,1,10,0:0:0:0:
244,189,164928,2,0,P|225:124|253:44,1,143.999995605469,2|10,1:2|0:0,0:0:0:0:
164,0,165191,2,0,P|115:48|25:78,1,143.999995605469,2|0,0:0|0:0,0:0:0:0:
0,151,165454,2,0,P|34:194|45:239,1,71.9999978027344,10|0,0:0|0:0,0:0:0:0:
41,383,165630,6,0,P|98:328|181:304,1,143.999995605469,6|8,1:2|0:0,0:0:0:0:
298,368,165980,1,0,1:2:0:0:
298,368,166156,1,10,0:0:0:0:
162,214,166331,1,2,1:2:0:0:
162,214,166419,2,0,L|332:240,1,143.999995605469,2|0,0:0|0:0,0:0:0:0:
475,208,166770,1,2,0:0:0:0:
327,240,166945,1,0,3:0:0:0:
327,240,167033,6,0,P|364:166|418:110,1,143.999995605469,6|8,1:2|0:0,0:0:0:0:
212,119,167384,2,0,P|175:45|128:-6,1,143.999995605469,0|8,1:2|0:0,0:0:0:0:
13,28,167735,1,0,1:2:0:0:
17,138,167910,1,8,0:0:0:0:
151,318,168086,1,0,1:2:0:0:
148,208,168261,1,8,0:0:0:0:
1,320,168437,6,0,P|38:251|135:213,1,143.999995605469,6|10,1:2|0:0,0:0:0:0:
228,369,168787,1,0,1:0:0:0:
228,369,168963,1,10,0:0:0:0:
293,234,169138,2,0,P|349:281|432:316,1,143.999995605469,2|10,1:2|0:0,0:0:0:0:
495,266,169401,2,0,P|513:195|505:107,1,143.999995605469,2|0,0:0|0:0,0:0:0:0:
468,57,169665,2,0,P|410:62|366:85,1,71.9999978027344,10|0,0:0|0:0,0:0:0:0:
215,122,169840,6,0,P|170:60|148:-14,1,143.999995605469,6|10,1:2|0:0,0:0:0:0:
156,204,170191,1,0,1:0:0:0:
89,268,170366,1,10,0:0:0:0:
170,380,170542,2,0,P|227:334|315:324,1,143.999995605469,2|10,1:2|0:0,0:0:0:0:
401,325,170805,2,0,P|425:262|418:182,1,143.999995605469,2|0,0:0|0:0,0:0:0:0:
333,142,171068,2,0,P|313:107|299:59,1,71.9999978027344,10|0,0:0|0:0,0:0:0:0:
501,12,171244,6,0,P|526:95|520:164,1,143.999995605469,6|10,1:2|0:0,0:0:0:0:
481,247,171594,1,0,1:0:0:0:
479,330,171770,1,10,0:0:0:0:
312,349,171945,2,0,P|245:335|162:334,1,143.999995605469,2|10,1:2|0:0,0:0:0:0:
28,362,172296,1,2,1:2:0:0:
37,347,172384,1,0,3:0:0:0:
42,330,172472,1,10,0:0:0:0:
68,145,172647,5,6,1:2:0:0:
40,185,172735,1,0,0:0:0:0:
15,223,172823,1,10,0:0:0:0:
81,148,172998,1,2,1:2:0:0:
189,159,173173,1,10,0:0:0:0:
41,22,173349,1,6,1:2:0:0:
79,138,173524,1,10,0:0:0:0:
223,52,173700,1,2,1:2:0:0:
275,43,173787,1,0,0:0:0:0:
325,31,173875,1,10,0:0:0:0:
499,125,174051,6,0,P|508:191|495:280,1,143.999995605469,6|10,1:2|0:0,0:0:0:0:
355,381,174401,1,0,1:0:0:0:
384,195,174577,1,10,0:0:0:0:
256,294,174752,2,0,P|163:308|103:352,1,143.999995605469,2|10,1:2|0:0,0:0:0:0:
25,285,175015,2,0,P|27:212|68:138,1,143.999995605469,0|0,0:0|3:0,0:0:0:0:
124,98,175279,2,0,P|184:73|222:66,1,71.9999978027344,10|0,0:0|0:0,0:0:0:0:
376,53,175454,6,0,P|449:36|545:21,1,143.999995605469,6|10,1:2|0:0,0:0:0:0:
258,36,175805,1,0,1:0:0:0:
487,150,175980,1,10,0:0:0:0:
397,240,176156,2,0,P|446:304|531:316,1,143.999995605469,2|10,1:2|0:0,0:0:0:0:
317,352,176419,2,0,P|298:273|221:248,1,143.999995605469,2|0,0:0|0:0,0:0:0:0:
116,267,176682,2,0,P|92:298|63:342,1,71.9999978027344,10|0,0:0|0:0,0:0:0:0:
4,121,176858,6,0,P|35:31|241:17,1,287.999991210938,6|0,1:2|1:2,0:0:0:0:
270,55,177384,1,8,0:0:0:0:
192,96,177559,1,0,1:2:0:0:
384,160,177735,2,0,L|534:197,1,143.999995605469,8|0,0:0|1:2,0:0:0:0:
245,213,178086,1,10,0:0:0:0:
387,172,178261,6,0,P|431:227|425:335,1,143.999995605469,0|8,1:2|0:0,0:0:0:0:
318,363,178612,1,2,1:2:0:0:
31,289,178787,1,8,0:0:0:0:
100,372,178963,1,2,1:2:0:0:
199,348,179138,1,10,0:0:0:0:
141,189,179314,1,2,1:2:0:0:
47,159,179489,1,10,0:0:0:0:
256,191,179665,5,6,1:2:0:0:
