osu file format v14

[General]
AudioFilename: audio.mp3
AudioLeadIn: 0
PreviewTime: 30451
Countdown: 0
SampleSet: Normal
StackLeniency: 0.7
Mode: 1
LetterboxInBreaks: 0
WidescreenStoryboard: 0

[Editor]
DistanceSpacing: 1.4
BeatDivisor: 4
GridSize: 16
TimelineZoom: 0.6

[Metadata]
Title:Hana wa Gensou no Mama ni
TitleUnicode:花は幻想のままに
Artist:ZUN
ArtistUnicode:ZUN
Creator:Naofumi
Version:Futsuu
Source:東方花映塚 ~ Phantasmagoria of Flower View.
Tags:instrumental touhou 東方project th09 ending theme video game vgm The Flowers Remain in Fantasy Kaeidzuka
BeatmapID:2299089
BeatmapSetID:1100426

[Difficulty]
HPDrainRate:8
CircleSize:2
OverallDifficulty:4
ApproachRate:0
SliderMultiplier:1.4
SliderTickRate:1

[Events]
//Background and Video events
0,0,"bg.jpg",0,0
//Break Periods
//Storyboard Layer 0 (Background)
//Storyboard Layer 1 (Fail)
//Storyboard Layer 2 (Pass)
//Storyboard Layer 3 (Foreground)
//Storyboard Layer 4 (Overlay)
//Storyboard Sound Samples

[TimingPoints]
933,491.803278688525,4,1,0,50,1,0
16680,-100,4,1,0,50,0,0
46188,-100,4,1,0,50,0,0
48156,-100,4,1,0,50,0,0

[HitObjects]
256,192,933,5,8,0:0:0:0:
256,192,1916,1,8,0:0:0:0:
256,192,2408,1,8,0:0:0:0:
256,192,2900,1,0,0:0:0:0:
256,192,3883,1,0,0:0:0:0:
256,192,4867,1,0,0:0:0:0:
256,192,5359,1,8,0:0:0:0:
256,192,5851,1,0,0:0:0:0:
256,192,6834,1,0,0:0:0:0:
256,192,7818,1,8,0:0:0:0:
256,192,8310,1,8,0:0:0:0:
256,192,8801,1,8,0:0:0:0:
256,192,9047,1,0,0:0:0:0:
256,192,9539,1,8,0:0:0:0:
256,192,10031,1,8,0:0:0:0:
256,192,10277,1,0,0:0:0:0:
256,192,10769,1,8,0:0:0:0:
256,192,11752,1,0,0:0:0:0:
256,192,12244,1,8,0:0:0:0:
256,192,12736,1,8,0:0:0:0:
256,192,12982,1,0,0:0:0:0:
256,192,13719,1,8,0:0:0:0:
256,192,14703,1,0,0:0:0:0:
256,192,15195,1,0,0:0:0:0:
256,192,15441,1,0,0:0:0:0:
256,192,15687,1,8,0:0:0:0:
256,192,16670,1,8,0:0:0:0:
256,192,17162,1,8,0:0:0:0:
256,192,17408,1,8,0:0:0:0:
256,192,17654,1,8,0:0:0:0:
256,192,18146,1,8,0:0:0:0:
256,192,18637,1,8,0:0:0:0:
256,192,18883,1,0,0:0:0:0:
256,192,19129,1,8,0:0:0:0:
256,192,19621,1,0,0:0:0:0:
256,192,20605,1,8,0:0:0:0:
256,192,21096,1,0,0:0:0:0:
256,192,21588,1,8,0:0:0:0:
256,192,22080,1,0,0:0:0:0:
256,192,22572,1,0,0:0:0:0:
256,192,23064,1,8,0:0:0:0:
256,192,23310,1,0,0:0:0:0:
256,192,24539,1,0,0:0:0:0:
256,192,25031,1,8,0:0:0:0:
256,192,25277,1,0,0:0:0:0:
256,192,25523,1,8,0:0:0:0:
256,192,26014,1,0,0:0:0:0:
256,192,26506,1,8,0:0:0:0:
256,192,26998,1,8,0:0:0:0:
256,192,27244,1,0,0:0:0:0:
256,192,27490,1,8,0:0:0:0:
256,192,27982,1,0,0:0:0:0:
256,192,28473,1,8,0:0:0:0:
256,192,28965,1,0,0:0:0:0:
256,192,29457,1,8,0:0:0:0:
256,192,29703,1,8,0:0:0:0:
256,192,29949,1,0,0:0:0:0:
256,192,30441,1,8,0:0:0:0:
256,192,32408,1,8,0:0:0:0:
256,192,33392,1,8,0:0:0:0:
256,192,33883,1,8,0:0:0:0:
256,192,34375,1,8,0:0:0:0:
256,192,34621,1,8,0:0:0:0:
256,192,34867,1,8,0:0:0:0:
256,192,35359,1,8,0:0:0:0:
256,192,35605,1,8,0:0:0:0:
256,192,35851,1,0,0:0:0:0:
256,192,36342,1,8,0:0:0:0:
256,192,36834,1,0,0:0:0:0:
256,192,37326,1,8,0:0:0:0:
256,192,37572,1,8,0:0:0:0:
256,192,37818,1,0,0:0:0:0:
256,192,38310,1,0,0:0:0:0:
256,192,38801,1,8,0:0:0:0:
256,192,39047,1,0,0:0:0:0:
256,192,40277,1,8,0:0:0:0:
256,192,40769,1,8,0:0:0:0:
256,192,41260,1,0,0:0:0:0:
256,192,41752,1,8,0:0:0:0:
256,192,42244,1,8,0:0:0:0:
256,192,42490,1,8,0:0:0:0:
256,192,42736,1,8,0:0:0:0:
256,192,43228,1,8,0:0:0:0:
256,192,43965,1,0,0:0:0:0:
256,192,44211,1,0,0:0:0:0:
256,192,44703,1,0,0:0:0:0:
256,192,45195,1,8,0:0:0:0:
256,192,45687,1,0,0:0:0:0:
256,192,46178,1,8,0:0:0:0:
256,192,47162,1,0,0:0:0:0:
256,192,48146,1,12,0:0:0:0:
