osu file format v14

[General]
AudioFilename: audio.mp3
AudioLeadIn: 0
PreviewTime: 102539
Countdown: 0
SampleSet: Soft
StackLeniency: 0.4
Mode: 0
LetterboxInBreaks: 0
WidescreenStoryboard: 1

[Editor]
Bookmarks: 238586
DistanceSpacing: 1.3
BeatDivisor: 4
GridSize: 16
TimelineZoom: 2.1

[Metadata]
Title:Guuzou ni Sekai wo Yudanete ~ Idoratrize World
TitleUnicode:偶像に世界を委ねて 〜 Idoratrize World
Artist:ZUN
ArtistUnicode:ZUN
Creator:Yukiyo
Version:Shurelia's Lunatic
Source:東方鬼形獣 ~ Wily Beast and Weakest Creature.
Tags:th 17 th17 ost stage 6 Haniyasushin Keiki idolatrize touhou project toho Shurelia 埴安神袿姫 はにやすしん けいき 東方Project Team Shanghai Alice Kikeijuu 2hu
BeatmapID:2140092
BeatmapSetID:1019043

[Difficulty]
HPDrainRate:6.5
CircleSize:4.3
OverallDifficulty:8.5
ApproachRate:8.5
SliderMultiplier:2
SliderTickRate:1

[Events]
//Background and Video events
0,0,"keikibg.jpg",0,0
//Break Periods
//Storyboard Layer 0 (Background)
//Storyboard Layer 1 (Fail)
//Storyboard Layer 2 (Pass)
//Storyboard Layer 3 (Foreground)
//Storyboard Layer 4 (Overlay)
//Storyboard Sound Samples

[TimingPoints]
716,352.941176470588,4,2,1,60,1,0
716,-125,4,2,1,60,0,0
3451,-125,4,2,1,60,0,0
3539,-125,4,2,1,60,0,0
13333,-125,4,2,1,60,0,0
13421,-125,4,2,1,60,0,0
14039,-125,4,2,1,60,0,0
14127,-125,4,2,1,60,0,0
14745,-125,4,2,1,60,0,0
14833,-125,4,2,1,60,0,0
18980,-125,4,2,1,60,0,0
19068,-125,4,2,1,60,0,0
19686,-125,4,2,1,60,0,0
19774,-125,4,2,1,60,0,0
20392,-125,4,2,1,60,0,0
20480,-125,4,2,1,60,0,0
21098,-125,4,2,1,60,0,0
21186,-100,4,2,1,60,0,0
21804,-125,4,2,1,60,0,0
21892,-125,4,2,1,60,0,0
22510,-125,4,2,1,60,0,0
22598,-166.666666666667,4,2,1,60,0,0
23304,-100,4,2,1,70,0,0
24010,-200,4,2,1,70,0,0
24186,-100,4,2,1,70,0,0
24274,-200,4,2,1,70,0,0
24451,-100,4,2,1,70,0,0
24539,-200,4,2,1,70,0,0
24715,-100,4,2,1,70,0,0
24804,-200,4,2,1,70,0,0
24980,-100,4,2,1,70,0,0
25068,-66.6666666666667,4,2,1,70,0,0
25245,-100,4,2,1,70,0,0
26833,-200,4,2,1,70,0,0
27010,-100,4,2,1,70,0,0
27098,-200,4,2,1,70,0,0
27274,-100,4,2,1,70,0,0
27363,-200,4,2,1,70,0,0
27539,-100,4,2,1,70,0,0
27627,-200,4,2,1,70,0,0
27804,-100,4,2,1,70,0,0
27892,-66.6666666666667,4,2,1,70,0,0
27980,-100,4,2,1,70,0,0
28068,-100,4,2,1,70,0,0
29657,-200,4,2,1,70,0,0
29833,-100,4,2,1,70,0,0
29921,-200,4,2,1,70,0,0
30098,-100,4,2,1,70,0,0
30186,-200,4,2,1,70,0,0
30363,-100,4,2,1,70,0,0
30451,-200,4,2,1,70,0,0
30627,-100,4,2,1,70,0,0
30715,-66.6666666666667,4,2,1,70,0,0
30804,-100,4,2,1,70,0,0
30892,-100,4,2,1,70,0,0
32480,-200,4,2,1,70,0,0
32657,-100,4,2,1,70,0,0
32745,-200,4,2,1,70,0,0
32921,-100,4,2,1,70,0,0
33010,-200,4,2,1,70,0,0
33186,-100,4,2,1,70,0,0
33274,-200,4,2,1,70,0,0
33451,-100,4,2,1,70,0,0
33539,-66.6666666666667,4,2,1,70,0,0
34598,-166.666666666667,4,2,1,50,0,0
45892,-125,4,2,1,50,0,0
57186,-100,4,2,1,60,0,0
79774,-100,4,2,1,80,0,0
91068,-100,4,2,1,70,0,0
102715,-100,4,2,1,50,0,0
103068,352.941176470588,4,2,1,50,1,0
103068,-125,4,2,1,50,0,0
114362,-111.111111111111,4,2,1,50,0,0
125656,-100,4,2,1,70,0,1
148067,-100,4,2,1,70,0,0
148244,-100,4,2,1,70,0,1
170656,-100,4,2,1,70,0,0
170832,-90.9090909090909,4,2,1,80,0,1
193420,-125,4,2,1,50,0,0
199067,-111.111111111111,4,2,1,50,0,0
204715,-111.111111111111,4,2,1,70,0,0
216009,-100,4,2,1,70,0,0
225097,-100,4,2,1,70,0,0
225185,-83.3333333333333,4,2,1,70,0,0
225803,-100,4,2,1,70,0,0
225891,-100,4,2,1,70,0,0
226509,-100,4,2,1,70,0,0
226597,-125,4,2,1,70,0,0
227303,-100,4,2,1,70,0,0
228009,-200,4,2,1,70,0,0
228185,-100,4,2,1,70,0,0
228273,-200,4,2,1,70,0,0
228450,-100,4,2,1,70,0,0
228538,-200,4,2,1,70,0,0
228803,-200,4,2,1,70,0,0
228979,-100,4,2,1,70,0,0
229067,-66.6666666666667,4,2,1,70,0,0
229244,-100,4,2,1,70,0,0
230832,-200,4,2,1,70,0,0
231009,-200,4,2,1,70,0,0
231097,-200,4,2,1,70,0,0
231273,-200,4,2,1,70,0,0
231362,-200,4,2,1,70,0,0
231538,-200,4,2,1,70,0,0
231626,-200,4,2,1,70,0,0
231803,-100,4,2,1,70,0,0
231891,-66.6666666666667,4,2,1,70,0,0
232067,-100,4,2,1,70,0,0
233656,-200,4,2,1,70,0,0
233832,-200,4,2,1,70,0,0
233920,-200,4,2,1,70,0,0
234097,-200,4,2,1,70,0,0
234185,-200,4,2,1,70,0,0
234362,-200,4,2,1,70,0,0
234450,-200,4,2,1,70,0,0
234626,-100,4,2,1,70,0,0
234715,-66.6666666666667,4,2,1,70,0,0
234891,-100,4,2,1,70,0,0
236479,-200,4,2,1,70,0,0
236656,-200,4,2,1,70,0,0
236744,-200,4,2,1,70,0,0
236920,-200,4,2,1,70,0,0
237009,-200,4,2,1,70,0,0
237185,-200,4,2,1,70,0,0
237273,-200,4,2,1,70,0,0
237450,-100,4,2,1,70,0,0
237538,-66.6666666666667,4,2,1,70,0,0

[Colours]
Combo1 : 255,149,255
Combo2 : 111,255,111
Combo3 : 254,251,114
Combo4 : 112,233,254

[HitObjects]
45,47,716,6,0,B|171:26|271:196|386:105|386:105|286:141|250:236,1,560,2|0,3:2|0:2,0:0:0:0:
193,364,2127,1,4,3:3:0:0:
193,364,2304,1,4,3:3:0:0:
193,364,3186,2,0,P|252:373|311:366,1,120,4|0,3:3|0:0,0:0:0:0:
105,323,3539,6,0,B|263:353|338:213|468:287|468:287|418:193|455:111,1,560,2|0,3:2|0:2,0:0:0:0:
353,28,4951,2,0,P|346:67|341:107,1,80,4|0,3:3|0:3,0:0:0:0:
343,28,5480,2,0,P|336:67|331:107,1,80,4|0,3:3|0:0,0:0:0:0:
285,203,5833,1,0,0:0:0:0:
220,118,6010,2,0,P|181:110|143:101,1,80,4|0,3:3|0:0,0:0:0:0:
340,0,6363,6,0,B|376:117|231:112|231:203|231:203|313:170|362:283|459:248|459:248|421:261|405:289,1,560,4|0,3:3|0:2,0:0:0:0:
300,367,7774,1,4,3:3:0:0:
300,367,7951,1,4,3:3:0:0:
300,367,8657,1,2,0:0:0:0:
199,340,8833,2,0,P|160:329|120:322,1,80,4|2,3:3|0:2,0:0:0:0:
55,151,9186,6,0,P|129:280|275:246,2,320,2|2|2,3:2|0:2|3:2,0:0:0:0:
183,6,11304,2,0,P|170:84|169:164,1,160,2|0,3:2|0:0,0:0:0:0:
309,60,11833,1,0,0:2:0:0:
309,60,11921,1,0,0:2:0:0:
309,60,12010,6,0,B|240:103|118:68|71:98|71:98|105:179|33:231|46:293|46:293|109:298|126:351|186:352,1,600,2|0,3:2|0:0,0:0:0:0:
226,351,13421,2,0,P|333:267|469:284,1,280,2|0,3:2|0:0,0:0:0:0:
483,320,14127,2,0,P|449:186|476:50,1,280,2|0,0:2|0:0,0:0:0:0:
435,52,14833,6,0,B|271:120|71:90|71:90|174:108|245:160,1,560,2|0,3:2|0:2,0:0:0:0:
327,245,16245,2,0,P|329:203|332:165,1,80,4|0,3:3|0:0,0:0:0:0:
337,245,16774,1,4,3:3:0:0:
377,148,16951,1,2,0:2:0:0:
450,224,17127,1,2,0:2:0:0:
400,317,17304,2,0,P|361:324|325:340,1,80,4|2,3:3|0:0,0:0:0:0:
83,327,17657,6,0,P|334:256|206:28,1,600,2|0,3:2|0:0,0:0:0:0:
200,80,19068,2,0,P|325:137|399:254,1,280,2|0,3:2|0:0,0:0:0:0:
409,293,19774,2,0,P|371:163|427:21,1,280,2|0,0:0|0:0,0:0:0:0:
370,38,20480,6,0,P|231:47|93:25,1,280,2|0,3:2|0:0,0:0:0:0:
55,67,21186,2,0,P|228:91|402:84,1,350,2|0,3:2|0:0,0:0:0:0:
360,127,21892,2,0,P|220:127|82:104,1,280,2|0,3:2|0:0,0:0:0:0:
107,150,22598,2,0,P|149:163|194:171,1,89.9999972534181,2|0,3:2|0:0,0:0:0:0:
235,174,22951,5,8,3:2:0:0:
232,213,23039,1,8,0:2:0:0:
229,253,23127,1,8,0:2:0:0:
227,293,23215,1,8,0:2:0:0:
224,333,23304,5,12,3:2:0:0:
105,248,23480,1,0,0:0:0:0:
305,304,23657,2,0,P|354:299|402:286,1,100,8|0,3:2|0:0,0:0:0:0:
473,172,24010,6,0,P|477:147|476:122,1,50,8|0,3:2|0:0,0:0:0:0:
385,26,24274,2,0,P|384:50|387:75,1,50,8|0,3:2|0:0,0:0:0:0:
334,214,24539,2,0,P|337:189|336:164,1,50,8|0,3:2|0:0,0:0:0:0:
244,67,24804,2,0,P|243:91|246:116,1,50,8|0,3:2|0:0,0:0:0:0:
195,266,25068,2,0,P|192:229|185:192,1,75.0000028610231,8|0,3:2|0:2,0:0:0:0:
122,100,25245,6,0,P|109:147|103:197,1,100,8|8,0:2|3:2,0:0:0:0:
105,242,25510,1,8,0:2:0:0:
105,242,25598,1,8,0:2:0:0:
202,371,25774,1,8,3:2:0:0:
341,284,25951,1,8,0:2:0:0:
349,234,26039,1,8,0:2:0:0:
359,185,26127,5,12,3:2:0:0:
443,246,26304,1,8,3:2:0:0:
264,209,26480,2,0,P|214:204|165:194,1,100,8|0,3:2|0:0,0:0:0:0:
39,48,26833,6,0,P|63:53|88:57,1,50,8|0,3:2|0:0,0:0:0:0:
221,96,27098,2,0,P|196:101|171:105,1,50,8|0,3:2|0:0,0:0:0:0:
9,148,27363,2,0,P|33:153|58:157,1,50,8|0,3:2|0:0,0:0:0:0:
190,195,27627,2,0,P|165:200|140:204,1,50,8|0,3:2|0:0,0:0:0:0:
29,281,27892,2,0,P|65:290|102:295,1,75.0000028610231,8|0,3:2|0:2,0:0:0:0:
200,319,28068,6,0,P|206:269|216:220,1,100,8|8,0:2|3:2,0:0:0:0:
231,186,28333,1,8,3:2:0:0:
231,186,28421,1,8,0:2:0:0:
343,68,28598,1,8,3:2:0:0:
409,228,28774,1,8,0:2:0:0:
400,277,28863,1,8,0:2:0:0:
390,326,28951,5,8,3:2:0:0:
302,249,29127,1,8,0:2:0:0:
497,236,29304,2,0,P|485:187|454:148,1,100,8|0,3:2|0:0,0:0:0:0:
329,23,29657,6,0,P|331:47|338:71,1,50,8|0,3:2|0:0,0:0:0:0:
247,128,29921,2,0,P|261:148|279:165,1,50,8|0,3:2|0:0,0:0:0:0:
218,254,30186,2,0,P|240:264|265:269,1,50,8|0,3:2|0:0,0:0:0:0:
267,376,30451,2,0,P|291:373|315:366,1,50,8|0,3:2|0:0,0:0:0:0:
434,287,30715,2,0,P|437:249|435:212,1,75.0000028610231,8|0,3:2|0:2,0:0:0:0:
412,114,30892,6,0,P|363:105|316:89,1,100,8|8,0:2|3:2,0:0:0:0:
281,77,31157,1,8,0:2:0:0:
281,77,31245,1,8,0:2:0:0:
131,132,31421,1,8,3:2:0:0:
247,242,31598,1,8,0:2:0:0:
241,291,31686,1,8,0:0:0:0:
235,340,31774,5,8,3:2:0:0:
348,291,31951,1,8,3:2:0:0:
150,275,32127,2,0,P|146:225|145:175,1,100,8|0,3:2|0:0,0:0:0:0:
236,31,32480,6,0,P|233:55|226:79,1,50,8|0,3:2|0:0,0:0:0:0:
318,135,32745,2,0,P|303:155|285:172,1,50,8|0,3:2|0:0,0:0:0:0:
347,261,33010,2,0,P|324:271|299:276,1,50,8|0,3:2|0:0,0:0:0:0:
298,383,33274,2,0,P|273:380|249:373,1,50,8|0,3:2|0:0,0:0:0:0:
120,336,33539,6,0,P|152:317|180:292,1,75.0000028610231,8|0,3:2|0:2,0:0:0:0:
180,292,33715,2,0,P|147:273|119:248,1,75.0000028610231,8|0,0:2|0:2,0:0:0:0:
119,248,33892,2,0,P|151:229|179:204,1,75.0000028610231,8|0,3:2|0:0,0:0:0:0:
179,204,34068,2,0,P|146:185|118:160,1,75.0000028610231,8|0,0:2|0:0,0:0:0:0:
118,160,34245,2,0,P|150:141|178:116,1,75.0000028610231,8|0,3:2|0:0,0:0:0:0:
178,116,34421,2,0,P|145:97|117:72,1,75.0000028610231,8|0,0:2|0:0,0:0:0:0:
186,28,34598,6,0,P|265:38|305:40,1,119.999996337891,2|0,0:2|0:2,0:0:0:0:
434,117,35127,1,0,0:2:0:0:
424,145,35215,1,0,0:2:0:0:
412,173,35304,2,0,P|368:178|323:179,1,89.9999972534181,2|2,0:2|0:0,0:0:0:0:
136,221,35833,1,2,0:2:0:0:
108,231,35921,1,2,0:0:0:0:
80,241,36010,6,0,P|73:300|73:360,1,119.999996337891,2|0,0:2|0:2,0:0:0:0:
209,340,36539,1,2,0:2:0:0:
219,312,36627,1,2,0:0:0:0:
229,283,36715,2,0,P|273:279|313:298,1,89.9999972534181,2|2,0:2|0:0,0:0:0:0:
332,321,37068,1,0,0:0:0:0:
461,211,37245,1,2,0:2:0:0:
466,181,37333,1,2,0:0:0:0:
472,151,37421,6,0,P|412:147|352:138,1,119.999996337891,2|0,0:0|0:0,0:0:0:0:
187,54,37951,1,0,0:2:0:0:
157,49,38039,1,0,0:0:0:0:
127,42,38127,2,0,P|125:72|122:102,1,59.9999981689454,2|2,0:2|0:2,0:0:0:0:
26,195,38480,1,2,0:0:0:0:
79,315,38657,1,2,0:2:0:0:
108,319,38745,1,2,0:0:0:0:
138,322,38833,6,0,P|182:318|227:317,1,89.9999972534181,2|2,0:2|0:0,0:0:0:0:
454,248,39363,1,2,0:2:0:0:
425,239,39451,1,2,0:0:0:0:
393,231,39539,2,0,P|349:232|320:265,1,89.9999972534181,2|2,0:2|0:0,0:0:0:0:
312,295,39892,1,0,0:0:0:0:
160,242,40068,1,2,0:2:0:0:
163,212,40157,1,2,0:0:0:0:
168,182,40245,6,0,P|174:122|180:62,1,119.999996337891,2|2,0:2|0:2,0:0:0:0:
345,0,40774,1,2,0:2:0:0:
342,30,40863,1,0,0:0:0:0:
337,60,40951,2,0,P|330:119|324:179,1,119.999996337891,0|2,0:0|0:2,0:0:0:0:
469,315,41480,1,2,0:2:0:0:
439,318,41568,1,2,0:0:0:0:
409,323,41657,6,0,P|349:329|289:335,1,119.999996337891,2|0,0:2|0:0,0:0:0:0:
110,335,42186,1,0,0:2:0:0:
117,306,42274,1,0,0:2:0:0:
122,274,42363,2,0,P|121:230|91:197,1,89.9999972534181,2|2,0:2|0:0,0:0:0:0:
65,183,42715,1,0,0:0:0:0:
287,122,42892,1,2,0:2:0:0:
334,127,42980,1,2,0:0:0:0:
381,132,43068,6,0,P|434:159|487:187,1,119.999996337891,2|2,0:2|0:2,0:0:0:0:
433,325,43598,1,2,0:2:0:0:
404,317,43686,1,2,0:0:0:0:
374,310,43774,2,0,P|344:312|314:313,1,59.9999981689454,2|2,0:0|0:2,0:0:0:0:
183,319,44127,1,2,0:0:0:0:
35,197,44304,1,2,0:2:0:0:
60,212,44392,1,2,0:0:0:0:
85,225,44480,6,0,P|91:195|86:166,1,59.9999981689454,2|2,0:2|0:2,0:0:0:0:
141,44,44833,1,2,0:0:0:0:
282,38,45010,1,2,0:2:0:0:
294,64,45098,1,2,0:2:0:0:
309,89,45186,2,0,P|311:118|313:148,1,59.9999981689454,2|2,0:2|0:2,0:0:0:0:
276,237,45539,1,2,0:2:0:0:
336,312,45715,1,2,0:2:0:0:
365,307,45804,1,2,0:0:0:0:
396,300,45892,6,0,P|400:260|405:220,1,80,2|0,0:2|0:2,0:0:0:0:
438,65,46245,2,0,P|398:73|359:77,1,80,2|0,0:2|0:2,0:0:0:0:
319,68,46510,1,0,0:0:0:0:
318,68,46598,2,0,P|279:67|239:72,1,80,2|0,0:2|0:0,0:0:0:0:
205,95,46863,2,0,P|165:103|126:107,1,80,2|0,0:2|0:0,0:0:0:0:
89,123,47127,2,0,P|94:142|98:161,1,40,2|0,0:2|0:0,0:0:0:0:
161,329,47304,6,0,P|177:293|191:256,1,80,2|0,0:2|0:2,0:0:0:0:
387,374,47657,2,0,P|370:337|356:300,1,80,0|0,0:2|0:2,0:0:0:0:
344,261,47921,1,0,0:0:0:0:
344,261,48010,2,0,P|348:221|349:181,1,80,2|0,0:2|0:0,0:0:0:0:
334,144,48274,2,0,P|329:104|328:64,1,80,2|0,0:2|0:0,0:0:0:0:
349,29,48539,2,0,P|368:34|385:44,1,40,2|0,0:2|0:2,0:0:0:0:
495,147,48715,6,0,P|492:186|486:226,1,80,2|0,0:2|0:2,0:0:0:0:
347,355,49068,2,0,P|344:315|338:275,1,80,0|0,0:2|0:2,0:0:0:0:
302,258,49333,1,0,0:2:0:0:
301,258,49421,2,0,P|262:266|223:270,1,80,2|0,0:2|0:0,0:0:0:0:
191,295,49686,2,0,P|151:290|112:282,1,80,2|0,0:2|0:0,0:0:0:0:
72,277,49951,2,0,P|76:258|78:238,1,40,2|0,0:2|0:0,0:0:0:0:
101,84,50127,6,0,P|139:73|179:67,1,80,2|0,0:2|0:0,0:0:0:0:
214,48,50392,2,0,P|253:54|292:64,1,80,2|0,0:2|0:0,0:0:0:0:
330,76,50657,2,0,P|349:73|369:69,1,40,2|0,0:2|0:0,0:0:0:0:
480,212,50833,6,0,P|442:202|402:198,1,80,2|0,0:2|0:0,0:0:0:0:
367,218,51098,2,0,P|327:214|288:203,1,80,2|0,0:2|0:0,0:0:0:0:
249,193,51363,2,0,P|229:196|209:201,1,40,2|0,0:2|0:2,0:0:0:0:
19,305,51539,6,0,P|25:266|26:226,1,80,2|0,0:2|0:2,0:0:0:0:
8,78,51892,1,2,0:2:0:0:
176,98,52068,2,0,P|182:137|183:177,1,80,2|0,0:2|0:0,0:0:0:0:
180,273,52421,1,0,0:2:0:0:
238,349,52598,1,2,0:2:0:0:
309,285,52774,1,2,0:2:0:0:
461,356,52951,6,0,P|421:354|382:346,1,80,2|0,0:2|0:2,0:0:0:0:
309,285,53304,1,2,0:2:0:0:
478,176,53480,1,2,0:2:0:0:
478,176,53657,2,0,P|440:166|413:137,1,80,2|0,0:2|0:0,0:0:0:0:
396,101,53921,2,0,P|357:92|317:90,1,80,2|0,0:2|0:0,0:0:0:0:
284,114,54186,2,0,P|279:133|275:152,1,40,2|0,0:2|0:0,0:0:0:0:
228,336,54363,6,0,P|189:342|149:342,1,80,2|0,0:2|0:0,0:0:0:0:
25,237,54715,2,0,P|30:198|32:158,1,80,0|0,0:2|0:2,0:0:0:0:
31,118,54980,1,0,0:0:0:0:
31,118,55068,2,0,P|25:78|23:38,1,80,0|0,0:0|0:2,0:0:0:0:
170,225,55421,2,0,P|175:185|177:145,1,80,0|0,0:2|0:2,0:0:0:0:
183,105,55686,1,0,0:0:0:0:
183,105,55774,6,0,P|222:104|262:100,1,80,2|0,0:2|0:0,0:0:0:0:
386,67,56127,1,0,0:0:0:0:
460,168,56304,2,0,P|463:187|465:207,1,40,8|0,0:2|0:0,0:0:0:0:
468,365,56480,6,0,P|487:369|507:372,3,40,2|2|2|2,3:2|0:2|0:2|0:2,0:0:0:0:
420,351,56833,1,8,3:2:0:0:
382,341,56921,1,8,0:2:0:0:
343,333,57010,1,8,0:2:0:0:
303,328,57098,1,8,0:2:0:0:
263,322,57186,6,0,P|238:318|213:316,1,50,6|0,3:2|0:0,0:0:0:0:
145,342,57363,2,0,P|169:338|194:336,1,50,0|0,0:0|0:2,0:0:0:0:
239,247,57539,2,0,P|238:198|232:148,1,100,8|0,0:2|0:2,0:0:0:0:
166,35,57892,2,0,P|118:45|68:50,1,100,2|0,3:2|0:0,0:0:0:0:
12,84,58157,2,0,P|60:94|110:99,1,100,2|0,0:2|0:0,0:0:0:0:
157,161,58421,1,2,0:2:0:0:
251,60,58598,6,0,P|275:58|300:58,1,50,2|0,3:2|0:0,0:0:0:0:
376,30,58774,2,0,P|351:27|326:27,1,50,0|0,0:0|0:2,0:0:0:0:
363,104,58951,2,0,P|378:152|391:200,1,100,8|0,0:2|0:2,0:0:0:0:
305,338,59304,2,0,P|255:345|206:354,1,100,2|0,3:2|0:0,0:0:0:0:
132,311,59568,2,0,P|82:301|33:294,1,100,2|0,0:2|0:0,0:0:0:0:
102,216,59833,1,2,0:2:0:0:
216,117,60010,6,0,P|243:102|277:92,1,50,2|0,3:2|0:0,0:0:0:0:
253,32,60186,2,0,P|233:47|216:65,1,50,0|0,0:0|0:2,0:0:0:0:
319,2,60363,2,0,P|323:52|330:102,1,100,8|0,0:2|0:2,0:0:0:0:
393,363,60715,2,0,P|389:339|382:315,1,50,0|0,3:2|0:0,0:0:0:0:
433,322,60892,2,0,P|423:299|410:278,1,50,2|0,0:2|0:0,0:0:0:0:
446,216,61068,2,0,P|396:222|346:226,1,100,10|2,0:2|0:2,0:0:0:0:
98,246,61421,6,0,P|112:198|125:149,1,100,2|0,3:2|0:0,0:0:0:0:
188,25,61686,2,0,P|200:73|215:121,1,100,2|0,0:2|0:0,0:0:0:0:
286,227,61951,2,0,P|289:202|293:177,1,50,2|0,0:2|0:0,0:0:0:0:
353,38,62127,2,0,P|365:86|380:134,1,100,2|0,3:2|0:0,0:0:0:0:
467,192,62392,2,0,P|454:240|439:288,1,100,2|0,0:2|0:0,0:0:0:0:
320,364,62657,1,2,3:2:0:0:
320,364,62745,1,0,3:2:0:0:
320,364,62833,6,0,P|270:357|218:351,1,100,2|0,3:2|0:2,0:0:0:0:
74,378,63186,1,10,0:2:0:0:
140,266,63363,2,0,P|150:218|152:168,1,100,2|0,0:2|0:0,0:0:0:0:
45,38,63715,1,0,0:0:0:0:
45,38,63804,1,0,0:0:0:0:
44,38,63892,2,0,P|116:59|191:62,1,150,10|0,0:2|0:0,0:0:0:0:
409,78,64245,6,0,P|386:89|362:98,1,50,2|0,3:2|0:0,0:0:0:0:
296,108,64421,2,0,P|318:118|342:127,1,50,0|0,0:0|0:0,0:0:0:0:
409,163,64598,2,0,P|409:212|400:262,1,100,8|2,0:2|0:2,0:0:0:0:
228,181,64951,2,0,P|277:181|324:197,1,100,2|0,3:2|0:0,0:0:0:0:
323,246,65215,2,0,P|317:296|313:346,1,100,2|0,0:2|0:0,0:0:0:0:
277,381,65480,1,2,0:2:0:0:
74,283,65657,6,0,P|80:260|85:234,1,50,2|0,3:2|0:0,0:0:0:0:
110,185,65833,2,0,P|115:209|121:233,1,50,0|0,0:0|0:0,0:0:0:0:
167,295,66010,1,8,0:2:0:0:
248,151,66186,2,0,P|296:141|346:145,1,100,2|0,0:2|0:0,0:0:0:0:
436,208,66539,1,0,0:0:0:0:
413,315,66715,1,10,0:2:0:0:
303,327,66892,1,2,0:2:0:0:
198,201,67068,6,0,P|195:226|189:250,1,50,2|0,3:2|0:0,0:0:0:0:
138,260,67245,2,0,P|140:284|147:308,1,50,0|0,0:2|0:0,0:0:0:0:
91,246,67421,2,0,P|89:196|79:147,1,100,10|0,0:2|0:2,0:0:0:0:
32,22,67686,1,0,0:0:0:0:
32,22,67774,2,0,P|19:19|7:17,10,25,8|8|8|8|8|8|8|8|8|8|8,0:2|0:0|3:2|0:0|0:2|0:0|0:2|0:0|0:2|0:0|3:2,0:0:0:0:
135,21,68304,1,8,0:2:0:0:
194,21,68392,1,8,0:2:0:0:
254,22,68480,6,0,P|329:32|404:33,1,150,2|0,3:2|0:2,0:0:0:0:
365,116,68833,2,0,P|413:102|463:100,1,100,10|0,0:2|0:2,0:0:0:0:
294,230,69186,2,0,P|294:180|279:132,1,100,2|0,3:2|0:0,0:0:0:0:
246,94,69451,2,0,P|203:68|154:58,1,100,2|0,0:2|0:0,0:0:0:0:
108,77,69715,1,2,0:2:0:0:
73,113,69804,1,0,0:0:0:0:
61,161,69892,6,0,P|71:183|79:207,1,50,2|0,3:2|0:0,0:0:0:0:
30,213,70068,2,0,P|50:227|68:244,1,50,0|0,0:0|0:0,0:0:0:0:
150,295,70245,2,0,P|158:246|158:196,1,100,8|0,0:2|0:2,0:0:0:0:
256,318,70598,2,0,P|304:306|354:302,1,100,2|0,3:2|0:0,0:0:0:0:
391,336,70863,2,0,P|440:331|489:320,1,100,2|0,0:2|0:0,0:0:0:0:
505,273,71127,1,2,0:2:0:0:
438,38,71304,6,0,P|462:34|487:31,1,50,2|0,3:2|0:0,0:0:0:0:
418,80,71480,2,0,P|393:76|368:73,1,50,0|0,0:0|0:2,0:0:0:0:
387,152,71657,2,0,P|337:144|287:143,1,100,8|0,0:2|0:2,0:0:0:0:
195,175,71921,1,0,0:2:0:0:
194,174,72010,2,0,P|144:167|99:147,1,100,2|0,3:2|0:0,0:0:0:0:
59,118,72274,2,0,P|56:167|47:217,1,100,2|0,0:2|0:0,0:0:0:0:
39,265,72539,2,0,P|63:266|88:270,1,50,2|0,0:2|0:0,0:0:0:0:
296,231,72715,6,0,P|299:182|314:134,1,100,2|0,3:2|0:0,0:0:0:0:
340,91,72980,2,0,P|385:69|433:57,1,100,2|0,0:2|0:0,0:0:0:0:
482,68,73245,2,0,P|494:89|505:112,1,50,0|0,0:2|0:0,0:0:0:0:
392,271,73421,2,0,P|343:259|293:257,1,100,2|0,3:2|0:0,0:0:0:0:
253,288,73686,2,0,P|203:286|154:274,1,100,2|0,0:2|0:0,0:0:0:0:
105,286,73951,2,0,P|81:293|56:296,1,50,2|0,0:2|0:0,0:0:0:0:
133,200,74127,6,0,P|121:126|92:57,1,150,2|0,3:2|0:0,0:0:0:0:
106,8,74480,2,0,P|131:15|156:17,1,50,8|0,0:2|0:0,0:0:0:0:
269,64,74657,2,0,P|316:48|365:42,1,100,2|0,0:2|0:0,0:0:0:0:
470,102,75010,1,0,0:0:0:0:
389,190,75186,1,10,0:2:0:0:
470,278,75363,1,2,0:2:0:0:
335,129,75539,6,0,P|327:204|314:278,1,150,2|0,3:2|0:0,0:0:0:0:
278,314,75892,2,0,P|253:314|228:307,1,50,10|0,0:2|0:0,0:0:0:0:
51,225,76068,2,0,P|75:224|100:231,1,50,2|0,0:2|0:0,0:0:0:0:
211,179,76245,2,0,P|208:129|202:79,1,100,2|0,0:2|0:0,0:0:0:0:
181,33,76510,2,0,P|230:31|280:24,1,100,2|0,0:2|0:0,0:0:0:0:
329,13,76774,1,2,0:2:0:0:
446,93,76951,6,0,P|445:118|441:142,1,50,2|0,3:2|0:0,0:0:0:0:
392,61,77127,2,0,P|392:85|397:110,1,50,0|0,0:0|0:0,0:0:0:0:
384,186,77304,2,0,P|335:178|285:175,1,100,8|0,0:2|0:2,0:0:0:0:
241,199,77568,1,0,0:0:0:0:
240,198,77657,2,0,P|215:207|192:212,1,50,0|0,0:0|0:0,0:0:0:0:
150,252,77833,2,0,P|175:260|198:265,1,50,0|0,0:0|0:0,0:0:0:0:
269,348,78010,2,0,P|263:299|287:255,1,100,8|0,0:2|0:2,0:0:0:0:
336,266,78274,1,0,0:0:0:0:
336,266,78363,6,0,P|362:263|385:257,1,50,0|0,3:2|0:0,0:0:0:0:
504,221,78539,2,0,P|477:218|454:212,1,50,0|0,0:2|0:0,0:0:0:0:
384,180,78715,2,0,P|381:131|375:81,1,100,8|8,0:2|0:2,0:0:0:0:
293,23,79068,2,0,P|297:34|298:47,2,25,8|8|8,3:2|0:0|0:2,0:0:0:0:
203,27,79245,2,0,P|213:35|220:45,2,25,8|8|8,0:2|0:0|0:2,0:0:0:0:
128,75,79421,2,0,P|140:77|151:83,2,25,8|8|8,3:2|0:0|0:2,0:0:0:0:
87,154,79598,2,0,P|98:150|111:149,2,25,8|8|8,0:2|0:0|0:2,0:0:0:0:
111,248,79774,6,0,P|132:261|155:270,1,50,12|0,3:2|0:0,0:0:0:0:
360,324,80127,2,0,P|338:337|315:346,1,50,8|0,3:2|0:0,0:0:0:0:
111,208,80480,6,0,P|132:221|155:230,1,50,8|0,3:2|0:0,0:0:0:0:
360,284,80745,2,0,P|338:297|315:306,1,50,8|0,3:2|0:0,0:0:0:0:
111,168,81010,2,0,P|132:181|155:190,1,50,8|0,3:2|0:0,0:0:0:0:
360,244,81274,2,0,P|338:257|315:266,1,50,8|0,3:2|0:0,0:0:0:0:
167,107,81539,2,0,P|165:78|166:47,1,50,8|0,3:2|3:2,0:0:0:0:
280,25,81715,2,0,P|291:29|302:35,2,25,8|8|8,3:2|0:0|0:2,0:0:0:0:
264,98,81892,2,0,P|312:81|361:78,1,100,8|0,3:2|0:2,0:0:0:0:
409,93,82157,2,0,P|401:143|399:193,1,100,8|0,3:2|0:2,0:0:0:0:
384,240,82421,2,0,P|360:244|338:255,1,50,8|0,3:2|0:2,0:0:0:0:
116,347,82598,6,0,P|110:322|104:298,1,50,8|0,3:2|0:0,0:0:0:0:
229,157,82951,2,0,P|223:181|218:206,1,50,8|0,3:2|0:0,0:0:0:0:
116,307,83304,6,0,P|110:282|104:258,1,50,8|0,3:2|0:0,0:0:0:0:
229,117,83568,2,0,P|222:141|217:165,1,50,8|0,3:2|0:0,0:0:0:0:
116,267,83833,6,0,P|110:242|104:218,1,50,8|0,3:2|0:2,0:0:0:0:
229,77,84010,2,0,P|222:101|217:125,1,50,8|0,3:2|0:2,0:0:0:0:
84,56,84274,6,0,P|89:80|95:104,1,50,8|0,3:2|0:2,0:0:0:0:
152,214,84539,2,0,P|147:225|141:236,2,25,8|8|8,3:2|3:2|3:2,0:0:0:0:
172,193,84715,2,0,P|221:181|271:178,1,100,8|8,3:2|0:2,0:0:0:0:
375,236,85068,1,8,3:2:0:0:
300,327,85245,2,0,P|276:331|251:329,1,50,8|8,0:2|0:2,0:0:0:0:
19,376,85421,6,0,P|17:301|0:228,1,150,8|0,3:2|0:2,0:0:0:0:
148,137,85774,2,0,P|130:210|129:285,1,150,8|0,3:2|0:2,0:0:0:0:
19,337,86127,2,0,P|20:287|12:237,1,100,8|0,3:2|0:2,0:0:0:0:
148,97,86392,2,0,P|135:145|127:194,1,100,8|0,3:2|0:2,0:0:0:0:
19,297,86657,2,0,P|20:247|12:197,1,100,8|0,3:2|0:2,0:0:0:0:
148,57,86921,2,0,P|135:105|127:154,1,100,8|0,3:2|0:2,0:0:0:0:
20,30,87186,6,0,P|44:23|68:17,1,50,8|0,3:2|0:2,0:0:0:0:
165,0,87363,2,0,P|158:24|152:48,1,50,8|0,3:2|0:2,0:0:0:0:
218,97,87539,2,0,P|241:88|265:83,1,50,8|0,3:2|0:2,0:0:0:0:
335,35,87715,2,0,P|382:20|432:21,1,100,8|0,3:2|0:2,0:0:0:0:
401,213,88068,1,8,0:2:0:0:
401,213,88157,1,8,0:2:0:0:
400,212,88245,6,0,P|326:214|253:230,1,150,8|0,3:2|0:0,0:0:0:0:
104,309,88598,2,0,P|178:310|251:326,1,150,8|0,3:2|0:2,0:0:0:0:
400,172,88951,2,0,P|350:173|300:178,1,100,8|0,3:2|0:2,0:0:0:0:
104,269,89215,2,0,P|153:270|203:275,1,100,8|0,3:2|0:2,0:0:0:0:
347,131,89480,2,0,P|323:129|298:131,1,50,8|0,3:2|0:2,0:0:0:0:
104,229,89657,2,0,P|153:230|203:235,1,100,8|0,3:2|0:2,0:0:0:0:
324,308,89921,6,0,P|373:303|421:288,1,100,8|0,3:2|0:2,0:0:0:0:
472,176,90186,1,8,3:2:0:0:
472,176,90363,2,0,P|462:127|447:80,1,100,8|8,3:2|3:2,0:0:0:0:
345,143,90715,1,8,3:2:0:0:
274,49,90892,2,0,P|249:46|224:48,1,50,8|8,0:2|0:2,0:0:0:0:
89,108,91068,6,0,P|83:157|91:206,1,100,2|0,3:2|0:2,0:0:0:0:
140,316,91421,1,10,0:2:0:0:
140,316,91598,1,2,0:2:0:0:
250,269,91774,2,0,P|296:286|346:290,1,100,2|0,3:2|0:2,0:0:0:0:
512,121,92127,2,0,P|465:138|415:142,1,100,10|0,0:2|0:2,0:0:0:0:
299,109,92480,5,2,3:2:0:0:
299,109,92657,1,2,0:2:0:0:
127,0,92833,2,0,P|126:49|114:98,1,100,10|0,0:2|0:2,0:0:0:0:
11,159,93186,1,2,3:2:0:0:
109,228,93363,1,2,0:2:0:0:
11,159,93539,1,10,0:2:0:0:
109,228,93715,1,2,0:2:0:0:
19,332,93892,6,0,P|68:333|118:342,1,100,2|0,3:2|0:2,0:0:0:0:
233,375,94245,1,10,0:2:0:0:
233,375,94421,1,2,0:2:0:0:
298,274,94598,2,0,P|304:224|306:174,1,100,2|0,3:2|0:2,0:0:0:0:
396,6,94951,2,0,P|398:56|404:105,1,100,10|0,0:2|0:2,0:0:0:0:
456,214,95304,5,2,3:2:0:0:
456,214,95480,1,2,0:2:0:0:
374,365,95657,2,0,P|325:365|275:372,1,100,10|0,0:2|0:2,0:0:0:0:
183,294,96010,1,2,3:2:0:0:
294,249,96186,1,2,0:2:0:0:
183,294,96363,1,10,0:2:0:0:
294,249,96539,1,2,0:2:0:0:
202,174,96715,6,0,P|208:124|210:74,1,100,2|0,3:2|0:2,0:0:0:0:
96,111,97068,1,10,0:2:0:0:
96,111,97245,1,2,0:2:0:0:
44,219,97421,2,0,P|43:243|37:318,1,100,10|0,3:2|0:2,0:0:0:0:
56,364,97686,2,0,P|105:357|155:357,1,100,8|0,3:2|0:2,0:0:0:0:
204,368,97951,1,10,3:2:0:0:
269,267,98127,5,2,3:2:0:0:
269,267,98304,1,2,0:0:0:0:
434,331,98480,2,0,P|427:282|425:232,1,100,10|0,0:2|0:2,0:0:0:0:
465,119,98833,1,2,3:2:0:0:
359,60,99010,1,2,0:2:0:0:
465,119,99186,1,10,0:2:0:0:
359,60,99363,1,2,0:2:0:0:
262,130,99539,6,0,P|212:128|162:121,1,100,2|0,3:2|0:2,0:0:0:0:
50,78,99892,1,10,0:2:0:0:
50,78,100068,1,2,0:2:0:0:
44,198,100245,2,0,P|93:198|143:204,1,100,10|0,3:2|0:2,0:0:0:0:
184,233,100510,2,0,P|233:232|283:226,1,100,8|0,3:2|0:2,0:0:0:0:
330,208,100774,1,10,3:2:0:0:
280,98,100951,5,2,3:2:0:0:
280,98,101127,1,2,0:2:0:0:
467,55,101304,2,0,P|464:104|458:154,1,100,10|0,0:0|0:2,0:0:0:0:
430,271,101657,1,2,3:2:0:0:
320,318,101833,1,2,0:2:0:0:
430,271,102010,1,10,0:2:0:0:
320,318,102186,1,2,0:2:0:0:
319,318,103068,6,0,P|241:300|162:291,1,160,2|0,3:2|0:2,0:0:0:0:
0,210,103597,2,0,P|78:192|157:183,1,160,2|0,0:2|0:2,0:0:0:0:
252,197,104126,1,2,0:2:0:0:
333,145,104303,1,0,0:2:0:0:
164,5,104479,6,0,P|153:84|154:163,1,160,2|0,3:2|0:2,0:0:0:0:
252,283,105009,2,0,P|253:203|241:124,1,160,2|0,0:2|0:2,0:0:0:0:
281,37,105538,1,2,0:2:0:0:
377,40,105715,1,0,0:2:0:0:
246,147,105891,6,0,P|325:146|403:164,1,160,2|0,3:2|0:2,0:0:0:0:
251,262,106420,2,0,P|171:260|93:278,1,160,2|0,0:2|0:2,0:0:0:0:
181,361,106950,1,2,0:2:0:0:
300,374,107126,1,2,0:2:0:0:
468,227,107303,6,0,P|479:148|479:68,1,160,2|0,3:2|0:2,0:0:0:0:
319,126,107832,2,0,P|356:139|396:144,1,80,2|2,0:2|0:2,0:0:0:0:
375,26,108185,1,2,0:2:0:0:
254,33,108362,1,0,0:0:0:0:
160,108,108538,2,0,P|139:106|123:98,1,40,2|0,0:2|0:0,0:0:0:0:
81,17,108715,6,0,P|82:96|71:176,1,160,2|0,3:2|0:2,0:0:0:0:
31,365,109244,2,0,P|108:347|188:340,1,160,2|2,0:2|0:2,0:0:0:0:
281,366,109773,1,2,0:2:0:0:
372,336,109950,1,2,0:2:0:0:
265,246,110126,6,0,P|185:246|106:237,1,160,2|0,3:2|0:2,0:0:0:0:
128,23,110656,2,0,P|168:92|189:168,1,160,2|2,0:2|0:2,0:0:0:0:
181,264,111185,1,2,0:2:0:0:
232,345,111362,1,2,0:2:0:0:
274,212,111538,6,0,P|352:223|432:222,1,160,2|2,3:2|0:2,0:0:0:0:
207,146,112068,2,0,P|285:157|365:156,1,160,2|2,0:2|0:2,0:0:0:0:
447,106,112597,1,2,0:2:0:0:
432,10,112773,1,2,0:2:0:0:
181,62,112950,6,0,P|182:141|163:219,1,160,2|0,3:2|0:2,0:0:0:0:
111,300,113479,1,0,0:0:0:0:
49,124,113656,1,2,0:2:0:0:
49,124,114009,1,0,0:2:0:0:
91,38,114185,1,2,0:2:0:0:
130,36,114273,1,2,0:2:0:0:
170,32,114362,6,0,P|212:44|257:47,1,89.9999972534181,6|0,3:2|0:2,0:0:0:0:
310,36,114626,1,2,0:0:0:0:
310,36,114715,1,2,0:2:0:0:
443,107,114891,2,0,P|401:185|382:273,1,179.999994506836,2|2,0:2|0:2,0:0:0:0:
276,355,115420,1,2,0:2:0:0:
169,333,115597,1,2,0:2:0:0:
91,257,115773,6,0,P|103:215|102:170,1,89.9999972534181,2|0,3:2|0:2,0:0:0:0:
80,121,116038,1,2,0:0:0:0:
80,121,116126,1,2,0:2:0:0:
181,33,116303,2,0,P|266:60|355:73,1,179.999994506836,2|2,0:2|0:2,0:0:0:0:
462,54,116832,1,2,0:2:0:0:
477,161,117009,1,2,0:2:0:0:
356,293,117185,6,0,P|348:248|336:205,1,89.9999972534181,2|0,3:2|0:2,0:0:0:0:
297,168,117450,1,2,0:0:0:0:
297,168,117538,1,2,0:2:0:0:
100,224,117715,2,0,P|189:229|268:271,1,179.999994506836,2|2,0:2|0:2,0:0:0:0:
288,378,118244,1,2,0:2:0:0:
184,344,118420,1,2,0:2:0:0:
89,202,118597,6,0,P|94:158|96:113,1,89.9999972534181,2|0,3:2|0:0,0:0:0:0:
50,14,118950,1,2,0:2:0:0:
156,28,119126,1,2,0:2:0:0:
263,14,119303,1,2,0:2:0:0:
361,56,119479,1,2,0:2:0:0:
361,56,119832,1,2,0:2:0:0:
383,94,119920,1,2,0:0:0:0:
407,132,120009,6,0,P|398:176|396:221,1,89.9999972534181,6|0,3:2|0:0,0:0:0:0:
419,269,120273,1,2,0:0:0:0:
419,269,120362,1,2,0:2:0:0:
281,350,120538,2,0,P|201:310|112:300,1,179.999994506836,2|2,0:2|0:2,0:0:0:0:
32,374,121067,1,2,0:2:0:0:
20,266,121244,1,2,0:2:0:0:
145,125,121420,6,0,P|187:138|232:142,1,89.9999972534181,2|0,0:2|0:0,0:0:0:0:
286,134,121685,1,2,0:0:0:0:
286,134,121773,1,2,0:2:0:0:
364,59,121950,1,2,0:2:0:0:
470,75,122126,1,2,0:2:0:0:
419,228,122391,1,2,0:2:0:0:
290,325,122656,1,2,0:2:0:0:
200,258,122832,6,0,P|153:254|111:241,1,89.9999972534181,6|0,3:2|0:2,0:0:0:0:
30,207,123185,1,0,0:2:0:0:
159,33,123538,1,2,0:2:0:0:
266,43,123715,1,2,0:0:0:0:
371,72,123891,1,2,0:2:0:0:
429,278,124244,6,0,P|385:276|341:286,1,89.9999972534181,4|0,3:2|0:2,0:0:0:0:
252,348,124597,1,0,0:2:0:0:
252,348,124950,1,0,3:2:0:0:
207,343,125038,1,0,3:2:0:0:
162,335,125126,1,0,3:2:0:0:
117,326,125215,1,0,3:2:0:0:
72,317,125303,2,0,P|70:249|66:182,1,134.999995880127,8|0,0:2|0:2,0:0:0:0:
24,57,125656,5,6,3:2:0:0:
24,57,125744,1,2,0:2:0:0:
24,57,125832,1,2,0:2:0:0:
139,26,126009,2,0,P|186:45|235:56,1,100,8|0,0:2|0:2,0:0:0:0:
446,137,126362,2,0,P|399:155|350:166,1,100,2|0,3:2|0:2,0:0:0:0:
291,158,126626,2,0,P|244:139|195:128,1,100,2|0,0:2|0:0,0:0:0:0:
145,162,126891,1,2,0:2:0:0:
135,332,127067,5,2,3:2:0:0:
135,332,127156,1,2,0:0:0:0:
135,332,127244,1,2,0:2:0:0:
254,263,127420,2,0,P|304:258|354:258,1,100,8|0,0:2|0:2,0:0:0:0:
481,50,127773,2,0,P|431:56|381:57,1,100,2|0,3:2|0:2,0:0:0:0:
324,37,128038,2,0,P|274:37|224:44,1,100,0|0,0:0|0:0,0:0:0:0:
169,68,128303,1,2,0:2:0:0:
100,166,128479,5,2,3:2:0:0:
100,166,128567,1,2,0:0:0:0:
100,166,128656,1,2,0:0:0:0:
274,139,128832,2,0,P|283:188|284:238,1,100,8|0,0:2|0:2,0:0:0:0:
206,330,129185,1,0,3:2:0:0:
98,275,129362,1,2,0:2:0:0:
67,159,129538,1,10,0:2:0:0:
222,33,129715,1,2,0:2:0:0:
222,33,129803,1,2,0:0:0:0:
222,33,129891,6,0,P|269:52|318:62,1,100,2|0,3:2|0:2,0:0:0:0:
374,83,130156,2,0,P|363:132|358:182,1,100,2|0,0:2|0:0,0:0:0:0:
378,237,130420,2,0,P|373:262|367:286,1,50,2|0,0:2|0:2,0:0:0:0:
247,362,130597,2,0,P|246:312|238:262,1,100,2|0,3:2|0:2,0:0:0:0:
194,218,130862,2,0,P|145:227|95:229,1,100,2|0,0:2|0:0,0:0:0:0:
39,207,131126,2,0,P|35:183|33:158,1,50,2|0,0:2|0:0,0:0:0:0:
41,343,131303,5,2,3:2:0:0:
41,343,131391,1,2,0:0:0:0:
41,343,131479,1,2,0:0:0:0:
259,157,131656,1,10,0:2:0:0:
193,217,131832,2,0,P|181:169|177:119,1,100,2|0,0:2|3:2,0:0:0:0:
246,21,132185,1,0,0:2:0:0:
357,66,132362,2,0,P|352:115|340:164,1,100,10|2,0:2|0:2,0:0:0:0:
314,244,132626,1,2,0:0:0:0:
314,244,132715,6,0,B|259:273|181:237|118:271,1,200,2|8,3:2|0:2,0:0:0:0:
178,375,133420,2,0,P|225:360|275:356,1,100,2|0,3:2|0:2,0:0:0:0:
334,369,133685,2,0,P|383:365|431:349,1,100,2|0,0:2|0:0,0:0:0:0:
476,309,133950,2,0,P|471:284|467:259,1,50,2|0,0:2|0:2,0:0:0:0:
432,75,134126,5,2,3:2:0:0:
432,75,134215,1,2,0:0:0:0:
432,75,134303,1,2,0:2:0:0:
347,159,134479,1,10,0:2:0:0:
238,103,134656,2,0,P|189:111|139:116,1,100,2|0,0:2|0:0,0:0:0:0:
26,156,135009,1,2,0:2:0:0:
130,214,135185,1,10,0:2:0:0:
26,275,135362,1,2,0:2:0:0:
130,334,135538,5,2,3:2:0:0:
130,334,135626,1,2,0:0:0:0:
130,334,135715,1,2,0:2:0:0:
238,283,135891,1,8,0:2:0:0:
286,269,135979,1,8,0:2:0:0:
335,270,136067,1,8,0:2:0:0:
379,294,136156,1,8,0:2:0:0:
420,321,136244,6,0,P|444:324|469:327,1,50,8|0,3:2|0:0,0:0:0:0:
443,247,136420,2,0,P|466:238|489:227,1,50,8|0,0:2|0:2,0:0:0:0:
432,166,136597,2,0,P|447:146|462:126,1,50,8|0,3:2|0:0,0:0:0:0:
380,103,136773,2,0,P|383:78|386:53,1,50,8|0,0:2|0:2,0:0:0:0:
336,204,136950,6,0,P|261:197|186:197,1,150,0|0,3:2|0:0,0:0:0:0:
212,143,137303,2,0,P|163:147|114:157,1,100,10|0,0:2|0:2,0:0:0:0:
30,315,137656,2,0,P|80:319|128:333,1,100,2|0,3:2|0:2,0:0:0:0:
184,355,137920,2,0,P|231:340|281:336,1,100,2|0,0:2|0:0,0:0:0:0:
329,371,138185,2,0,P|354:369|379:363,1,50,2|0,0:2|0:2,0:0:0:0:
471,262,138362,5,2,3:2:0:0:
471,262,138450,1,2,0:0:0:0:
471,262,138538,1,2,0:0:0:0:
455,142,138715,2,0,P|464:93|472:43,1,100,8|0,0:2|0:2,0:0:0:0:
292,23,139067,2,0,P|282:71|274:121,1,100,2|0,3:2|0:2,0:0:0:0:
261,180,139332,2,0,P|211:180|161:186,1,100,2|0,0:2|0:0,0:0:0:0:
100,181,139597,2,0,P|91:204|80:226,1,50,2|0,0:2|0:2,0:0:0:0:
27,353,139773,5,2,3:2:0:0:
27,353,139862,1,2,0:2:0:0:
27,353,139950,1,2,0:2:0:0:
138,312,140126,2,0,P|188:318|238:320,1,100,8|2,0:2|0:2,0:0:0:0:
325,260,140391,1,2,0:2:0:0:
325,260,140479,2,0,P|317:210|315:160,1,100,2|0,3:2|0:2,0:0:0:0:
330,102,140744,2,0,P|281:112|231:119,1,100,2|0,0:2|0:0,0:0:0:0:
175,96,141009,2,0,P|173:72|169:47,1,50,2|0,0:2|0:2,0:0:0:0:
29,316,141185,6,0,P|79:308|129:304,1,100,2|0,3:2|0:2,0:0:0:0:
187,321,141450,2,0,P|236:317|286:309,1,100,2|0,0:2|0:0,0:0:0:0:
336,274,141715,2,0,P|360:271|385:267,1,50,2|0,0:2|0:2,0:0:0:0:
449,167,141891,2,0,P|399:170|349:178,1,100,2|0,3:2|0:2,0:0:0:0:
293,200,142156,2,0,P|243:207|193:211,1,100,0|0,0:0|0:0,0:0:0:0:
137,189,142420,2,0,P|112:192|87:196,1,50,0|0,0:2|0:2,0:0:0:0:
156,46,142597,6,0,P|205:38|255:34,1,100,2|0,3:2|0:2,0:0:0:0:
374,52,142950,1,8,0:2:0:0:
241,229,143126,2,0,P|235:179|224:130,1,100,2|0,0:2|0:0,0:0:0:0:
110,91,143479,1,2,0:2:0:0:
43,291,143656,1,10,0:2:0:0:
131,209,143832,1,2,0:2:0:0:
204,313,144009,6,0,P|253:309|302:298,1,100,2|0,3:2|0:2,0:0:0:0:
407,239,144362,1,10,0:2:0:0:
510,299,144538,1,2,0:2:0:0:
475,140,144715,2,0,P|468:90|458:41,1,100,2|0,3:2|0:2,0:0:0:0:
403,16,144979,2,0,P|353:24|305:37,1,100,2|0,0:2|0:0,0:0:0:0:
254,70,145244,1,2,0:2:0:0:
64,43,145420,5,2,3:2:0:0:
64,43,145509,1,2,0:2:0:0:
64,43,145597,1,2,0:2:0:0:
148,15,145773,2,0,P|146:64|131:112,1,100,8|0,0:2|0:2,0:0:0:0:
58,251,146126,1,2,3:2:0:0:
58,251,146215,1,2,3:2:0:0:
58,251,146303,1,2,3:2:0:0:
172,352,146479,2,0,P|222:345|272:345,1,100,8|0,0:2|0:2,0:0:0:0:
448,383,146832,5,0,3:2:0:0:
448,383,146920,1,2,0:0:0:0:
448,383,147009,1,2,0:0:0:0:
403,209,147185,2,0,P|427:213|452:214,3,50,8|8|8|8,0:2|0:0|0:2|3:2,0:0:0:0:
385,158,147538,2,0,P|409:149|432:138,3,50,8|8|8|8,3:2|0:2|0:2|3:2,0:0:0:0:
341,136,147891,1,8,3:2:0:0:
292,125,147979,1,8,0:2:0:0:
242,126,148067,1,8,0:2:0:0:
193,139,148156,1,8,0:2:0:0:
153,168,148244,6,0,P|150:119|142:69,1,100,6|0,3:2|0:0,0:0:0:0:
30,24,148597,1,10,0:2:0:0:
66,243,148773,2,0,P|115:257|159:280,1,100,2|0,0:0|3:0,0:0:0:0:
247,362,149126,1,2,0:0:0:0:
272,244,149303,1,10,0:2:0:0:
368,315,149479,1,2,0:0:0:0:
390,325,149567,1,2,0:0:0:0:
411,336,149656,6,0,P|403:287|398:237,1,100,2|0,3:2|0:0,0:0:0:0:
390,46,150009,1,10,0:2:0:0:
283,133,150185,2,0,P|233:141|183:143,1,100,2|0,0:0|3:0,0:0:0:0:
33,117,150538,1,2,0:0:0:0:
124,38,150715,1,10,0:2:0:0:
145,157,150891,1,2,0:0:0:0:
139,181,150979,1,2,0:0:0:0:
134,205,151067,6,0,P|141:254|144:304,1,100,2|0,3:2|0:0,0:0:0:0:
25,269,151420,1,10,0:2:0:0:
137,115,151597,2,0,P|186:106|235:102,1,100,2|0,0:0|3:0,0:0:0:0:
347,148,151950,1,2,0:0:0:0:
321,31,152126,1,10,0:2:0:0:
478,122,152303,1,2,0:0:0:0:
470,145,152391,1,2,0:0:0:0:
458,168,152479,6,0,P|404:248|308:261,1,200,2|10,3:2|0:2,0:0:0:0:
215,190,153009,1,2,0:0:0:0:
137,98,153185,1,2,3:2:0:0:
49,179,153362,2,0,P|62:228|67:277,1,100,2|10,0:0|0:2,0:0:0:0:
175,384,153715,1,2,0:2:0:0:
175,384,153803,1,2,0:0:0:0:
175,383,153891,6,0,P|224:374|274:370,1,100,2|0,3:2|0:0,0:0:0:0:
496,355,154244,1,10,0:2:0:0:
428,265,154420,2,0,P|418:215|417:165,1,100,2|0,0:0|3:0,0:0:0:0:
504,81,154773,1,2,0:0:0:0:
395,29,154950,1,10,0:2:0:0:
308,115,155126,1,2,0:0:0:0:
284,106,155215,1,2,0:0:0:0:
260,94,155303,6,0,P|211:102|161:104,1,100,2|0,3:2|0:0,0:0:0:0:
0,46,155656,1,10,0:2:0:0:
16,168,155832,2,0,P|23:217|26:267,1,100,2|0,0:0|3:0,0:0:0:0:
25,384,156185,1,2,0:0:0:0:
130,326,156362,1,10,0:2:0:0:
143,207,156538,1,2,0:0:0:0:
125,188,156626,1,2,0:0:0:0:
108,169,156715,6,0,P|124:123|168:102,1,100,2|0,3:2|0:0,0:0:0:0:
257,183,157067,1,10,0:2:0:0:
168,70,157244,2,0,P|205:38|253:42,1,100,2|0,0:0|3:0,0:0:0:0:
384,141,157597,1,2,0:0:0:0:
373,30,157773,1,10,0:2:0:0:
460,197,157950,1,2,0:0:0:0:
455,221,158038,1,2,0:0:0:0:
448,245,158126,6,0,P|398:249|348:255,1,100,2|0,3:2|0:0,0:0:0:0:
238,303,158479,1,8,0:2:0:0:
238,303,158567,1,8,0:0:0:0:
238,303,158656,1,8,0:0:0:0:
124,262,158832,2,0,P|101:269|76:272,3,50,10|8|8|8,3:2|0:0|0:0|0:0,0:0:0:0:
163,236,159185,1,8,0:0:0:0:
176,187,159273,1,8,0:0:0:0:
193,139,159362,1,8,0:2:0:0:
209,91,159450,1,8,0:0:0:0:
220,42,159538,6,0,P|220:91|223:141,1,100,6|0,3:2|0:0,0:0:0:0:
309,297,159891,1,10,0:2:0:0:
399,241,160067,2,0,P|360:209|314:190,1,100,2|0,0:0|3:0,0:0:0:0:
204,239,160420,1,2,0:0:0:0:
95,186,160597,1,10,0:2:0:0:
10,270,160773,1,2,0:0:0:0:
46,104,160950,6,0,P|95:98|145:100,1,100,2|0,3:2|0:0,0:0:0:0:
356,102,161303,1,10,0:2:0:0:
275,35,161479,2,0,P|262:83|259:133,1,100,2|0,0:0|3:0,0:0:0:0:
322,235,161832,1,2,0:0:0:0:
260,338,162009,1,10,0:2:0:0:
141,325,162185,1,2,0:0:0:0:
48,247,162362,6,0,P|44:197|44:147,1,100,2|0,3:2|0:0,0:0:0:0:
166,26,162715,1,10,0:2:0:0:
107,88,162891,2,0,P|154:103|204:102,1,100,2|0,0:0|3:0,0:0:0:0:
313,51,163244,1,2,0:0:0:0:
426,91,163420,1,10,0:2:0:0:
311,241,163597,1,2,0:0:0:0:
405,202,163773,6,0,P|419:254|420:303,1,100,2|0,3:2|0:0,0:0:0:0:
323,371,164126,1,10,0:2:0:0:
218,310,164303,1,2,0:0:0:0:
110,361,164479,1,2,3:2:0:0:
11,291,164656,1,2,0:0:0:0:
11,291,165009,1,2,0:2:0:0:
17,240,165097,1,2,0:0:0:0:
29,191,165185,6,0,P|78:187|128:187,1,100,2|0,3:2|0:0,0:0:0:0:
345,260,165538,2,0,P|346:236|345:211,1,50,10|0,0:2|0:0,0:0:0:0:
282,146,165715,2,0,P|267:193|267:242,1,100,8|0,0:2|3:0,0:0:0:0:
294,360,166067,1,2,0:0:0:0:
414,350,166244,1,10,0:2:0:0:
485,254,166420,1,2,0:0:0:0:
464,133,166597,6,0,P|414:133|365:123,1,100,2|0,3:2|0:0,0:0:0:0:
172,36,166950,2,0,P|196:41|221:45,1,50,10|0,0:2|0:0,0:0:0:0:
257,135,167126,2,0,P|232:140|207:144,1,50,10|0,0:2|0:0,0:0:0:0:
104,165,167303,2,0,P|99:189|95:214,1,50,2|0,3:2|0:0,0:0:0:0:
261,366,167567,2,0,P|256:341|252:316,1,50,2|0,3:2|0:0,0:0:0:0:
366,141,167832,2,0,P|361:165|357:190,1,50,2|0,3:2|0:0,0:0:0:0:
337,287,168009,5,2,3:2:0:0:
337,287,168097,1,2,0:0:0:0:
337,287,168185,1,2,0:0:0:0:
410,349,168362,2,0,P|423:301|419:251,1,100,8|0,0:0|0:0,0:0:0:0:
365,78,168715,1,2,3:2:0:0:
365,78,168803,1,2,0:0:0:0:
365,78,168891,1,2,0:0:0:0:
263,140,169067,2,0,P|213:139|163:136,1,100,8|0,0:0|0:0,0:0:0:0:
37,46,169420,5,2,3:2:0:0:
37,46,169509,1,2,0:2:0:0:
37,46,169597,1,2,0:2:0:0:
10,161,169773,2,0,P|18:211|21:261,1,100,8|8,0:0|0:2,0:0:0:0:
32,334,170038,1,8,0:2:0:0:
31,334,170126,2,0,P|19:333|7:331,10,25,8|8|8|8|8|8|8|8|8|8|8,3:2|0:0|0:2|0:0|0:2|0:0|0:2|0:0|3:2|0:0|0:2,0:0:0:0:
131,341,170656,1,8,0:2:0:0:
190,344,170744,1,8,0:2:0:0:
250,341,170832,6,0,P|331:331|414:325,1,165.000005035401,4|0,3:2|0:0,0:0:0:0:
459,294,171185,2,0,P|453:268|450:241,1,55.0000016784668,2|0,3:2|0:0,0:0:0:0:
511,150,171362,2,0,P|429:153|348:142,1,165.000005035401,10|0,0:2|0:0,0:0:0:0:
302,111,171715,2,0,P|276:100|250:92,1,55.0000016784668,10|0,0:2|0:0,0:0:0:0:
147,44,171891,2,0,P|172:33|198:25,1,55.0000016784668,2|0,3:2|0:0,0:0:0:0:
302,131,172067,2,0,P|276:120|250:112,1,55.0000016784668,10|0,0:2|0:0,0:0:0:0:
149,135,172244,6,0,P|159:217|165:300,1,165.000005035401,2|0,3:2|0:0,0:0:0:0:
161,354,172597,2,0,P|191:348|222:344,1,55.0000016784668,2|0,3:2|0:0,0:0:0:0:
364,368,172773,2,0,P|321:297|304:217,1,165.000005035401,10|0,0:2|0:0,0:0:0:0:
304,162,173126,2,0,P|310:135|313:107,1,55.0000016784668,10|0,0:2|0:0,0:0:0:0:
242,13,173303,2,0,P|244:40|250:67,1,55.0000016784668,2|0,3:2|0:0,0:0:0:0:
325,162,173479,2,0,P|330:135|333:107,1,55.0000016784668,10|0,0:2|0:0,0:0:0:0:
232,80,173656,6,0,P|150:90|67:94,1,165.000005035401,2|0,3:2|0:0,0:0:0:0:
15,115,174009,2,0,P|16:142|24:168,1,55.0000016784668,2|0,3:2|0:0,0:0:0:0:
131,244,174185,2,0,P|214:242|296:252,1,165.000005035401,10|0,0:2|0:0,0:0:0:0:
335,289,174538,2,0,P|363:291|389:285,1,55.0000016784668,10|0,0:2|0:0,0:0:0:0:
454,147,174715,2,0,P|433:165|409:178,1,55.0000016784668,2|0,3:2|0:0,0:0:0:0:
372,67,174891,2,0,P|387:44|396:18,1,55.0000016784668,10|0,0:2|0:0,0:0:0:0:
253,124,175067,6,0,P|257:233|235:341,1,220.000006713867,2|2,3:2|3:2,0:0:0:0:
86,368,175597,2,0,P|59:365|33:356,1,55.0000016784668,10|0,0:2|0:0,0:0:0:0:
152,318,175773,2,0,P|179:315|205:306,1,55.0000016784668,2|0,3:2|0:0,0:0:0:0:
91,263,175950,2,0,P|100:180|121:100,1,165.000005035401,10|0,0:2|0:0,0:0:0:0:
177,24,176303,1,10,0:2:0:0:
177,24,176391,1,0,0:0:0:0:
177,24,176479,6,0,P|258:39|340:42,1,165.000005035401,4|0,3:2|0:0,0:0:0:0:
395,51,176832,2,0,P|399:78|404:105,1,55.0000016784668,2|0,3:2|0:0,0:0:0:0:
474,186,177009,2,0,P|401:152|329:187,1,165.000005035401,10|0,0:2|0:0,0:0:0:0:
301,234,177362,2,0,P|273:234|247:226,1,55.0000016784668,10|0,0:2|0:0,0:0:0:0:
164,317,177538,2,0,P|191:316|217:308,1,55.0000016784668,2|0,3:2|0:0,0:0:0:0:
301,215,177715,2,0,P|273:214|247:206,1,55.0000016784668,10|0,0:2|0:0,0:0:0:0:
115,114,177891,6,0,P|197:116|277:99,1,165.000005035401,2|0,3:2|0:0,0:0:0:0:
286,45,178244,2,0,P|259:38|232:34,1,55.0000016784668,2|0,3:2|0:0,0:0:0:0:
74,34,178420,2,0,P|80:134|66:198,1,165.000005035401,10|0,0:2|0:0,0:0:0:0:
94,245,178773,2,0,P|120:253|147:257,1,55.0000016784668,10|0,0:2|0:0,0:0:0:0:
55,342,178950,2,0,P|28:350|1:354,1,55.0000016784668,2|0,3:2|0:0,0:0:0:0:
94,225,179126,2,0,P|120:233|147:237,1,55.0000016784668,10|0,0:2|0:0,0:0:0:0:
183,326,179303,6,0,P|264:308|346:304,1,165.000005035401,2|0,3:2|0:0,0:0:0:0:
394,331,179656,2,0,P|396:304|406:279,1,55.0000016784668,2|0,3:2|0:0,0:0:0:0:
498,223,179832,2,0,P|416:233|337:210,1,165.000005035401,10|0,0:2|0:0,0:0:0:0:
285,191,180185,2,0,P|258:184|225:171,1,55.0000016784668,10|0,2:2|0:0,0:0:0:0:
327,106,180362,2,0,P|354:99|387:86,1,55.0000016784668,2|0,3:2|0:0,0:0:0:0:
285,211,180538,2,0,P|258:204|225:191,1,55.0000016784668,8|0,2:2|0:0,0:0:0:0:
170,84,180715,6,0,P|203:185|145:274,1,220.000006713867,0|0,3:2|3:2,0:0:0:0:
43,232,181244,2,0,P|46:204|49:177,1,55.0000016784668,8|0,0:2|3:2,0:0:0:0:
82,133,181420,2,0,P|96:138|108:143,2,27.5000008392334,8|8|8,3:2|3:2|3:2,0:0:0:0:
69,80,181597,2,0,P|41:77|14:72,2,55.0000016784668,8|8|8,0:2|0:0|3:2,0:0:0:0:
89,61,181862,1,8,0:0:0:0:
109,43,181950,1,8,0:0:0:0:
131,26,182038,1,8,0:0:0:0:
153,10,182126,6,0,P|234:22|316:29,1,165.000005035401,4|0,3:2|0:0,0:0:0:0:
368,50,182479,2,0,P|371:77|377:104,1,55.0000016784668,2|0,3:2|0:0,0:0:0:0:
327,194,182656,2,0,P|390:144|471:151,1,165.000005035401,10|0,0:2|0:0,0:0:0:0:
490,202,183009,2,0,P|498:229|502:256,1,55.0000016784668,10|0,0:2|0:0,0:0:0:0:
403,299,183185,2,0,P|407:271|414:245,1,55.0000016784668,2|0,3:2|0:0,0:0:0:0:
490,182,183362,2,0,P|497:208|501:235,1,55.0000016784668,10|0,0:2|0:0,0:0:0:0:
477,359,183538,6,0,P|397:337|315:343,1,165.000005035401,2|0,3:2|0:0,0:0:0:0:
265,367,183891,2,0,P|237:364|210:359,1,55.0000016784668,2|0,3:2|0:0,0:0:0:0:
119,323,184067,2,0,P|133:241|141:159,1,165.000005035401,10|0,0:2|0:0,0:0:0:0:
134,104,184420,2,0,P|142:78|148:51,1,55.0000016784668,10|0,0:2|0:0,0:0:0:0:
232,143,184597,2,0,P|238:169|245:196,1,55.0000016784668,2|0,3:2|0:0,0:0:0:0:
115,104,184773,2,0,P|122:77|128:50,1,55.0000016784668,10|0,0:2|0:0,0:0:0:0:
230,28,184950,6,0,P|309:51|392:49,1,165.000005035401,2|0,3:2|0:0,0:0:0:0:
443,67,185303,2,0,P|449:89|452:121,1,55.0000016784668,2|0,3:2|0:0,0:0:0:0:
404,207,185479,2,0,P|386:287|396:368,1,165.000005035401,10|0,0:2|0:0,0:0:0:0:
342,384,185832,2,0,P|315:376|289:367,1,55.0000016784668,10|0,0:2|0:0,0:0:0:0:
264,215,186009,2,0,P|283:235|301:256,1,55.0000016784668,2|0,3:2|0:0,0:0:0:0:
176,380,186185,2,0,P|169:353|164:326,1,55.0000016784668,10|0,0:2|0:0,0:0:0:0:
165,178,186362,6,0,P|272:193|356:127,1,220.000006713867,2|2,3:2|3:2,0:0:0:0:
324,2,186891,2,0,P|318:30|310:56,1,55.0000016784668,10|0,0:2|0:0,0:0:0:0:
246,113,187067,2,0,P|239:87|234:60,1,55.0000016784668,2|0,3:2|0:0,0:0:0:0:
152,27,187244,2,0,P|84:74|5:96,1,165.000005035401,10|0,0:2|0:0,0:0:0:0:
44,187,187597,1,10,0:2:0:0:
44,187,187685,1,8,0:0:0:0:
44,187,187773,6,0,P|58:268|58:350,1,165.000005035401,4|0,3:2|0:0,0:0:0:0:
107,374,188126,2,0,P|135:370|162:364,1,55.0000016784668,2|0,3:2|0:0,0:0:0:0:
302,280,188303,2,0,P|220:280|139:266,1,165.000005035401,10|0,0:2|0:0,0:0:0:0:
129,211,188656,2,0,P|140:185|148:159,1,55.0000016784668,10|0,0:2|0:0,0:0:0:0:
241,95,188832,2,0,P|248:121|259:146,1,55.0000016784668,2|0,3:2|0:0,0:0:0:0:
129,191,189009,2,0,P|139:165|147:139,1,55.0000016784668,10|0,0:2|0:0,0:0:0:0:
185,13,189185,6,0,P|252:58|333:60,1,165.000005035401,2|0,3:2|0:0,0:0:0:0:
388,62,189538,2,0,P|401:87|409:113,1,55.0000016784668,2|0,3:2|0:0,0:0:0:0:
478,246,189715,2,0,P|486:219|498:195,1,55.0000016784668,10|0,0:2|0:0,0:0:0:0:
356,206,189891,2,0,P|368:230|376:256,1,55.0000016784668,2|0,3:2|0:0,0:0:0:0:
211,356,190156,2,0,P|211:321|213:292,1,55.0000016784668,2|0,3:2|0:0,0:0:0:0:
107,196,190420,2,0,P|94:220|86:246,1,55.0000016784668,10|0,3:2|0:2,0:0:0:0:
31,317,190597,6,0,P|57:210|57:100,1,220.000006713867,8|0,3:2|0:2,0:0:0:0:
146,36,191126,2,0,P|254:60|363:63,1,220.000006713867,8|0,3:2|0:2,0:0:0:0:
451,195,191656,2,0,P|400:211|344:208,1,110.000003356934,8|8,3:2|0:2,0:0:0:0:
192,166,192009,6,0,P|157:158|122:141,2,73.3333355712891,8|8|8,3:2|0:2|0:2,0:0:0:0:
250,238,192362,2,0,P|285:230|318:214,2,73.3333355712891,8|8|8,3:2|0:2|0:2,0:0:0:0:
182,313,192715,2,0,P|110:302|38:311,1,146.666671142578,8|8,3:2|0:0,0:0:0:0:
123,141,193185,2,0,P|98:168|71:192,1,73.3333355712891,2|2,0:0|0:0,0:0:0:0:
129,44,193420,6,0,P|166:58|205:67,1,80,2|2,0:2|0:2,0:0:0:0:
307,46,193773,1,2,0:0:0:0:
390,111,193950,1,2,0:2:0:0:
407,119,194038,1,2,0:0:0:0:
421,128,194126,2,0,P|416:167|407:206,1,80,2|2,0:2|0:2,0:0:0:0:
366,302,194479,1,2,0:0:0:0:
262,320,194656,1,2,0:2:0:0:
243,327,194744,1,2,0:0:0:0:
224,333,194832,6,0,P|185:339|145:343,1,80,2|2,0:2|0:2,0:0:0:0:
73,266,195185,1,2,0:0:0:0:
81,162,195362,1,2,0:2:0:0:
93,146,195450,1,2,0:0:0:0:
109,134,195538,2,0,P|148:127|188:126,1,80,2|2,0:2|0:2,0:0:0:0:
239,217,195891,1,2,0:2:0:0:
343,35,196067,1,2,0:2:0:0:
352,52,196156,1,2,0:0:0:0:
359,70,196244,6,0,P|359:109|360:149,1,80,2|2,0:2|0:2,0:0:0:0:
324,248,196597,1,2,0:0:0:0:
223,271,196773,1,2,0:2:0:0:
203,269,196862,1,2,0:0:0:0:
183,266,196950,2,0,P|184:227|187:187,1,80,2|2,0:2|0:2,0:0:0:0:
196,83,197303,1,2,0:0:0:0:
285,31,197479,1,2,0:2:0:0:
302,41,197567,1,2,0:0:0:0:
320,46,197656,6,0,P|359:39|398:40,1,80,2|2,0:2|0:2,0:0:0:0:
424,141,198009,1,2,0:0:0:0:
323,167,198185,1,2,0:2:0:0:
319,186,198273,1,2,0:0:0:0:
318,205,198362,2,0,P|322:244|334:282,1,80,2|0,0:2|0:0,0:0:0:0:
402,361,198715,1,2,0:2:0:0:
278,365,198891,1,2,0:2:0:0:
257,365,198979,1,0,0:2:0:0:
239,365,199067,5,10,3:2:0:0:
195,351,199156,1,8,0:0:0:0:
164,317,199244,1,8,0:2:0:0:
179,193,199420,1,10,3:2:0:0:
179,193,199773,2,0,P|184:149|187:104,1,89.9999972534181,10|0,3:2|0:2,0:0:0:0:
194,59,200038,2,0,P|238:64|283:67,1,89.9999972534181,8|0,3:2|0:2,0:0:0:0:
324,47,200303,2,0,P|368:50|413:55,1,89.9999972534181,8|0,3:2|0:2,0:0:0:0:
436,93,200567,6,0,P|430:137|427:182,1,89.9999972534181,8|0,3:2|0:2,0:0:0:0:
443,224,200832,2,0,P|454:224|465:223,2,22.4999993133545,8|8|8,3:2|3:2|3:2,0:0:0:0:
417,262,201009,2,0,P|396:267|373:271,1,44.999998626709,8|0,3:2|0:0,0:0:0:0:
330,281,201185,1,8,0:2:0:0:
285,289,201273,1,8,3:2:0:0:
240,299,201362,1,8,0:2:0:0:
171,241,201538,1,8,3:2:0:0:
99,296,201715,2,0,P|86:277|78:256,1,44.999998626709,8|0,0:2|0:2,0:0:0:0:
51,136,201891,5,8,3:2:0:0:
67,93,201979,1,8,0:0:0:0:
89,54,202067,1,8,0:2:0:0:
224,36,202244,1,8,3:2:0:0:
224,36,202597,2,0,P|267:47|312:52,1,89.9999972534181,8|0,3:2|0:2,0:0:0:0:
356,44,202862,2,0,P|400:49|444:60,1,89.9999972534181,8|0,3:2|0:2,0:0:0:0:
469,98,203126,2,0,P|480:141|485:186,1,89.9999972534181,8|0,3:2|0:2,0:0:0:0:
449,213,203391,6,0,P|454:257|465:301,1,89.9999972534181,8|0,3:2|0:2,0:0:0:0:
445,342,203656,2,0,P|451:363|458:384,1,44.999998626709,8|8,3:2|0:0,0:0:0:0:
374,306,203832,2,0,P|370:283|365:261,1,44.999998626709,8|8,0:2|0:0,0:0:0:0:
319,363,204009,2,0,P|321:373|324:384,2,22.4999993133545,8|8|8,0:2|0:2|0:2,0:0:0:0:
251,324,204185,2,0,P|248:313|245:302,2,22.4999993133545,8|8|8,0:2|0:2|0:2,0:0:0:0:
166,361,204362,2,0,P|168:371|171:382,2,22.4999993133545,8|8|8,0:2|0:0|0:2,0:0:0:0:
98,306,204538,1,8,0:2:0:0:
78,289,204626,1,8,0:2:0:0:
57,272,204715,6,0,P|55:226|49:181,1,89.9999972534181,8|0,3:2|0:2,0:0:0:0:
34,94,205067,1,0,0:2:0:0:
110,46,205244,2,0,P|154:49|199:45,1,89.9999972534181,8|0,0:2|3:2,0:0:0:0:
287,23,205597,1,0,3:2:0:0:
303,38,205685,1,0,3:2:0:0:
319,53,205773,2,0,P|325:97|324:142,1,89.9999972534181,8|0,3:2|3:2,0:0:0:0:
269,296,206126,5,8,3:2:0:0:
290,288,206215,1,0,3:2:0:0:
312,284,206303,1,0,3:2:0:0:
380,341,206479,1,0,3:2:0:0:
447,281,206656,2,0,P|448:236|453:191,1,89.9999972534181,8|0,0:2|3:2,0:0:0:0:
438,178,207185,2,0,P|436:133|431:88,1,89.9999972534181,8|0,3:2|3:2,0:0:0:0:
375,28,207450,1,0,3:0:0:0:
374,28,207538,6,0,P|331:38|286:39,1,89.9999972534181,8|0,3:2|0:2,0:0:0:0:
197,25,207891,1,0,3:2:0:0:
114,59,208067,2,0,P|111:103|96:146,1,89.9999972534181,8|0,3:2|3:2,0:0:0:0:
51,224,208420,1,0,0:2:0:0:
67,239,208509,1,0,3:2:0:0:
83,254,208597,2,0,P|127:258|172:265,1,89.9999972534181,8|0,3:2|3:2,0:0:0:0:
316,353,208950,5,8,3:2:0:0:
301,335,209038,1,0,3:2:0:0:
285,318,209126,1,0,3:2:0:0:
335,243,209303,1,0,3:2:0:0:
249,216,209479,2,0,P|243:171|232:127,1,89.9999972534181,8|0,0:2|3:2,0:0:0:0:
203,42,209832,1,0,0:2:0:0:
290,18,210009,2,0,P|333:29|377:36,1,89.9999972534181,8|0,3:2|3:2,0:0:0:0:
452,93,210273,1,0,3:0:0:0:
452,93,210362,6,0,P|444:137|442:182,1,89.9999972534181,8|0,3:2|0:2,0:0:0:0:
459,270,210715,1,0,3:2:0:0:
413,346,210891,2,0,P|371:331|326:328,1,89.9999972534181,8|0,0:2|3:2,0:0:0:0:
238,347,211244,1,0,3:2:0:0:
217,338,211332,1,0,3:2:0:0:
195,327,211420,2,0,P|151:325|106:333,1,89.9999972534181,8|0,3:2|3:2,0:0:0:0:
65,206,211773,5,8,3:2:0:0:
80,189,211862,1,0,3:2:0:0:
96,173,211950,1,0,3:2:0:0:
50,95,212126,1,0,3:2:0:0:
122,41,212303,2,0,P|166:49|210:54,1,89.9999972534181,8|0,0:2|3:2,0:0:0:0:
225,93,212832,2,0,P|247:92|269:90,1,44.999998626709,8|0,3:2|0:0,0:0:0:0:
303,59,213009,2,0,P|325:56|347:56,1,44.999998626709,0|0,3:2|0:0,0:0:0:0:
456,129,213185,5,8,3:2:0:0:
452,151,213273,1,0,3:0:0:0:
449,173,213362,1,0,3:2:0:0:
395,245,213538,1,0,3:2:0:0:
431,327,213715,2,0,P|386:330|343:316,1,89.9999972534181,8|0,3:2|3:2,0:0:0:0:
265,272,214067,1,0,3:2:0:0:
243,277,214156,1,0,3:2:0:0:
220,283,214244,2,0,P|176:275|131:271,1,89.9999972534181,8|0,3:2|3:2,0:0:0:0:
262,175,214597,5,8,3:2:0:0:
283,168,214685,1,0,3:2:0:0:
304,163,214773,1,0,3:2:0:0:
389,192,214950,1,0,3:2:0:0:
412,104,215126,2,0,P|370:90|329:72,1,89.9999972534181,8|0,0:2|3:2,0:0:0:0:
248,31,215479,1,0,0:2:0:0:
165,66,215656,1,8,0:2:0:0:
146,79,215744,1,8,0:2:0:0:
127,91,215832,1,8,0:2:0:0:
109,104,215920,1,8,0:2:0:0:
95,119,216009,6,0,P|91:143|89:168,1,50,8|0,3:2|0:0,0:0:0:0:
122,206,216185,2,0,P|125:230|127:255,1,50,0|0,0:2|0:2,0:0:0:0:
96,326,216362,2,0,P|142:306|192:298,1,100,0|8,3:2|0:2,0:0:0:0:
236,320,216626,1,0,3:0:0:0:
236,320,216715,1,0,3:2:0:0:
321,268,216891,1,0,0:2:0:0:
395,334,217067,2,0,P|408:286|412:237,1,100,8|0,3:2|3:2,0:0:0:0:
378,93,217420,5,8,3:2:0:0:
371,117,217509,1,0,3:0:0:0:
365,141,217597,1,0,3:2:0:0:
267,51,217773,2,0,P|213:51|167:45,1,100,0|8,3:2|0:2,0:0:0:0:
118,32,218038,1,0,3:0:0:0:
118,32,218126,1,0,3:2:0:0:
46,102,218303,1,0,0:2:0:0:
136,144,218479,2,0,P|141:193|151:242,1,100,8|0,3:2|3:2,0:0:0:0:
294,76,218832,6,0,P|318:74|343:71,1,50,8|0,3:2|0:0,0:0:0:0:
437,43,219009,2,0,P|412:45|388:48,1,50,0|0,0:2|0:2,0:0:0:0:
397,118,219185,2,0,P|404:168|410:218,1,100,0|8,3:2|3:2,0:0:0:0:
406,268,219450,1,0,3:0:0:0:
406,268,219538,1,0,3:2:0:0:
346,348,219715,1,0,0:2:0:0:
271,281,219891,2,0,P|221:282|171:274,1,100,8|0,3:2|3:2,0:0:0:0:
41,159,220244,5,8,3:2:0:0:
65,152,220332,1,0,3:2:0:0:
89,146,220420,1,0,3:2:0:0:
262,81,220597,2,0,P|212:72|163:62,1,100,0|8,3:2|0:2,0:0:0:0:
116,44,220862,1,0,3:2:0:0:
116,44,220950,1,0,3:2:0:0:
198,179,221126,1,0,0:2:0:0:
324,148,221303,2,0,P|338:101|341:51,1,100,8|0,3:2|3:2,0:0:0:0:
422,191,221656,6,0,P|426:216|428:241,1,50,8|0,3:2|0:0,0:0:0:0:
381,257,221832,2,0,P|376:281|374:306,1,50,0|0,0:2|0:2,0:0:0:0:
418,376,222009,2,0,P|371:358|321:360,1,100,0|8,3:2|0:2,0:0:0:0:
276,381,222273,1,0,3:0:0:0:
276,381,222362,1,0,3:2:0:0:
192,326,222538,1,0,0:2:0:0:
91,326,222715,2,0,P|103:277|108:227,1,100,8|0,0:0|3:2,0:0:0:0:
61,65,223067,5,8,3:2:0:0:
74,86,223156,1,0,3:0:0:0:
89,105,223244,1,0,3:2:0:0:
222,26,223420,2,0,P|270:35|320:34,1,100,0|8,3:2|0:2,0:0:0:0:
369,22,223685,1,0,3:0:0:0:
369,22,223773,1,0,3:2:0:0:
464,105,223950,1,8,0:2:0:0:
462,129,224038,1,8,0:2:0:0:
459,153,224126,2,0,P|457:172|451:202,1,50,8|8,3:2|0:0,0:0:0:0:
361,276,224303,2,0,P|356:251|353:226,1,50,8|8,3:2|3:2,0:0:0:0:
498,352,224479,6,0,P|334:292|161:303,1,350,14|0,3:2|0:0,0:0:0:0:
126,338,225185,6,0,P|178:151|9:54,1,419.999987182618,14|0,3:2|0:2,0:0:0:0:
50,26,225891,6,0,B|137:85|283:-2|391:65,1,350,14|0,3:2|3:2,0:0:0:0:
435,45,226597,6,0,P|431:104|425:164,1,120,14|0,3:2|0:0,0:0:0:0:
420,204,226950,1,8,0:0:0:0:
416,243,227038,1,8,0:0:0:0:
411,282,227126,1,8,3:2:0:0:
317,351,227303,5,12,3:2:0:0:
294,339,227391,1,8,0:0:0:0:
272,327,227479,1,8,0:0:0:0:
124,284,227656,2,0,P|172:272|220:259,1,100,8|0,3:2|0:0,0:0:0:0:
286,186,228009,6,0,P|262:178|238:170,1,50,8|0,3:2|0:0,0:0:0:0:
110,134,228273,2,0,P|133:126|157:117,1,50,8|0,3:2|0:0,0:0:0:0:
299,104,228538,2,0,P|275:96|251:88,1,50,8|0,0:2|0:0,0:0:0:0:
123,52,228803,2,0,P|146:44|170:35,1,50,8|0,3:2|0:0,0:0:0:0:
49,11,229067,2,0,P|51:48|44:85,1,75.0000028610231,8|0,3:2|0:0,0:0:0:0:
42,134,229244,6,0,P|50:183|53:233,1,100,8|8,3:2|3:2,0:0:0:0:
54,283,229509,1,8,0:0:0:0:
46,332,229597,1,8,0:0:0:0:
166,261,229773,1,8,0:0:0:0:
231,337,229950,2,0,P|255:331|279:325,1,50,8|8,3:2|3:2,0:0:0:0:
417,282,230126,5,8,3:2:0:0:
421,257,230215,1,8,0:0:0:0:
426,232,230303,1,8,0:0:0:0:
489,111,230479,2,0,P|440:109|391:100,1,100,8|0,3:2|0:0,0:0:0:0:
292,9,230832,6,0,P|291:38|288:62,1,50,8|0,3:2|0:0,0:0:0:0:
217,159,231097,2,0,P|214:134|212:109,1,50,8|0,3:2|0:0,0:0:0:0:
141,5,231362,2,0,P|139:33|136:57,1,50,8|0,3:2|0:0,0:0:0:0:
65,154,231626,2,0,P|62:129|60:104,1,50,8|0,3:2|0:0,0:0:0:0:
30,232,231891,2,0,P|68:231|105:226,1,75.0000028610231,8|0,3:2|0:0,0:0:0:0:
176,156,232067,6,0,P|225:157|275:161,1,100,8|8,3:2|3:2,0:0:0:0:
323,176,232332,1,8,0:0:0:0:
323,176,232420,1,8,3:2:0:0:
389,269,232597,1,8,3:2:0:0:
464,202,232773,2,0,P|461:178|456:153,1,50,8|0,3:2|0:0,0:0:0:0:
403,40,232950,5,8,3:2:0:0:
378,45,233038,1,8,0:0:0:0:
354,51,233126,1,8,0:0:0:0:
275,161,233303,2,0,P|266:210|261:260,1,100,8|0,3:2|0:0,0:0:0:0:
92,366,233656,6,0,P|96:341|99:316,1,50,8|0,3:2|0:0,0:0:0:0:
161,209,233920,2,0,P|163:233|168:258,1,50,8|0,3:2|0:0,0:0:0:0:
72,218,234185,2,0,P|76:193|79:168,1,50,8|0,3:2|0:0,0:0:0:0:
141,61,234450,2,0,P|143:85|148:110,1,50,8|0,3:2|0:0,0:0:0:0:
1,21,234715,2,0,P|39:26|76:21,1,75.0000028610231,8|0,3:2|0:0,0:0:0:0:
149,62,234891,6,0,P|197:52|247:49,1,100,8|8,3:2|3:2,0:0:0:0:
291,74,235156,1,8,0:0:0:0:
291,74,235244,1,8,0:2:0:0:
247,163,235420,1,8,3:2:0:0:
146,167,235597,2,0,P|136:197|126:221,1,50,8|0,3:2|0:0,0:0:0:0:
54,362,235773,5,8,3:2:0:0:
77,354,235862,1,8,0:0:0:0:
100,346,235950,1,8,0:0:0:0:
208,299,236126,2,0,P|253:318|302:329,1,100,8|0,3:2|0:0,0:0:0:0:
439,364,236479,6,0,P|462:357|484:345,1,50,8|0,3:2|0:0,0:0:0:0:
386,264,236744,2,0,P|362:256|340:244,1,50,8|0,3:2|0:0,0:0:0:0:
448,174,237009,2,0,P|471:166|493:154,1,50,8|0,3:2|0:0,0:0:0:0:
394,73,237273,2,0,P|370:65|348:53,1,50,8|0,3:2|0:0,0:0:0:0:
229,96,237538,6,0,P|197:114|161:124,1,75.0000028610231,8|0,3:2|0:0,0:0:0:0:
161,124,237715,2,0,P|193:142|229:152,1,75.0000028610231,8|0,3:2|0:2,0:0:0:0:
229,152,237891,2,0,P|196:170|160:180,1,75.0000028610231,8|0,3:2|0:2,0:0:0:0:
160,179,238067,2,0,P|192:197|228:207,1,75.0000028610231,8|0,3:2|0:2,0:0:0:0:
228,207,238244,2,0,P|195:225|159:235,1,75.0000028610231,8|0,3:2|0:2,0:0:0:0:
159,235,238420,2,0,P|191:253|227:263,1,75.0000028610231,8|0,3:2|0:2,0:0:0:0:
165,342,238597,5,12,0:2:0:0:
