osu file format v14

[General]
AudioFilename: audio.mp3
AudioLeadIn: 0
PreviewTime: 102539
Countdown: 0
SampleSet: Soft
StackLeniency: 0.4
Mode: 0
LetterboxInBreaks: 0
WidescreenStoryboard: 0

[Editor]
Bookmarks: 238586
DistanceSpacing: 1
BeatDivisor: 4
GridSize: 16
TimelineZoom: 1.6

[Metadata]
Title:Guuzou ni Sekai wo Yudanete ~ Idoratrize World
TitleUnicode:偶像に世界を委ねて 〜 Idoratrize World
Artist:ZUN
ArtistUnicode:ZUN
Creator:Yukiyo
Version:Extra Stage
Source:東方鬼形獣 ~ Wily Beast and Weakest Creature.
Tags:th 17 th17 ost stage 6 Haniyasushin Keiki idolatrize touhou project toho Shurelia 埴安神袿姫 はにやすしん けいき 東方Project Team Shanghai Alice Kikeijuu 2hu
BeatmapID:2132415
BeatmapSetID:1019043

[Difficulty]
HPDrainRate:6
CircleSize:4
OverallDifficulty:8.8
ApproachRate:9
SliderMultiplier:1.8
SliderTickRate:1

[Events]
//Background and Video events
0,0,"keikibg.jpg",0,0
//Break Periods
//Storyboard Layer 0 (Background)
//Storyboard Layer 1 (Fail)
//Storyboard Layer 2 (Pass)
//Storyboard Layer 3 (Foreground)
//Storyboard Layer 4 (Overlay)
//Storyboard Sound Samples

[TimingPoints]
716,352.941176470588,4,2,1,60,1,0
716,-153.846153846153,4,2,1,60,0,0
1951,-153.846153846153,4,2,1,5,0,0
2127,-153.846153846153,4,2,1,60,0,0
4774,-153.846153846153,4,2,1,5,0,0
4950,-153.846153846153,4,2,1,60,0,0
7598,-153.846153846153,4,2,1,5,0,0
7774,-153.846153846153,4,2,1,60,0,0
13245,-153.846153846153,4,2,1,5,0,0
13421,-153.846153846153,4,2,1,60,0,0
16068,-153.846153846153,4,2,1,5,0,0
16244,-153.846153846153,4,2,1,60,0,0
18889,-153.846153846153,4,2,1,5,0,0
19065,-153.846153846153,4,2,1,60,0,0
21010,-153.846153846153,4,2,1,5,0,0
21186,-153.846153846153,4,2,1,60,0,0
21715,-153.846153846153,4,2,1,5,0,0
21891,-153.846153846153,4,2,1,60,0,0
22421,-153.846153846153,4,2,1,5,0,0
22597,-153.846153846153,4,2,1,60,0,0
23127,-153.846153846153,4,2,1,5,0,0
23304,-100,4,2,1,70,0,0
23568,-100,4,2,1,5,0,0
23657,-100,4,2,1,70,0,0
23921,-100,4,2,1,5,0,0
24010,-100,4,2,1,70,0,0
26392,-100,4,2,1,5,0,0
26480,-100,4,2,1,70,0,0
26745,-100,4,2,1,5,0,0
26834,-100,4,2,1,70,0,0
29215,-100,4,2,1,5,0,0
29304,-100,4,2,1,70,0,0
29568,-100,4,2,1,5,0,0
29657,-100,4,2,1,70,0,0
32039,-100,4,2,1,5,0,0
32127,-100,4,2,1,70,0,0
32392,-100,4,2,1,5,0,0
32481,-100,4,2,1,70,0,0
34598,-153.846153846153,4,2,1,50,0,0
57186,-100,4,2,1,60,0,0
79774,-83.3333333333333,4,2,1,80,0,0
91068,-100,4,2,1,70,0,0
102715,-117.647058823529,4,2,1,50,0,0
103068,352.941176470588,4,2,1,50,1,0
103068,-117.647058823529,4,2,1,50,0,0
125656,-100,4,2,1,70,0,0
170832,-83.3333333333333,4,2,1,80,0,0
193420,-153.846153846153,4,2,1,50,0,0
204009,-100,4,2,1,50,0,0
204362,-153.846153846153,4,2,1,50,0,0
204715,-100,4,2,1,70,0,0
225097,-100,4,2,1,5,0,0
225185,-100,4,2,1,70,0,0
225803,-100,4,2,1,5,0,0
225891,-100,4,2,1,70,0,0
226509,-100,4,2,1,5,0,0
226597,-100,4,2,1,70,0,0
227303,-83.3333333333333,4,2,1,70,0,0
227567,-83.3333333333333,4,2,1,5,0,0
227655,-83.3333333333333,4,2,1,70,0,0
230391,-83.3333333333333,4,2,1,5,0,0
230479,-83.3333333333333,4,2,1,70,0,0
232862,-83.3333333333333,4,2,1,5,0,0
232950,-83.3333333333333,4,2,1,70,0,0
233215,-83.3333333333333,4,2,1,5,0,0
233303,-83.3333333333333,4,2,1,70,0,0
236038,-83.3333333333333,4,2,1,5,0,0
236126,-83.3333333333333,4,2,1,70,0,0

[Colours]
Combo1 : 255,149,255
Combo2 : 111,255,111
Combo3 : 254,251,114
Combo4 : 112,233,254

[HitObjects]
437,131,716,6,0,B|512:225|434:352|434:352|333:303|358:190,1,409.499981254578,2|0,3:2|0:2,0:2:0:0:
352,121,2127,5,0,3:2:0:0:
352,121,2304,1,0,3:2:0:0:
352,121,3186,6,0,P|314:137|295:169,1,58.4999973220826,2|0,3:2|0:2,0:2:0:0:
262,235,3539,2,0,B|131:208|109:322|-4:264|-4:264|87:274|122:209,1,409.499981254578,2|0,3:2|0:2,0:2:0:0:
156,142,4951,5,0,3:2:0:0:
247,12,5480,1,0,3:2:0:0:
422,58,6010,1,0,3:2:0:0:
422,58,6363,6,0,B|469:191|469:191|431:255|431:255|436:376|436:376|391:303,1,409.499981254578,2|0,3:2|0:2,0:2:0:0:
345,238,7774,5,0,3:2:0:0:
345,238,7951,1,0,3:2:0:0:
345,237,8833,2,0,P|317:246|297:267,1,58.4999973220826,2|0,3:2|0:2,0:2:0:0:
254,340,9186,6,0,P|152:378|80:276,2,233.999989288331,2|2|2,3:2|0:2|3:2,0:2:0:0:
296,154,11304,1,2,3:2:0:0:
51,57,11833,5,0,0:2:0:0:
51,57,11921,1,0,0:2:0:0:
51,57,12010,2,0,B|100:134|243:133|302:50|302:50|252:96|187:82,1,409.499981254578,2|0,3:2|0:2,0:2:0:0:
222,0,13421,5,0,3:2:0:0:
222,0,13598,1,0,3:2:0:0:
391,37,14127,1,2,0:2:0:0:
377,200,14480,2,0,P|343:216|309:215,1,58.4999973220826,2|0,3:2|0:2,0:2:0:0:
254,152,14833,6,0,B|144:147|105:273|105:273|132:142|32:83,1,409.499981254578,2|0,3:2|0:2,0:2:0:0:
1,152,16245,5,0,3:2:0:0:
14,342,16774,1,0,3:2:0:0:
14,342,16951,2,0,P|56:323|91:320,1,58.4999973220826,2|2,0:2|0:2,0:2:0:0:
188,349,17304,1,2,3:2:0:0:
188,349,17657,6,0,B|325:406|509:311|346:130|272:267,1,409.499981254578,2|0,3:2|0:2,0:2:0:0:
188,254,19068,5,0,3:2:0:0:
188,254,19245,1,0,3:2:0:0:
86,47,20127,1,2,3:2:0:0:
86,47,20480,6,0,B|217:27|217:27|256:42,1,175.499991966248,2|0,3:2|0:2,0:2:0:0:
376,131,21186,2,0,B|245:151|245:151|205:135,1,175.499991966248,2|0,3:2|0:2,0:2:0:0:
86,135,21892,6,0,P|49:214|69:297,1,175.499991966248,2|0,3:2|0:2,0:2:0:0:
151,355,22598,2,0,L|324:328,1,175.499991966248,2|0,3:2|0:2,0:2:0:0:
412,291,23304,6,0,P|426:226|395:167,1,135,12|0,3:2|0:2,0:2:0:0:
317,118,23657,2,0,P|313:51|354:0,1,135,8|0,3:2|0:2,0:2:0:0:
448,65,24010,5,8,3:2:0:0:
335,173,24274,1,8,3:2:0:0:
152,151,24539,1,8,3:2:0:0:
59,9,24804,1,8,3:2:0:0:
137,238,25068,5,8,3:2:0:0:
134,265,25157,1,8,0:2:0:0:
132,291,25245,1,8,0:2:0:0:
263,383,25421,1,8,3:2:0:0:
261,357,25510,1,8,0:2:0:0:
258,330,25598,1,8,0:2:0:0:
408,150,25774,1,8,3:2:0:0:
405,177,25863,1,8,0:2:0:0:
403,203,25951,1,8,0:2:0:0:
401,228,26039,1,8,0:2:0:0:
400,255,26127,6,0,L|241:236,1,135,12|0,3:2|0:2,0:2:0:0:
189,174,26480,2,0,L|54:190,1,135,8|0,3:2|0:2,0:2:0:0:
12,268,26833,5,8,3:2:0:0:
104,108,27098,1,8,3:2:0:0:
276,73,27363,1,8,3:2:0:0:
440,177,27627,1,8,3:2:0:0:
339,331,27892,5,8,3:2:0:0:
344,291,27980,1,8,0:2:0:0:
346,252,28068,1,8,0:2:0:0:
204,119,28245,1,8,3:2:0:0:
263,214,28421,1,8,0:2:0:0:
347,13,28598,1,8,3:2:0:0:
313,16,28686,1,8,0:2:0:0:
279,20,28774,1,8,0:2:0:0:
246,23,28862,1,8,0:2:0:0:
212,27,28951,6,0,B|123:12|123:12|57:38,1,135,8|0,3:2|0:2,0:2:0:0:
26,94,29304,2,0,B|11:183|11:183|27:224,1,135,8|0,3:2|0:2,0:2:0:0:
95,280,29657,1,8,3:2:0:0:
245,175,29921,1,8,3:2:0:0:
433,229,30186,1,8,3:2:0:0:
270,344,30451,1,8,3:2:0:0:
341,179,30715,5,8,3:2:0:0:
349,139,30804,1,8,0:2:0:0:
355,96,30892,1,8,0:2:0:0:
263,12,31068,1,8,3:2:0:0:
50,76,31245,1,8,0:2:0:0:
50,76,31421,1,8,3:2:0:0:
204,100,31598,1,8,0:2:0:0:
95,226,31774,6,0,P|63:288|78:359,1,135,8|0,3:2|0:2,0:2:0:0:
262,379,32127,2,0,P|198:359|158:306,1,135,8|0,3:2|0:2,0:2:0:0:
181,208,32480,1,8,3:2:0:0:
301,267,32745,1,8,3:2:0:0:
444,215,33010,1,8,3:2:0:0:
504,84,33274,1,8,3:2:0:0:
281,27,33539,5,8,3:2:0:0:
275,71,33627,1,8,0:2:0:0:
269,115,33715,1,8,0:2:0:0:
264,160,33804,1,8,0:2:0:0:
256,204,33892,5,8,3:2:0:0:
5,115,34068,1,8,0:2:0:0:
197,44,34245,1,8,3:2:0:0:
66,242,34421,1,8,0:2:0:0:
108,335,34598,6,0,P|160:310|218:313,1,116.999994644165,2|0,0:2|0:2,0:2:0:0:
333,358,35127,1,0,0:2:0:0:
333,358,35215,1,0,0:2:0:0:
332,357,35304,2,0,P|375:364|416:348,2,87.749995983124,2|2|2,0:2|0:2|0:2,0:2:0:0:
288,247,36010,6,0,L|309:107,1,116.999994644165,2|0,0:2|0:2,0:2:0:0:
254,58,36539,1,0,0:2:0:0:
254,58,36715,1,2,0:2:0:0:
114,47,36980,1,2,0:2:0:0:
62,166,37245,1,2,0:2:0:0:
62,166,37421,6,0,L|175:136,1,116.999994644165,2|0,0:2|0:2,0:2:0:0:
263,168,37951,2,0,L|335:175,1,58.4999973220826,0|0,0:2|0:2,0:2:0:0:
377,243,38245,1,0,0:2:0:0:
377,243,38304,1,2,0:2:0:0:
489,229,38480,1,2,0:2:0:0:
428,349,38657,1,2,0:2:0:0:
293,294,38833,5,2,0:2:0:0:
187,382,39098,1,2,0:2:0:0:
67,332,39363,1,2,0:2:0:0:
66,332,39539,2,0,P|79:290|74:247,1,87.749995983124,2|2,0:2|0:2,0:2:0:0:
0,133,40068,1,2,0:2:0:0:
0,133,40157,1,2,0:0:0:0:
0,133,40245,6,0,B|62:132|40:182|131:180,1,116.999994644165,2|0,0:2|0:2,0:2:0:0:
181,125,40686,1,0,0:2:0:0:
181,125,40774,2,0,P|234:82|298:99,1,116.999994644165,2|0,0:2|0:2,0:2:0:0:
361,137,41304,2,0,L|446:120,1,58.4999973220826,2|0,0:2|0:2,0:2:0:0:
504,151,41657,5,2,0:2:0:0:
374,351,42186,1,0,0:2:0:0:
374,351,42274,1,0,0:2:0:0:
374,351,42363,1,2,0:2:0:0:
262,272,42627,1,2,0:2:0:0:
315,161,42892,1,2,0:2:0:0:
257,45,43068,6,0,B|213:50|213:50|192:68|192:68|147:75,1,116.999994644165,2|0,0:2|0:2,0:2:0:0:
11,124,43598,2,0,P|62:137|94:205,1,116.999994644165,2|0,0:2|0:2,0:2:0:0:
150,308,44127,1,2,0:2:0:0:
32,267,44304,1,2,0:2:0:0:
207,212,44480,5,2,0:2:0:0:
173,316,44657,1,0,0:2:0:0:
359,317,44833,1,2,0:2:0:0:
270,281,45010,1,0,0:2:0:0:
270,281,45098,1,0,0:2:0:0:
270,281,45186,1,2,0:2:0:0:
430,251,45363,1,2,0:2:0:0:
455,351,45539,1,0,0:2:0:0:
338,201,45715,1,2,0:2:0:0:
338,201,45804,1,2,0:2:0:0:
338,201,45892,6,0,L|351:129,1,58.4999973220826,2|0,0:2|0:2,0:2:0:0:
235,79,46245,2,0,L|245:136,1,58.4999973220826,2|0,0:2|0:2,0:2:0:0:
336,50,46539,1,0,0:2:0:0:
336,50,46598,1,2,0:2:0:0:
173,2,46863,1,2,0:2:0:0:
50,106,47127,1,2,0:2:0:0:
50,106,47304,6,0,P|72:126|86:152,1,58.4999973220826,2|0,0:2|0:2,0:2:0:0:
21,217,47657,2,0,P|5:241|0:270,1,58.4999973220826,0|0,0:2|0:2,0:2:0:0:
54,352,47951,1,0,0:2:0:0:
54,352,48010,1,2,0:2:0:0:
178,384,48274,1,2,0:2:0:0:
285,312,48539,1,2,0:2:0:0:
285,312,48627,1,2,0:2:0:0:
285,312,48715,6,0,L|271:241,1,58.4999973220826,2|0,0:2|0:2,0:2:0:0:
400,161,49068,2,0,L|388:218,1,58.4999973220826,0|0,0:2|0:2,0:2:0:0:
460,293,49333,1,2,0:2:0:0:
460,293,49421,1,2,0:2:0:0:
511,134,49686,1,2,0:2:0:0:
381,26,49951,1,2,0:2:0:0:
309,116,50127,5,2,0:2:0:0:
168,141,50392,1,2,0:2:0:0:
42,61,50657,1,2,0:2:0:0:
131,36,50833,5,2,0:2:0:0:
235,85,51098,1,2,0:2:0:0:
248,205,51363,1,2,0:2:0:0:
248,205,51451,1,2,0:2:0:0:
247,205,51539,6,0,P|236:231|235:260,1,58.4999973220826,2|0,0:2|0:2,0:2:0:0:
285,328,51892,1,2,0:2:0:0:
285,328,52068,2,0,P|359:315|415:333,1,116.999994644165,2|0,0:2|0:2,0:2:0:0:
505,384,52598,1,2,0:2:0:0:
401,336,52774,1,2,0:2:0:0:
467,253,52951,6,0,P|484:219|483:177,1,58.4999973220826,2|0,0:2|0:2,0:2:0:0:
462,92,53304,1,2,0:2:0:0:
462,92,53480,1,2,0:2:0:0:
380,138,53657,5,2,0:2:0:0:
267,128,53921,1,2,0:2:0:0:
208,38,54186,1,2,0:2:0:0:
121,15,54363,6,0,P|64:21|15:51,1,116.999994644165,2|0,0:2|0:2,0:2:0:0:
56,128,54892,2,0,P|78:172|82:241,1,116.999994644165,0|0,0:2|0:2,0:2:0:0:
32,340,55421,2,0,L|99:321,1,58.4999973220826,0|0,0:2|0:2,0:2:0:0:
177,353,55774,1,2,0:2:0:0:
416,366,56304,5,8,0:2:0:0:
328,332,56480,1,2,3:2:0:0:
304,292,56568,1,2,0:2:0:0:
309,247,56657,1,2,0:2:0:0:
341,214,56745,1,2,0:2:0:0:
364,184,56833,1,8,3:2:0:0:
366,156,56921,1,8,0:2:0:0:
353,128,57010,1,8,0:2:0:0:
342,108,57098,1,8,0:2:0:0:
342,90,57186,6,0,P|270:59|196:90,1,135,6|0,3:2|0:2,0:2:0:0:
152,123,57539,2,0,L|49:104,1,90,8|0,0:2|0:2,0:2:0:0:
7,170,57804,5,0,0:2:0:0:
7,170,57892,1,2,3:2:0:0:
77,252,58157,1,2,0:2:0:0:
38,370,58421,1,2,0:2:0:0:
131,343,58598,6,0,P|195:322|266:343,1,135,2|0,3:2|0:2,0:2:0:0:
350,363,58951,2,0,L|332:262,1,90,8|0,0:2|0:2,0:2:0:0:
271,217,59215,1,0,0:2:0:0:
271,217,59304,1,2,3:2:0:0:
190,122,59568,1,2,0:2:0:0:
252,20,59833,1,2,0:2:0:0:
333,49,60010,6,0,P|387:70|488:28,1,135,2|0,3:2|0:2,0:2:0:0:
498,117,60363,2,0,P|474:159|477:221,1,90,8|0,0:2|0:2,0:2:0:0:
506,283,60627,1,0,0:0:0:0:
506,283,60715,1,0,3:2:0:0:
303,322,60892,5,2,0:2:0:0:
444,365,61068,1,10,0:2:0:0:
406,222,61245,1,2,0:2:0:0:
387,303,61421,5,2,3:2:0:0:
233,384,61686,1,2,0:2:0:0:
82,292,61951,1,2,0:2:0:0:
171,309,62127,5,2,3:2:0:0:
106,209,62392,1,2,0:2:0:0:
150,98,62657,1,2,3:2:0:0:
150,98,62745,1,0,3:2:0:0:
150,98,62833,6,0,P|178:132|218:150,1,90,2|0,3:2|0:2,0:2:0:0:
387,137,63186,1,10,0:2:0:0:
429,56,63363,2,0,P|343:58|299:132,1,180,2|0,0:2|0:2,0:2:0:0:
331,306,63892,2,0,L|347:217,1,90,10|0,0:2|0:2,0:2:0:0:
419,357,64245,6,0,B|356:349|356:349|313:367|313:367|243:360,1,180,2|8,3:2|0:2,0:2:0:0:
65,323,64774,1,2,0:2:0:0:
148,382,64951,5,2,3:2:0:0:
209,245,65215,1,2,0:2:0:0:
131,136,65480,1,2,0:2:0:0:
132,11,65657,6,0,P|217:14|257:90,1,180,2|8,3:2|0:2,0:2:0:0:
305,177,66186,2,0,B|410:180|357:245|492:241,1,180,2|0,0:2|0:2,0:2:0:0:
483,380,66715,1,10,0:2:0:0:
392,324,66892,1,2,0:2:0:0:
195,352,67068,6,0,P|253:373|302:369,1,90,2|0,3:2|0:2,0:2:0:0:
284,162,67421,2,0,P|239:165|198:183,1,90,10|0,0:2|0:2,0:2:0:0:
109,225,67686,1,8,0:2:0:0:
109,225,67774,1,8,3:2:0:0:
93,202,67863,1,8,0:2:0:0:
81,177,67951,1,8,0:2:0:0:
81,150,68039,1,8,0:2:0:0:
86,123,68127,1,8,3:2:0:0:
103,102,68215,1,8,0:2:0:0:
125,86,68304,1,8,0:2:0:0:
151,84,68392,1,8,0:2:0:0:
177,89,68480,6,0,B|256:93|220:132|304:134,1,135,2|0,3:2|0:2,0:2:0:0:
446,162,68833,2,0,P|402:167|369:197,1,90,10|0,0:2|0:2,0:2:0:0:
323,276,69098,1,0,0:2:0:0:
323,276,69186,1,2,3:2:0:0:
171,373,69451,1,2,0:2:0:0:
22,282,69715,1,2,0:2:0:0:
110,246,69892,6,0,B|128:174|128:174|113:143|113:143|133:73,1,180,2|8,3:2|0:2,0:2:0:0:
294,42,70421,1,0,0:2:0:0:
211,67,70598,5,2,3:2:0:0:
341,150,70863,1,2,0:2:0:0:
471,53,71127,1,2,0:2:0:0:
419,122,71304,6,0,P|380:176|386:242,1,135,0|0,3:2|0:2,0:2:0:0:
412,330,71657,2,0,L|306:316,1,90,8|0,0:2|0:2,0:2:0:0:
245,258,71921,1,0,0:2:0:0:
245,258,72010,1,2,3:2:0:0:
28,315,72274,1,2,0:2:0:0:
173,384,72539,1,2,0:2:0:0:
165,291,72715,5,2,3:2:0:0:
23,118,72980,1,2,0:2:0:0:
66,256,73245,1,0,0:2:0:0:
147,188,73421,5,2,3:2:0:0:
234,5,73686,1,2,0:2:0:0:
120,99,73951,1,2,0:2:0:0:
226,147,74127,6,0,P|262:120|306:112,1,90,2|0,3:2|0:2,0:2:0:0:
415,93,74480,1,10,0:2:0:0:
415,93,74657,2,0,P|379:138|374:256,1,180,2|0,0:2|0:2,0:2:0:0:
445,360,75186,1,10,0:2:0:0:
240,329,75363,1,2,0:2:0:0:
292,247,75539,6,0,L|284:156,1,90,2|0,3:2|0:2,0:2:0:0:
278,21,75892,1,10,0:2:0:0:
71,58,76068,1,2,0:2:0:0:
161,91,76245,5,2,0:2:0:0:
211,222,76510,1,2,0:2:0:0:
107,361,76774,1,2,0:2:0:0:
30,316,76951,6,0,P|81:276|190:327,1,180,2|8,3:2|0:2,0:2:0:0:
387,247,77480,2,0,P|302:270|265:349,1,180,0|0,0:2|0:2,0:2:0:0:
498,287,78010,2,0,L|477:199,1,90,8|0,0:2|0:2,0:2:0:0:
284,53,78363,5,0,3:2:0:0:
395,162,78539,1,0,0:2:0:0:
437,13,78715,1,8,0:2:0:0:
297,143,78892,1,8,0:2:0:0:
266,161,78980,1,8,0:2:0:0:
230,163,79068,1,8,3:2:0:0:
194,153,79157,1,8,0:2:0:0:
164,132,79245,1,8,0:2:0:0:
131,117,79333,1,8,0:2:0:0:
95,110,79421,1,8,3:2:0:0:
49,113,79510,1,8,0:2:0:0:
18,144,79598,1,8,0:2:0:0:
25,195,79686,1,8,0:2:0:0:
62,228,79774,6,0,P|91:299|44:361,1,161.999995056153,12|0,3:2|0:2,0:2:0:0:
26,348,80127,2,0,P|93:323|151:362,1,107.999996704102,8|0,3:2|0:2,0:2:0:0:
250,372,80392,5,0,0:2:0:0:
250,372,80480,2,0,P|328:354|365:303,1,107.999996704102,8|0,3:2|0:2,0:2:0:0:
370,250,80745,2,0,P|315:191|253:184,1,107.999996704102,8|0,3:2|0:2,0:2:0:0:
216,208,81010,2,0,P|193:256|198:309,1,107.999996704102,8|0,3:2|0:2,0:2:0:0:
324,370,81274,2,0,L|430:352,1,107.999996704102,8|0,3:2|0:2,0:2:0:0:
503,299,81539,2,0,L|513:238,1,53.9999983520508,8|0,3:2|3:2,3:2:0:0:
435,197,81715,2,0,L|424:145,1,53.9999983520508,8|0,3:2|0:2,0:2:0:0:
427,15,81892,6,0,B|404:43|404:43|332:32,1,107.999996704102,8|0,3:2|0:2,0:2:0:0:
272,93,82157,2,0,B|249:65|249:65|177:75,1,107.999996704102,8|0,3:2|0:2,0:2:0:0:
107,23,82421,2,0,L|85:87,1,53.9999983520508,8|0,0:2|0:2,0:2:0:0:
19,187,82598,6,0,P|97:154|162:196,1,161.999995056153,8|0,3:2|0:2,0:2:0:0:
168,207,82951,2,0,L|149:335,1,107.999996704102,8|0,3:2|0:2,0:2:0:0:
297,214,83304,6,0,L|428:196,1,107.999996704102,8|0,3:2|0:2,0:2:0:0:
500,341,83568,2,0,L|369:323,1,107.999996704102,8|0,3:2|0:2,0:2:0:0:
240,321,83833,2,0,P|214:331|194:349,1,53.9999983520508,8|0,3:2|0:2,0:2:0:0:
22,331,84010,6,0,P|78:274|83:217,1,107.999996704102,8|0,3:2|0:2,0:2:0:0:
72,88,84274,2,0,P|91:137|134:170,1,107.999996704102,8|0,3:2|0:2,0:2:0:0:
225,129,84539,2,0,L|278:120,1,53.9999983520508,8|0,3:2|0:2,0:2:0:0:
387,160,84715,1,8,0:2:0:0:
435,149,84804,1,8,3:2:0:0:
485,136,84892,1,8,0:2:0:0:
348,36,85068,1,8,3:2:0:0:
307,214,85245,1,8,0:2:0:0:
300,255,85333,1,8,0:2:0:0:
291,301,85421,6,0,P|228:279|146:339,1,161.999995056153,8|0,3:2|0:2,0:2:0:0:
145,343,85774,2,0,L|39:318,1,107.999996704102,8|0,3:2|0:2,0:2:0:0:
12,199,86039,1,0,0:2:0:0:
12,199,86127,2,0,P|61:218|114:212,1,107.999996704102,8|0,3:2|0:2,0:2:0:0:
187,154,86392,2,0,P|212:144|239:145,2,53.9999983520508,8|0|0,3:2|0:2|0:2,0:2:0:0:
57,37,86657,2,0,P|123:43|156:90,1,107.999996704102,8|0,3:2|0:2,0:2:0:0:
227,19,86921,1,8,3:2:0:0:
227,19,87010,5,8,0:2:0:0:
272,8,87098,1,8,0:2:0:0:
319,13,87186,1,8,3:2:0:0:
354,37,87274,1,8,0:2:0:0:
373,83,87363,1,8,3:2:0:0:
448,268,87539,1,8,3:2:0:0:
320,174,87715,1,8,3:2:0:0:
483,103,87892,1,8,3:2:0:0:
354,280,88068,1,8,0:2:0:0:
354,280,88157,1,8,0:2:0:0:
354,280,88245,6,0,L|282:266,1,53.9999983520508,8|0,3:2|0:2,0:2:0:0:
137,237,88421,1,8,0:2:0:0:
182,364,88598,2,0,P|215:297|215:185,1,161.999995056153,8|0,3:2|0:2,0:2:0:0:
162,138,88951,5,8,3:2:0:0:
126,125,89039,1,8,0:2:0:0:
80,131,89127,1,8,0:2:0:0:
45,155,89215,2,0,P|20:213|42:285,1,107.999996704102,8|0,3:2|0:2,0:2:0:0:
80,358,89480,2,8,P|95:335|115:317,1,53.9999983520508,8|0,3:2|0:2,0:2:0:0:
239,288,89657,6,0,B|314:314|314:314|341:308,1,107.999996704102,8|0,3:2|0:2,0:2:0:0:
410,216,89921,2,0,B|485:190|485:190|512:195,1,107.999996704102,8|0,3:2|0:2,0:2:0:0:
438,362,90186,2,0,L|428:308,1,53.9999983520508,8|0,3:2|0:2,0:2:0:0:
315,217,90363,1,8,3:2:0:0:
313,48,90539,1,8,3:2:0:0:
448,125,90715,1,8,3:2:0:0:
266,133,90892,5,8,0:2:0:0:
266,133,90980,1,8,0:2:0:0:
266,133,91068,2,0,P|229:106|185:98,1,90,2|0,3:2|0:2,0:2:0:0:
50,210,91421,2,0,P|83:180|126:168,1,90,10|0,0:2|0:2,0:2:0:0:
246,279,91774,1,2,3:2:0:0:
134,258,91951,1,2,0:2:0:0:
240,374,92127,2,0,P|283:364|317:335,1,90,10|0,0:2|0:2,0:2:0:0:
377,197,92480,6,0,P|370:241|386:282,1,90,2|0,3:2|0:2,0:2:0:0:
469,342,92833,1,10,0:2:0:0:
469,342,93010,1,2,0:2:0:0:
462,129,93186,1,10,3:2:0:0:
302,168,93363,1,2,0:2:0:0:
392,186,93539,1,10,0:2:0:0:
252,91,93715,1,2,0:2:0:0:
137,15,93892,6,0,P|92:12|51:30,1,90,2|0,3:2|0:2,0:2:0:0:
91,190,94245,2,0,L|109:101,1,90,10|0,0:2|0:2,0:2:0:0:
0,235,94598,1,2,3:2:0:0:
0,235,94774,1,2,0:2:0:0:
93,354,94951,2,0,P|138:368|196:355,1,90,10|0,0:2|0:2,0:2:0:0:
263,221,95304,6,8,P|218:227|181:251,1,90,2|0,3:2|0:2,0:2:0:0:
311,342,95657,1,10,0:2:0:0:
311,342,95833,1,2,0:2:0:0:
377,121,96010,5,2,3:2:0:0:
465,222,96186,1,2,0:2:0:0:
342,258,96363,1,10,0:2:0:0:
264,157,96539,1,2,3:2:0:0:
264,157,96627,1,0,3:2:0:0:
264,157,96715,5,2,3:2:0:0:
135,30,96892,1,0,0:2:0:0:
59,185,97068,1,10,0:2:0:0:
216,74,97245,1,0,0:2:0:0:
140,233,97421,2,0,P|127:275|129:320,1,90,10|0,3:2|0:2,0:2:0:0:
234,356,97686,2,0,P|264:323|281:281,1,90,8|0,3:2|0:2,0:2:0:0:
259,201,97951,2,0,L|337:189,1,45,10|0,3:2|0:2,0:2:0:0:
367,143,98127,2,0,L|508:159,1,135,10|0,3:2|0:2,0:2:0:0:
501,158,98480,5,10,3:2:0:0:
416,33,98657,1,10,3:2:0:0:
269,103,98833,2,0,P|224:107|183:90,1,90,2|0,3:2|0:2,0:2:0:0:
39,5,99186,2,0,P|76:22|102:77,1,90,10|0,0:2|0:2,0:2:0:0:
113,145,99539,5,2,3:2:0:0:
3,236,99715,1,0,3:2:0:0:
3,236,99804,1,0,3:2:0:0:
3,236,99892,2,0,L|92:242,1,90,10|0,3:2|0:2,3:2:0:0:
209,345,100245,2,0,L|298:338,1,90,10|0,3:2|0:2,0:2:0:0:
354,277,100510,2,0,P|320:247|308:204,1,90,8|0,3:2|0:2,0:2:0:0:
242,151,100774,2,0,P|261:138|276:121,1,45,10|0,3:2|0:2,0:2:0:0:
324,28,100951,6,0,P|377:12|441:32,1,90,10|0,3:2|0:2,0:2:0:0:
483,70,101215,2,0,L|459:165,1,90,8|0,3:2|0:2,0:2:0:0:
399,233,101480,2,0,P|394:260|414:306,1,45,10|0,3:2|0:2,0:2:0:0:
433,378,101657,5,2,3:2:0:0:
256,292,101834,1,2,0:2:0:0:
362,300,102010,1,10,0:2:0:0:
176,363,102187,1,2,0:2:0:0:
176,363,102715,6,0,L|200:290,1,76.5000014591217,2|0,0:2|0:2,0:2:0:0:
141,223,103068,2,0,P|144:148|197:95,1,153.000002918243,2|0,3:2|0:2,0:2:0:0:
262,42,103598,2,0,L|102:60,1,153.000002918243,2|0,0:2|0:2,0:2:0:0:
41,121,104127,2,0,L|18:210,1,76.5000014591217,2|0,0:2|0:2,0:2:0:0:
126,349,104480,6,0,L|109:194,1,153.000002918243,2|0,3:2|0:2,0:2:0:0:
165,114,105009,2,0,P|238:96|308:123,1,153.000002918243,2|0,0:2|0:2,0:2:0:0:
367,194,105538,2,0,L|356:269,1,76.5000014591217,2|0,0:2|0:2,0:2:0:0:
473,366,105891,6,0,B|443:288|443:288|454:219,1,153.000002918243,2|0,3:2|0:2,0:2:0:0:
476,127,106420,2,0,B|414:85|414:85|337:98,1,153.000002918243,2|0,0:2|0:2,0:2:0:0:
175,131,106950,1,2,0:2:0:0:
238,30,107126,1,2,0:2:0:0:
286,183,107303,6,0,L|251:360,1,153.000002918243,2|0,3:2|0:2,0:2:0:0:
0,338,107832,1,2,0:2:0:0:
180,259,108009,1,2,0:2:0:0:
108,356,108185,1,2,0:2:0:0:
1,86,108450,5,2,0:2:0:0:
1,86,108538,2,0,L|33:36,1,38.2500007295609
55,162,108715,2,0,P|126:145|186:189,1,153.000002918243,2|0,3:2|0:2,0:2:0:0:
275,229,109244,2,0,L|416:207,1,114.750002188683,2|0,0:2|0:2,0:2:0:0:
388,211,109597,1,2,0:2:0:0:
425,316,109773,1,2,0:2:0:0:
512,174,109950,1,2,0:2:0:0:
459,41,110126,6,0,P|416:77|301:82,1,153.000002918243,2|0,3:2|0:2,0:2:0:0:
260,18,110656,2,0,L|135:7,1,114.750002188683,2|0,0:2|0:2,0:2:0:0:
145,7,111009,1,2,0:2:0:0:
42,77,111185,1,2,0:2:0:0:
104,182,111362,1,2,0:2:0:0:
189,179,111538,6,0,L|278:167,1,76.5000014591217,2|0,3:2|0:2,0:2:0:0:
336,227,111891,1,2,0:2:0:0:
174,267,112068,2,0,L|85:255,1,76.5000014591217,2|0,0:2|0:2,0:2:0:0:
27,315,112421,1,2,0:2:0:0:
89,384,112597,1,2,0:2:0:0:
190,375,112773,1,2,0:2:0:0:
258,305,112950,6,0,P|332:311|385:364,1,153.000002918243,2|0,3:2|0:2,0:2:0:0:
452,272,113568,1,2,0:2:0:0:
452,272,113656,2,0,B|432:216|432:216|443:175|443:175|428:125,1,153.000002918243,2|0,0:2|0:2,0:2:0:0:
341,24,114185,5,2,0:2:0:0:
341,24,114273,1,2,0:2:0:0:
341,23,114362,2,0,P|307:41|269:46,1,76.5000014591217,6|0,3:2|0:2,0:2:0:0:
175,13,114715,1,2,0:2:0:0:
36,96,114891,2,0,P|70:81|108:80,1,76.5000014591217,2|0,0:2|0:2,0:2:0:0:
220,192,115244,1,2,0:2:0:0:
93,163,115420,1,2,0:2:0:0:
132,281,115597,1,2,0:2:0:0:
219,103,115773,6,0,L|308:112,1,76.5000014591217,2|0,3:2|0:2,0:2:0:0:
366,163,116126,1,2,0:2:0:0:
267,265,116303,2,0,L|254:366,1,76.5000014591217,2|0,0:2|0:2,0:2:0:0:
324,384,116656,1,2,0:2:0:0:
431,325,116832,1,2,0:2:0:0:
324,384,117009,1,2,0:2:0:0:
175,305,117185,6,0,P|139:290|101:287,1,76.5000014591217,2|0,3:2|0:2,0:2:0:0:
20,326,117538,1,2,0:2:0:0:
131,200,117715,2,0,P|158:172|175:138,1,76.5000014591217,2|0,0:2|0:2,0:2:0:0:
31,35,118067,1,2,0:2:0:0:
53,159,118244,1,2,0:2:0:0:
146,0,118420,1,2,0:2:0:0:
281,137,118597,6,0,P|330:147|426:98,1,153.000002918243,2|0,3:2|0:2,0:2:0:0:
383,31,119126,1,2,0:2:0:0:
361,171,119303,1,2,0:2:0:0:
454,266,119479,1,2,0:2:0:0:
321,364,119744,1,2,0:2:0:0:
321,364,119832,2,0,P|343:373|360:386,1,38.2500007295609
233,322,120009,6,0,P|290:274|364:281,1,153.000002918243,6|0,3:2|0:2,0:2:0:0:
321,180,120538,2,0,P|284:170|252:148,1,76.5000014591217,2|0,0:2|0:2,0:2:0:0:
210,8,120891,1,2,0:2:0:0:
294,69,121067,1,2,0:2:0:0:
169,167,121244,1,2,0:2:0:0:
16,75,121420,6,0,B|62:64|62:64|190:94,1,153.000002918243,6|0,0:2|0:2,0:2:0:0:
258,183,121950,1,2,0:2:0:0:
258,183,122126,5,2,0:2:0:0:
161,268,122391,1,2,0:2:0:0:
224,384,122656,1,2,0:2:0:0:
297,340,122832,6,0,L|391:326,1,76.5000014591217,6|0,3:2|0:2,0:2:0:0:
454,352,123185,1,0,0:2:0:0:
454,352,123538,1,0,0:2:0:0:
494,268,123715,1,0,0:2:0:0:
443,187,123891,1,0,0:2:0:0:
443,187,124244,6,0,P|446:149|466:113,1,76.5000014591217,4|0,3:2|0:2,0:2:0:0:
399,29,124597,1,0,0:2:0:0:
399,29,124950,1,0,3:2:0:0:
360,32,125038,1,0,3:2:0:0:
322,36,125126,1,0,3:2:0:0:
284,42,125215,1,0,3:2:0:0:
246,48,125303,2,0,L|121:34,1,114.750002188683,8|0,0:2|0:2,0:2:0:0:
36,51,125656,5,6,3:2:0:0:
29,84,125744,1,0,0:2:0:0:
23,115,125832,1,0,0:2:0:0:
196,256,126009,1,8,0:2:0:0:
103,240,126185,1,0,0:2:0:0:
97,209,126273,1,0,0:2:0:0:
91,174,126362,6,0,P|130:154|174:157,1,90,2|0,3:2|0:2,0:2:0:0:
244,192,126626,2,0,P|283:212|327:209,1,90,2|0,0:2|0:2,0:2:0:0:
401,148,126891,2,0,L|409:206,1,45,2|0,0:2|0:2,0:2:0:0:
427,289,127067,5,2,3:2:0:0:
309,287,127244,1,0,0:2:0:0:
240,379,127420,1,8,0:2:0:0:
90,267,127597,1,0,0:2:0:0:
123,272,127685,1,0,0:2:0:0:
156,278,127773,1,2,3:2:0:0:
189,283,127861,1,0,0:2:0:0:
223,289,127949,1,0,0:2:0:0:
78,359,128126,1,8,0:2:0:0:
1,256,128303,1,2,0:2:0:0:
135,178,128479,6,0,B|159:137|159:137|141:51,1,135,2|0,3:2|0:2,0:2:0:0:
138,21,128832,2,0,P|178:43|222:48,1,90,8|0,0:2|0:2,0:2:0:0:
317,38,129097,1,0,0:2:0:0:
317,38,129185,1,0,3:2:0:0:
340,202,129362,1,2,0:2:0:0:
340,202,129538,1,10,0:2:0:0:
507,130,129715,1,2,0:2:0:0:
417,320,129891,6,0,L|312:305,1,90,2|0,3:2|0:2,0:2:0:0:
170,230,130156,2,0,L|259:217,1,90,2|0,0:2|0:2,0:2:0:0:
367,208,130420,2,0,L|376:164,1,45,2|0,0:2|0:2,0:2:0:0:
359,26,130597,2,0,P|300:13|257:28,1,90,2|0,3:2|0:2,0:2:0:0:
202,94,130862,2,0,P|148:75|118:33,1,90,2|0,0:2|0:2,0:2:0:0:
11,32,131126,5,2,0:2:0:0:
26,52,131215,1,2,0:2:0:0:
36,73,131303,2,0,P|56:125|19:219,1,135,2|0,3:2|0:2,0:2:0:0:
36,199,131656,1,10,0:2:0:0:
112,377,131832,2,0,P|105:332|116:289,1,90,2|0,0:2|3:2,0:2:0:0:
184,211,132185,1,0,0:2:0:0:
317,309,132362,2,0,L|418:319,1,90,10|0,0:2|0:2,0:2:0:0:
508,145,132715,6,0,B|421:143|444:212|344:205,1,180,2|8,3:2|0:2,0:2:0:0:
228,218,133244,1,0,0:2:0:0:
151,117,133420,2,0,L|167:25,1,90,2|0,3:2|0:2,0:2:0:0:
253,0,133685,2,0,P|309:17|367:-1,1,90,2|0,0:2|0:2,0:2:0:0:
426,0,133950,2,0,L|455:68,1,45,2|0,0:2|0:2,0:2:0:0:
438,141,134126,6,0,P|413:188|416:253,1,90,2|0,3:2|0:2,0:2:0:0:
455,332,134479,1,10,0:2:0:0:
323,234,134656,2,0,P|237:244|184:315,1,180,2|2,0:2|0:2,0:2:0:0:
0,304,135185,1,10,0:2:0:0:
115,384,135362,1,2,0:2:0:0:
16,180,135538,5,2,3:2:0:0:
113,248,135715,1,2,0:2:0:0:
158,129,135891,1,8,0:2:0:0:
191,125,135979,1,8,0:2:0:0:
225,121,136067,1,8,0:2:0:0:
258,117,136155,1,8,0:2:0:0:
292,113,136243,1,8,3:2:0:0:
512,44,136420,1,8,0:2:0:0:
483,73,136508,1,8,0:2:0:0:
443,89,136596,1,8,3:2:0:0:
402,87,136684,1,8,0:2:0:0:
365,69,136772,1,8,0:2:0:0:
343,40,136862,1,8,0:2:0:0:
321,12,136950,6,0,B|275:12|275:12|244:32|244:32|192:27,1,135,0|0,0:2|0:2,0:2:0:0:
36,131,137303,2,0,P|68:100|110:87,1,90,10|0,0:2|0:2,0:2:0:0:
245,161,137656,2,0,P|273:209|271:275,1,90,2|0,3:2|0:2,0:2:0:0:
215,299,137920,2,0,P|183:346|132:366,1,90,2|0,0:2|0:2,0:2:0:0:
69,343,138185,2,0,L|76:271,1,45,2|0,0:2|0:2,0:2:0:0:
184,118,138362,6,0,B|287:115|243:190|355:185,1,180,2|8,3:2|0:2,0:2:0:0:
512,115,138891,1,0,0:2:0:0:
432,55,139067,2,0,L|419:144,1,90,2|0,3:2|0:2,0:2:0:0:
474,201,139332,2,0,L|486:290,1,90,2|0,0:2|0:2,0:2:0:0:
402,322,139597,2,0,L|395:369,1,45,2|0,0:2|0:2,0:2:0:0:
310,258,139773,5,2,3:2:0:0:
266,267,139861,1,0,0:2:0:0:
221,277,139950,1,0,0:2:0:0:
152,361,140126,1,8,0:2:0:0:
18,167,140303,1,2,0:2:0:0:
47,173,140391,1,2,0:2:0:0:
76,186,140479,2,0,P|107:217|125:258,1,90,2|0,3:2|0:2,0:2:0:0:
195,181,140744,2,0,P|206:137|233:101,1,90,2|0,0:2|0:2,0:2:0:0:
148,76,141009,2,0,P|126:83|104:85,1,45,2|0,0:2|0:2,0:2:0:0:
247,0,141185,6,0,P|287:19|331:21,1,90,2|0,3:2|0:2,0:2:0:0:
443,9,141450,2,0,P|417:45|404:88,1,90,2|0,0:2|0:2,0:2:0:0:
323,133,141715,2,0,P|336:151|346:172,1,45,2|0,0:2|0:2,0:2:0:0:
433,225,141891,2,0,P|407:309|414:345,1,90,2|0,3:2|0:2,0:2:0:0:
506,365,142156,1,2,0:2:0:0:
506,365,142244,1,8,0:2:0:0:
318,287,142420,5,0,0:2:0:0:
285,303,142509,1,0,0:2:0:0:
251,317,142597,2,0,P|208:327|165:316,1,90,2|0,3:2|0:2,0:2:0:0:
118,237,142950,1,8,0:2:0:0:
216,62,143126,2,0,B|241:111|241:111|215:233,1,180,2|2,0:2|0:2,0:2:0:0:
32,215,143656,1,10,0:2:0:0:
151,139,143832,1,2,0:2:0:0:
299,229,144009,6,0,B|343:241|343:241|385:228,1,90,2|0,3:2|0:2,0:2:0:0:
463,187,144362,1,10,0:2:0:0:
370,22,144538,1,2,0:2:0:0:
348,107,144715,2,0,P|303:120|239:105,1,90,2|0,3:2|0:2,0:2:0:0:
192,46,144979,2,0,P|143:25|94:25,1,90,2|0,0:2|0:2,0:2:0:0:
21,73,145244,2,0,L|33:139,1,45,2|0,0:2|0:2,0:2:0:0:
109,167,145420,5,2,3:2:0:0:
99,203,145509,1,0,0:2:0:0:
91,237,145597,1,0,0:2:0:0:
2,293,145773,1,8,0:2:0:0:
103,344,145950,1,0,0:2:0:0:
146,337,146038,1,0,0:2:0:0:
182,309,146126,1,0,3:2:0:0:
200,269,146214,1,0,0:2:0:0:
196,224,146302,1,0,0:2:0:0:
126,134,146479,1,8,0:2:0:0:
188,44,146656,5,0,0:2:0:0:
188,44,146744,1,0,0:2:0:0:
188,44,146832,2,0,B|288:52|244:116|358:111,1,180,0|8,3:2|0:2,0:2:0:0:
498,18,147362,1,8,0:2:0:0:
455,32,147450,1,8,0:2:0:0:
431,64,147538,1,8,3:2:0:0:
426,110,147626,1,8,0:2:0:0:
448,145,147715,1,8,0:2:0:0:
482,173,147803,1,8,0:2:0:0:
495,217,147891,1,8,3:2:0:0:
475,261,147979,1,8,0:2:0:0:
438,285,148067,1,8,0:2:0:0:
421,324,148156,1,8,0:2:0:0:
437,364,148244,6,0,P|383:324|316:320,1,135,6|0,3:2|0:2,0:2:0:0:
316,320,148597,1,10,0:2:0:0:
82,359,148773,2,0,P|148:360|202:311,1,135,2|0,0:0|0:2,0:2:0:0:
198,318,149126,1,2,0:0:0:0:
33,183,149303,1,10,0:2:0:0:
33,183,149479,1,2,0:0:0:0:
120,108,149656,6,0,B|170:114|170:114|198:138|198:138|258:143,1,135,2|0,3:2|0:2,0:2:0:0:
246,142,150009,1,10,0:2:0:0:
451,19,150185,2,0,B|403:26|403:26|375:50|375:50|325:56,1,135,2|0,0:0|0:2,0:2:0:0:
326,57,150538,1,2,0:0:0:0:
406,235,150715,1,10,0:2:0:0:
329,174,150891,1,2,0:0:0:0:
495,212,151067,6,0,P|495:259|418:326,1,135,2|0,3:2|0:2,0:2:0:0:
438,321,151420,1,10,0:2:0:0:
294,256,151597,2,0,P|226:239|146:283,1,135,2|0,0:0|0:2,0:2:0:0:
167,261,151950,1,2,0:0:0:0:
22,348,152126,1,10,0:2:0:0:
156,374,152303,1,2,0:0:0:0:
0,188,152479,6,0,B|101:179|46:254|166:246,1,180,2|10,3:2|0:2,0:2:0:0:
323,202,153009,1,2,0:0:0:0:
179,118,153185,1,2,3:2:0:0:
263,317,153362,2,0,P|307:284|408:323,1,135,2|0,0:0|0:2,0:2:0:0:
382,295,153715,2,0,L|383:340,1,45,2|0,0:2|0:2,0:2:0:0:
451,380,153891,5,2,3:2:0:0:
491,167,154244,1,10,0:2:0:0:
408,199,154420,2,0,P|355:183|295:93,1,135,2|0,0:0|0:2,0:2:0:0:
303,124,154773,1,2,0:0:0:0:
146,25,154950,1,10,0:2:0:0:
146,25,155126,1,2,0:0:0:0:
69,80,155303,6,0,L|88:213,1,135,2|0,3:2|0:2,0:2:0:0:
88,213,155656,1,10,0:2:0:0:
189,364,155832,2,0,L|208:231,1,135,2|0,0:0|0:2,0:2:0:0:
208,230,156185,1,2,0:0:0:0:
12,271,156362,1,10,0:2:0:0:
122,311,156538,1,2,0:0:0:0:
223,148,156715,6,0,P|281:178|294:258,1,135,2|0,3:2|0:2,0:2:0:0:
298,241,157067,1,10,0:2:0:0:
391,373,157244,2,0,P|387:307|450:256,1,135,2|0,0:0|0:2,0:2:0:0:
434,261,157596,1,2,0:0:0:0:
505,141,157773,1,10,0:2:0:0:
387,163,157950,1,2,0:0:0:0:
342,0,158126,6,0,P|292:71|206:88,1,180,2|8,3:2|0:2,0:2:0:0:
48,41,158655,1,8,0:0:0:0:
30,50,158743,1,8,0:0:0:0:
11,59,158832,2,0,B|43:128|43:128|6:245,1,180,10|8,3:2|0:0,0:2:0:0:
147,271,159362,1,8,0:2:0:0:
147,271,159450,1,8,0:2:0:0:
147,271,159538,6,0,P|82:284|39:334,1,135,6|0,3:2|0:2,0:2:0:0:
39,334,159891,1,10,0:2:0:0:
232,379,160067,2,0,L|393:362,1,135,2|0,0:0|0:2,0:2:0:0:
366,364,160420,1,2,0:0:0:0:
470,236,160597,1,10,0:2:0:0:
470,236,160773,1,2,0:0:0:0:
390,203,160950,6,0,B|352:217|352:217|232:179,1,135,2|0,3:2|0:2,0:2:0:0:
261,188,161303,1,10,0:2:0:0:
184,33,161479,2,0,L|21:58,1,135,2|0,0:0|0:2,0:2:0:0:
50,53,161832,1,2,0:0:0:0:
13,158,162009,1,10,0:2:0:0:
111,143,162185,1,2,0:0:0:0:
213,17,162362,6,0,B|281:24|261:83|354:85,1,135,2|0,3:2|0:2,0:2:0:0:
327,82,162715,1,10,0:2:0:0:
486,157,162891,2,0,P|437:187|431:293,1,135,2|0,0:0|0:2,0:2:0:0:
417,258,163244,1,2,0:0:0:0:
242,354,163420,1,10,0:2:0:0:
378,379,163597,1,2,0:0:0:0:
276,265,163773,6,0,P|198:271|147:377,1,180,2|10,3:2|0:2,0:2:0:0:
2,274,164303,1,2,0:0:0:0:
165,130,164479,1,2,3:2:0:0:
78,54,164656,2,0,L|95:213,1,135,2|0,0:0|0:2,0:2:0:0:
92,188,165009,2,0,L|19:169,1,45,2|0,0:2|0:2,0:2:0:0:
112,264,165185,5,2,3:2:0:0:
281,198,165538,1,10,0:2:0:0:
353,238,165715,2,0,P|404:234|467:172,1,135,2|0,0:0|0:2,0:2:0:0:
463,179,166067,1,2,0:0:0:0:
476,18,166244,1,10,0:2:0:0:
476,18,166420,1,2,0:0:0:0:
378,26,166597,6,0,L|239:0,1,135,2|0,3:2|0:2,0:2:0:0:
245,1,166950,1,10,0:2:0:0:
166,97,167126,1,2,0:0:0:0:
72,29,167303,6,0,P|38:57|19:97,1,90,2|0,3:2|0:0,0:2:0:0:
92,152,167567,2,0,L|116:251,1,90,2|0,3:2|0:2,0:2:0:0:
181,284,167832,2,0,L|170:352,1,45,2|0,0:0|0:2,0:2:0:0:
235,384,168009,5,2,3:2:0:0:
383,298,168185,1,0,0:0:0:0:
285,293,168362,1,8,0:0:0:0:
372,384,168538,1,0,0:0:0:0:
415,376,168626,1,0,0:2:0:0:
450,349,168714,1,0,3:0:0:0:
467,307,168802,1,0,0:2:0:0:
461,263,168890,1,0,0:0:0:0:
398,117,169067,1,8,0:0:0:0:
393,161,169155,1,0,0:2:0:0:
389,206,169243,1,0,0:0:0:0:
492,52,169420,6,0,B|396:43|438:123|311:97,1,180,0|8,3:0|0:0,0:2:0:0:
167,31,169950,1,8,0:2:0:0:
211,16,170038,1,8,0:2:0:0:
247,33,170126,1,8,3:2:0:0:
259,71,170215,1,8,0:2:0:0:
243,113,170303,1,8,0:2:0:0:
198,134,170391,1,8,0:2:0:0:
155,115,170479,1,8,3:2:0:0:
108,98,170567,1,8,0:2:0:0:
60,103,170656,1,8,0:2:0:0:
15,126,170744,1,8,0:2:0:0:
0,169,170832,6,0,P|-5:223|8:275,1,107.999996704102,4|8,3:2|0:2,0:2:0:0:
166,350,171185,1,2,3:2:0:0:
318,252,171362,2,0,P|323:198|309:146,1,107.999996704102,10|0,0:2|3:2,0:2:0:0:
66,37,171715,1,10,0:2:0:0:
155,191,171891,1,2,3:2:0:0:
289,30,172067,1,10,0:2:0:0:
491,154,172244,6,0,L|371:139,1,107.999996704102,2|8,3:2|0:2,0:2:0:0:
197,109,172597,1,2,3:2:0:0:
198,329,172773,2,0,L|305:315,1,107.999996704102,10|0,0:2|3:2,0:2:0:0:
375,254,173038,1,0,3:2:0:0:
375,254,173127,1,10,0:2:0:0:
262,109,173303,1,2,3:2:0:0:
132,245,173479,1,10,0:2:0:0:
2,86,173656,6,0,B|53:63|53:63|128:89,1,107.999996704102,2|8,3:2|0:2,0:2:0:0:
203,165,174009,1,2,3:2:0:0:
304,242,174185,2,0,B|353:259|353:259|404:236,1,107.999996704102,10|0,0:2|3:2,0:2:0:0:
368,5,174538,1,10,0:2:0:0:
489,96,174715,1,2,3:2:0:0:
406,203,174891,1,10,0:2:0:0:
504,358,175067,6,0,P|430:333|362:373,1,161.999995056153,2|0,3:2|0:2,0:2:0:0:
362,373,175420,1,2,3:2:0:0:
119,306,175597,1,10,0:2:0:0:
233,384,175773,1,2,3:2:0:0:
294,312,175950,2,0,L|282:204,1,107.999996704102,10|0,0:2|3:2,0:2:0:0:
231,15,176303,5,10,0:2:0:0:
231,15,176391,1,0,3:2:0:0:
231,15,176479,2,0,L|207:130,1,107.999996704102,4|8,3:2|0:2,0:2:0:0:
166,288,176832,1,2,3:2:0:0:
7,143,177009,2,0,B|94:140|61:205|151:200,1,161.999995056153,10|0,0:2|0:2,0:2:0:0:
151,200,177362,1,10,0:2:0:0:
294,167,177538,1,2,3:2:0:0:
233,359,177715,1,10,0:2:0:0:
427,279,177891,6,0,L|411:154,1,107.999996704102,2|8,3:2|0:2,0:2:0:0:
389,34,178244,1,2,3:2:0:0:
254,166,178420,2,0,P|200:165|155:138,1,107.999996704102,10|0,0:2|3:2,0:2:0:0:
28,0,178773,1,10,0:2:0:0:
201,51,178950,1,2,3:2:0:0:
66,204,179126,1,10,0:2:0:0:
175,358,179303,6,0,L|302:338,1,107.999996704102,2|8,3:2|0:2,0:2:0:0:
500,296,179656,1,2,3:2:0:0:
308,246,179832,2,0,P|306:192|326:142,1,107.999996704102,10|0,0:2|3:2,0:2:0:0:
451,19,180185,1,10,2:2:0:0:
501,193,180362,1,2,3:2:0:0:
326,50,180538,1,8,2:2:0:0:
217,158,180715,5,0,3:2:0:0:
180,153,180803,1,0,3:2:0:0:
143,149,180891,1,8,3:2:0:0:
54,75,181067,1,0,3:2:0:0:
267,63,181244,1,8,0:2:0:0:
300,85,181332,1,0,3:2:0:0:
320,120,181420,1,0,3:2:0:0:
325,160,181508,1,0,3:2:0:0:
313,198,181596,1,8,0:2:0:0:
212,251,181773,1,0,3:2:0:0:
35,368,181950,5,8,0:0:0:0:
47,338,182038,1,0,3:2:0:0:
58,309,182126,2,0,L|175:335,1,107.999996704102,6|8,3:2|0:2,0:2:0:0:
343,361,182479,1,2,3:2:0:0:
510,208,182656,2,0,P|458:216|418:251,1,107.999996704102,10|0,0:2|3:2,0:2:0:0:
346,373,183009,1,10,0:2:0:0:
229,242,183185,1,2,3:2:0:0:
350,118,183362,1,10,0:2:0:0:
223,14,183538,6,0,L|110:2,1,107.999996704102,2|8,3:2|0:2,0:2:0:0:
49,49,183803,1,0,3:2:0:0:
49,49,183891,1,2,3:2:0:0:
168,204,184067,2,0,L|145:75,1,107.999996704102,10|0,0:2|3:2,0:2:0:0:
27,261,184420,1,10,0:2:0:0:
146,384,184597,1,2,3:2:0:0:
252,236,184773,1,10,0:2:0:0:
373,374,184950,6,0,P|426:375|474:351,1,107.999996704102,2|8,3:2|0:2,0:2:0:0:
512,171,185303,1,2,3:2:0:0:
392,68,185479,2,0,P|338:66|290:90,1,107.999996704102,10|0,0:2|3:2,0:2:0:0:
171,251,185832,1,10,0:2:0:0:
0,134,186009,1,2,3:2:0:0:
191,47,186185,1,10,0:2:0:0:
51,241,186362,6,0,P|34:291|36:345,1,107.999996704102,2|8,3:2|0:2,0:2:0:0:
292,284,186715,1,2,3:2:0:0:
141,297,186891,1,10,0:2:0:0:
409,368,187067,1,2,3:2:0:0:
289,333,187244,2,0,B|315:263|315:263|305:218|305:218|336:128,1,215.999993408203,10|10,0:2|0:2,0:2:0:0:
379,9,187685,5,0,3:2:0:0:
378,9,187773,2,0,P|333:36|280:39,1,107.999996704102,4|8,3:2|0:2,0:2:0:0:
58,94,188126,1,2,3:2:0:0:
186,28,188303,1,10,0:2:0:0:
176,63,188391,1,0,3:2:0:0:
164,99,188479,1,0,3:2:0:0:
20,199,188656,1,10,0:2:0:0:
170,271,188832,1,2,3:2:0:0:
119,181,189009,1,10,0:2:0:0:
91,374,189185,6,0,L|216:349,1,107.999996704102,2|8,3:2|0:2,0:2:0:0:
436,354,189538,1,2,3:2:0:0:
261,283,189715,1,10,0:2:0:0:
339,373,189891,2,0,L|362:263,1,107.999996704102,10|0,3:2|0:2,0:2:0:0:
443,234,190156,2,0,L|420:124,1,107.999996704102,10|0,3:2|0:2,0:2:0:0:
345,90,190420,2,0,L|357:11,1,53.9999983520508,10|0,3:2|0:2,0:2:0:0:
275,0,190597,6,0,B|161:-2|200:86|78:65,1,215.999993408203,8|0,3:2|0:2,0:2:0:0:
3,150,191126,2,0,P|75:183|68:318,1,215.999993408203,8|0,3:2|0:2,0:2:0:0:
148,367,191656,1,8,3:2:0:0:
174,364,191744,1,8,0:2:0:0:
201,361,191832,1,8,0:2:0:0:
228,358,191920,1,8,0:2:0:0:
255,354,192009,6,0,L|266:293,1,35.9999989013672,8|0,3:2|0:2,0:2:0:0:
181,295,192126,2,0,L|170:234,1,35.9999989013672,8|0,0:2|0:2,0:2:0:0:
251,250,192244,2,0,L|262:189,1,35.9999989013672,8|0,3:2|0:2,0:2:0:0:
181,186,192362,6,0,L|170:125,1,35.9999989013672,8|0,0:2|0:2,0:2:0:0:
252,138,192479,2,0,L|263:77,1,35.9999989013672,8|0,0:2|0:2,0:2:0:0:
173,67,192597,2,0,L|162:6,1,35.9999989013672,8|0,0:2|0:2,0:2:0:0:
241,7,192715,6,0,L|339:-4,1,71.9999978027344,8|0,3:2|0:2,0:2:0:0:
361,69,192950,2,0,L|452:104,1,71.9999978027344,8|0,3:2|0:2,0:2:0:0:
425,178,193185,2,0,L|479:249,1,71.9999978027344,8|0,3:2|0:2,0:2:0:0:
475,326,193420,6,0,L|399:315,1,58.4999973220826,2|0,0:2|0:2,0:2:0:0:
347,376,193773,2,0,L|271:387,1,58.4999973220826,2|0,0:2|0:2,0:2:0:0:
217,325,194126,1,2,0:2:0:0:
217,325,194303,1,2,0:2:0:0:
134,337,194479,2,0,P|106:372|97:410,1,58.4999973220826,2|0,0:2|0:2,0:2:0:0:
44,313,194832,6,0,P|38:284|24:258,1,58.4999973220826,2|0,0:2|0:2,0:2:0:0:
47,175,195185,1,2,0:2:0:0:
47,175,195362,1,2,0:2:0:0:
120,237,195538,2,0,L|201:248,1,58.4999973220826,2|0,0:2|0:2,0:2:0:0:
252,208,195891,2,0,L|337:200,1,58.4999973220826,2|0,0:2|0:2,0:2:0:0:
409,227,196244,6,0,P|426:183|425:149,1,58.4999973220826,2|0,0:2|0:2,0:2:0:0:
365,110,196597,2,0,P|353:64|333:36,1,58.4999973220826,2|0,0:2|0:2,0:2:0:0:
258,13,196950,1,2,0:2:0:0:
258,13,197126,1,2,0:2:0:0:
202,95,197303,2,0,L|133:103,1,58.4999973220826,2|0,0:2|0:2,0:2:0:0:
7,166,197656,6,0,L|76:174,1,58.4999973220826,2|0,0:2|0:2,0:2:0:0:
159,216,198009,2,0,P|178:253|180:292,1,58.4999973220826,2|0,0:2|0:2,0:2:0:0:
139,357,198362,1,2,0:2:0:0:
139,357,198715,1,2,0:2:0:0:
259,320,198891,5,2,0:2:0:0:
287,328,198979,1,0,0:2:0:0:
321,327,199067,2,0,L|378:314,1,58.4999973220826,10|0,3:2|0:2,0:2:0:0:
509,256,199420,2,0,L|451:243,1,58.4999973220826,10|0,3:2|0:2,0:2:0:0:
350,214,199773,6,0,P|344:185|346:156,1,58.4999973220826,10|0,3:2|0:2,0:2:0:0:
370,90,200038,2,0,P|348:109|321:121,1,58.4999973220826,8|0,3:2|0:2,0:2:0:0:
271,124,200303,2,0,P|249:104|222:92,1,58.4999973220826,8|0,3:2|0:2,0:2:0:0:
188,59,200567,2,0,P|166:78|139:90,1,58.4999973220826,8|0,3:2|0:2,0:2:0:0:
58,67,200832,1,8,3:2:0:0:
58,67,201009,1,8,3:2:0:0:
86,149,201185,1,8,0:2:0:0:
79,177,201273,1,8,3:2:0:0:
69,207,201362,1,8,0:2:0:0:
147,250,201538,1,8,3:2:0:0:
191,177,201715,5,8,0:2:0:0:
222,186,201803,1,8,0:2:0:0:
254,196,201891,2,0,P|282:186|311:183,1,58.4999973220826,8|0,3:2|0:2,0:2:0:0:
375,249,202244,2,0,P|403:256|428:271,1,58.4999973220826,8|0,3:2|0:2,0:2:0:0:
393,373,202597,6,0,L|316:358,1,58.4999973220826,8|0,3:2|0:2,0:2:0:0:
298,323,202862,2,0,L|221:338,1,58.4999973220826,8|0,3:2|0:2,0:2:0:0:
202,363,203126,2,0,L|144:354,1,58.4999973220826,8|0,3:2|0:2,0:2:0:0:
105,328,203391,2,0,P|121:300|129:265,1,58.4999973220826,8|0,3:2|0:2,0:2:0:0:
73,210,203656,1,8,3:2:0:0:
120,119,203832,1,8,0:2:0:0:
133,130,203920,1,8,0:2:0:0:
147,144,204009,6,0,L|146:177,6,22.5,8|8|8|8|8|8|8,0:2|0:2|0:2|0:2|0:2|0:2|0:2,0:2:0:0:
170,40,204362,1,8,0:2:0:0:
207,33,204450,1,8,0:2:0:0:
246,22,204538,1,8,0:2:0:0:
287,14,204626,1,8,0:2:0:0:
330,4,204715,5,10,3:2:0:0:
396,91,204891,2,0,L|405:158,4,45,2|0|0|0|8,0:2|0:2|0:2|0:2|0:2,0:2:0:0:
340,190,205420,1,2,3:2:0:0:
314,169,205508,1,0,0:2:0:0:
282,157,205596,1,0,0:2:0:0:
249,157,205684,1,0,3:2:0:0:
218,169,205772,1,8,3:2:0:0:
146,86,205950,6,0,L|133:147,4,45,2|0|8|0|0,3:2|0:2|3:2|3:2|3:2,0:2:0:0:
87,7,206479,1,2,3:2:0:0:
46,12,206567,1,0,0:2:0:0:
26,34,206656,1,8,0:2:0:0:
30,133,206832,1,2,3:2:0:0:
30,133,206920,1,0,0:2:0:0:
30,133,207009,2,0,L|45:196,4,45,0|0|8|0|0,0:2|0:2|3:2|0:2|3:2,0:2:0:0:
118,218,207538,5,10,3:2:0:0:
39,328,207715,2,0,L|47:270,4,45,2|0|0|0|8,0:2|0:2|3:2|0:2|3:2,0:2:0:0:
123,379,208244,1,2,3:2:0:0:
155,371,208332,1,0,0:2:0:0:
188,363,208420,1,0,0:2:0:0:
221,356,208508,1,0,3:2:0:0:
254,348,208596,1,8,3:2:0:0:
342,277,208773,6,0,L|329:351,4,45,2|0|8|0|0,3:2|0:2|3:2|3:2|3:2,0:2:0:0:
247,202,209303,1,2,3:2:0:0:
250,231,209391,1,0,0:2:0:0:
254,261,209479,1,8,0:2:0:0:
335,158,209656,1,2,3:2:0:0:
341,128,209744,1,0,0:2:0:0:
348,103,209832,2,0,L|361:47,4,45,0|0|8|0|0,0:2|0:2|3:2|0:2|3:2,0:2:0:0:
446,26,210362,5,10,3:2:0:0:
496,113,210538,2,0,L|484:169,4,45,2|0|0|0|8,0:2|0:2|3:2|0:2|0:2,0:2:0:0:
393,198,211067,1,2,3:2:0:0:
381,229,211155,1,0,0:2:0:0:
379,263,211243,1,0,0:2:0:0:
387,295,211331,1,0,3:2:0:0:
405,324,211419,1,8,3:2:0:0:
318,355,211597,6,0,L|255:334,4,45,2|0|8|0|0,3:2|0:2|3:2|3:2|3:2,0:2:0:0:
210,286,212126,1,2,3:2:0:0:
188,291,212214,1,0,0:2:0:0:
166,296,212302,1,8,0:2:0:0:
99,357,212479,1,2,3:2:0:0:
77,352,212567,1,0,0:2:0:0:
55,348,212656,2,0,L|47:303,1,45,0|0,0:2|0:2,0:2:0:0:
101,226,212832,1,10,3:2:0:0:
31,131,213009,1,2,3:2:0:0:
128,46,213185,5,10,3:2:0:0:
203,90,213362,1,2,0:2:0:0:
236,85,213450,1,0,0:2:0:0:
265,70,213538,1,0,3:2:0:0:
288,45,213626,1,0,0:2:0:0:
299,13,213714,1,8,3:2:0:0:
388,44,213891,2,0,L|372:91,4,45,2|0|0|0|8,3:2|0:2|0:2|3:2|3:2,0:2:0:0:
483,100,214420,5,2,3:2:0:0:
455,119,214508,1,0,0:2:0:0:
436,147,214596,1,8,3:2:0:0:
431,180,214684,1,0,3:2:0:0:
438,213,214772,1,0,3:2:0:0:
498,308,214950,1,2,3:2:0:0:
466,302,215038,1,0,0:2:0:0:
435,295,215126,1,8,0:2:0:0:
363,349,215303,2,0,L|319:354,3,45,2|0|0|0,3:2|0:2|0:2|0:2,0:2:0:0:
268,275,215656,1,8,0:2:0:0:
234,280,215744,1,8,0:2:0:0:
201,285,215832,1,8,0:2:0:0:
168,291,215920,1,8,0:2:0:0:
134,296,216009,6,0,L|140:251,1,45,10|0,3:2|0:2,0:2:0:0:
59,239,216185,2,0,L|52:194,1,45,2|0,0:2|0:2,0:2:0:0:
115,127,216362,1,2,3:2:0:0:
0,70,216538,1,10,0:2:0:0:
33,68,216626,1,0,0:2:0:0:
64,55,216714,1,0,3:2:0:0:
87,31,216802,1,0,0:2:0:0:
100,0,216890,1,0,0:2:0:0:
180,29,217067,6,0,L|240:10,1,45,10|0,3:2|0:2,0:2:0:0:
266,76,217244,2,0,L|331:88,1,45,2|0,3:2|0:2,0:2:0:0:
388,54,217420,1,10,3:2:0:0:
456,118,217597,1,2,3:2:0:0:
367,144,217773,1,2,3:2:0:0:
364,172,217861,1,0,0:2:0:0:
362,201,217949,1,8,0:2:0:0:
512,326,218126,1,2,3:2:0:0:
484,297,218215,1,0,0:2:0:0:
444,282,218303,1,0,0:2:0:0:
398,282,218391,1,0,0:2:0:0:
356,307,218479,1,8,3:2:0:0:
314,329,218567,1,0,0:2:0:0:
268,321,218656,1,0,3:2:0:0:
228,293,218744,1,0,3:2:0:0:
207,247,218832,5,10,3:2:0:0:
261,187,219009,1,2,0:2:0:0:
278,158,219097,1,0,0:2:0:0:
285,125,219185,1,0,3:2:0:0:
278,92,219273,1,0,0:2:0:0:
260,64,219361,1,8,3:2:0:0:
180,19,219538,2,0,L|119:11,1,45,2|0,3:2|0:2,0:2:0:0:
80,68,219715,2,0,L|4:87,1,45,2|0,0:2|3:2,0:2:0:0:
0,149,219891,1,10,3:2:0:0:
84,202,220067,5,2,3:2:0:0:
102,230,220155,1,0,0:2:0:0:
110,262,220243,1,8,3:2:0:0:
109,296,220331,1,0,3:2:0:0:
98,328,220420,1,0,3:2:0:0:
217,304,220597,2,0,L|287:291,1,45,2|0,3:2|0:2,0:2:0:0:
317,358,220773,2,0,L|388:362,1,45,10|0,0:2|3:2,0:2:0:0:
436,311,220950,1,2,3:2:0:0:
438,293,221038,1,0,0:2:0:0:
439,277,221126,1,2,0:2:0:0:
349,199,221303,1,10,3:2:0:0:
351,219,221391,1,0,0:2:0:0:
354,239,221479,1,0,3:2:0:0:
415,117,221656,5,10,3:2:0:0:
386,98,221744,1,0,0:2:0:0:
353,91,221832,1,0,0:2:0:0:
320,95,221920,1,0,0:2:0:0:
290,111,222008,1,0,3:2:0:0:
225,188,222185,2,0,L|180:180,1,45,10|0,0:2|0:2,0:2:0:0:
127,119,222362,2,0,L|77:132,1,45,2|0,3:2|0:2,0:2:0:0:
14,205,222538,1,2,0:2:0:0:
27,302,222715,5,10,3:2:0:0:
58,291,222803,1,0,0:2:0:0:
84,269,222891,1,0,3:2:0:0:
101,240,222979,1,0,0:2:0:0:
106,207,223067,1,8,3:2:0:0:
72,115,223244,1,2,3:2:0:0:
141,59,223420,1,2,3:2:0:0:
163,57,223508,1,0,0:2:0:0:
185,56,223596,1,8,0:2:0:0:
252,117,223773,1,2,3:2:0:0:
287,129,223862,1,0,0:2:0:0:
321,127,223950,1,0,0:2:0:0:
356,120,224038,1,0,0:2:0:0:
391,102,224126,1,8,3:2:0:0:
409,69,224215,1,0,0:2:0:0:
441,46,224303,1,0,3:2:0:0:
479,44,224391,1,0,3:2:0:0:
507,59,224479,6,0,B|551:179|456:263|456:263|435:172,1,315,10|0,3:2|0:2,0:2:0:0:
421,94,225185,2,0,B|252:106|339:231|130:208,1,315,10|0,3:2|0:2,0:2:0:0:
0,199,225891,2,0,P|136:242|106:383,1,315,10|0,3:2|3:2,0:2:0:0:
45,296,226597,2,0,B|135:301|135:301|199:348|199:348|299:352,1,270,10|0,3:2|3:0,0:2:0:0:
369,291,227215,1,0,0:2:0:0:
368,291,227303,6,0,P|384:226|316:150,1,161.999995056153,8|0,3:2|0:2,0:2:0:0:
330,170,227656,2,0,P|378:194|452:178,1,107.999996704102,8|0,3:2|0:2,0:2:0:0:
447,21,228009,6,0,P|386:26|339:67,1,107.999996704102,8|0,3:2|0:2,0:2:0:0:
276,90,228273,2,0,P|215:85|168:44,1,107.999996704102,8|0,3:2|0:2,0:2:0:0:
99,10,228538,2,0,P|42:53|34:118,1,107.999996704102,8|0,0:2|0:2,0:2:0:0:
102,156,228803,2,0,L|123:261,1,107.999996704102,8|0,3:2|0:2,0:2:0:0:
123,261,229067,1,8,3:2:0:0:
48,363,229244,1,8,3:2:0:0:
214,309,229420,2,0,P|265:291|318:299,1,107.999996704102,8|0,3:2|0:2,0:2:0:0:
385,372,229685,2,0,P|412:327|412:274,1,107.999996704102,8|0,3:2|0:2,0:2:0:0:
366,98,229950,5,8,3:2:0:0:
354,139,230038,1,8,3:2:0:0:
341,177,230126,2,0,P|264:200|193:134,1,161.999995056153,8|0,3:2|0:2,0:2:0:0:
210,145,230479,2,0,P|230:193|213:243,1,107.999996704102,8|0,3:2|0:2,0:2:0:0:
44,255,230832,6,0,P|20:192|50:126,1,107.999996704102,8|0,3:2|0:2,0:2:0:0:
97,96,231097,2,0,P|143:70|167:22,1,107.999996704102,8|0,3:2|0:2,0:2:0:0:
247,45,231362,2,0,L|366:61,1,107.999996704102,8|0,3:2|0:2,0:2:0:0:
480,21,231626,2,0,P|431:86|440:128,1,107.999996704102,8|0,3:2|0:2,0:2:0:0:
503,166,231891,2,0,L|491:245,1,53.9999983520508,8|0,3:2|0:2,0:2:0:0:
410,242,232067,2,0,L|421:294,1,53.9999983520508,8|0,3:2|0:2,0:2:0:0:
482,367,232244,1,8,3:2:0:0:
336,200,232420,1,8,3:2:0:0:
274,353,232597,2,0,P|198:374|131:332,1,161.999995056153,8|0,3:2|0:2,0:2:0:0:
120,236,232950,6,0,P|144:162|91:105,1,161.999995056153,8|0,3:2|0:2,0:2:0:0:
89,120,233303,2,0,L|194:94,1,107.999996704102,8|0,3:2|0:2,0:2:0:0:
416,12,233656,6,0,P|343:12|300:62,1,107.999996704102,8|0,3:2|0:2,0:2:0:0:
294,138,233920,2,0,P|241:138|196:109,1,107.999996704102,8|0,3:2|0:2,0:2:0:0:
155,14,234185,2,0,L|43:34,1,107.999996704102,8|0,3:2|0:2,0:2:0:0:
55,126,234450,2,0,P|91:187|85:250,1,107.999996704102,8|0,3:2|0:2,0:2:0:0:
35,284,234715,2,0,P|24:308|20:335,1,53.9999983520508,8|0,3:2|0:2,0:2:0:0:
114,338,234891,2,0,P|124:362|140:384,1,53.9999983520508,8|0,3:2|0:2,0:2:0:0:
355,359,235067,1,8,3:2:0:0:
202,311,235244,1,8,0:2:0:0:
314,211,235420,1,8,3:2:0:0:
306,242,235509,1,8,0:2:0:0:
298,279,235597,1,8,0:2:0:0:
166,147,235773,6,0,P|170:70|236:27,1,161.999995056153,8|0,3:2|0:2,0:2:0:0:
244,36,236126,2,0,P|294:53|347:45,1,107.999996704102,8|0,3:2|0:2,0:2:0:0:
497,117,236479,6,0,P|448:156|449:241,1,107.999996704102,8|0,3:2|0:2,0:2:0:0:
487,293,236744,2,0,L|376:285,1,107.999996704102,8|0,3:2|0:2,0:2:0:0:
315,350,237009,2,0,L|204:358,1,107.999996704102,8|0,3:2|0:2,0:2:0:0:
163,276,237273,2,0,P|112:258|61:271,1,107.999996704102,8|0,3:2|0:2,0:2:0:0:
66,176,237538,2,0,P|108:132|116:65,1,107.999996704102,8|0,3:2|0:2,0:2:0:0:
165,16,237803,1,8,3:2:0:0:
190,20,237891,2,8,L|204:-17,1,26.9999991760254,8|8,0:2|0:2,0:2:0:0:
221,33,237979,2,8,L|261:5,1,26.9999991760254,8|8,0:2|0:2,0:2:0:0:
252,63,238067,2,8,L|288:48,1,26.9999991760254,8|8,0:2|0:2,0:2:0:0:
277,101,238156,2,8,L|326:99,1,26.9999991760254,8|8,0:2|0:2,0:2:0:0:
278,146,238244,5,8,0:2:0:0:
250,177,238332,1,8,0:2:0:0:
239,221,238420,1,8,0:2:0:0:
251,266,238509,1,8,0:2:0:0:
289,294,238597,1,8,0:2:0:0:
