osu file format v14

[General]
AudioFilename: audio.mp3
AudioLeadIn: 0
PreviewTime: 363
Countdown: 0
SampleSet: Soft
StackLeniency: 0.8
Mode: 0
LetterboxInBreaks: 0
WidescreenStoryboard: 1

[Editor]
Bookmarks: 23304,34598,57186,79774,103068,114362,125656,148244,170832,193420,204715,227303,238598
DistanceSpacing: 1
BeatDivisor: 4
GridSize: 16
TimelineZoom: 1

[Metadata]
Title:Guuzou ni Sekai o Yudanete ~ Idoratrize World
TitleUnicode:偶像に世界を委ねて 〜 Idoratrize World
Artist:ZUN
ArtistUnicode:ZUN
Creator:Halfslashed
Version:Normal
Source:東方鬼形獣 ~ Wily Beast and Weakest Creature.
Tags:th17 Haniyasushin Keiki touhou kikeijuu 埴安神袿姫 はにやすしん けいき 東方Project team shanghai alice entrust this world to idols idolatrize coe 2022 hr2 video game instrumental shurelia nik nikolomara
BeatmapID:3915207
BeatmapSetID:1813899

[Difficulty]
HPDrainRate:3
CircleSize:3
OverallDifficulty:4
ApproachRate:6
SliderMultiplier:1.2
SliderTickRate:1

[Events]
//Background and Video events
0,0,"keiki bg.png",0,0
//Break Periods
2,103068,113312
2,193620,198017
//Storyboard Layer 0 (Background)
//Storyboard Layer 1 (Fail)
//Storyboard Layer 2 (Pass)
//Storyboard Layer 3 (Foreground)
//Storyboard Layer 4 (Overlay)
//Storyboard Sound Samples

[TimingPoints]
716,352.941176470588,4,2,1,50,1,0
23304,-100,4,2,1,60,0,0
34598,-125,4,2,1,40,0,0
45892,-125,4,2,1,45,0,0
57186,-100,4,2,1,60,0,0
79774,-100,4,2,1,50,0,0
85421,-100,4,2,1,60,0,0
91068,-100,4,2,1,50,0,0
96715,-100,4,2,1,60,0,0
103068,352.941176470588,4,2,1,50,1,0
114362,-125,4,2,1,50,0,0
125656,-100,4,2,1,65,0,0
148244,-90.9090909090909,4,2,1,80,0,1
170832,-83.3333333333333,4,2,1,85,0,1
193420,-125,4,2,1,40,0,0
199067,-125,4,2,1,45,0,0
204715,-111.111111111111,4,2,1,55,0,0
216009,-100,4,2,1,65,0,0
224479,-100,4,2,1,50,0,0
227303,-100,4,2,1,60,0,0
238597,-100,4,2,1,50,0,0

[Colours]
Combo1 : 189,236,187
Combo2 : 255,91,21
Combo3 : 33,160,125
Combo4 : 255,174,125

[HitObjects]
0,353,23304,6,0,P|48:266|44:225,1,120,14|0,0:0|1:0,0:0:0:0:
164,217,24010,2,0,B|72:198|72:198|4:132,2,180,8|8|8,0:0|0:0|0:0,0:0:0:0:
244,128,25421,2,0,P|290:84|337:68,2,90,2|2|2,1:2|0:0|1:2,0:0:0:0:
247,188,26127,6,0,P|292:226|313:281,1,120,10|0,0:0|1:0,0:0:0:0:
431,303,26833,2,0,B|339:321|339:321|271:387,2,180,8|8|8,0:0|0:0|0:0,0:0:0:0:
455,185,28245,2,0,L|536:208,2,60,2|2|2,1:2|1:2|1:2,0:0:0:0:
379,91,28951,5,10,0:0:0:0:
267,135,29304,1,2,1:2:0:0:
156,87,29657,2,0,L|177:-27,4,90,10|10|10|10|10,0:0|0:0|0:0|0:0|0:0,0:0:0:0:
39,116,31068,2,0,L|88:220,1,90,2|2,1:2|0:0,0:0:0:0:
152,258,31598,1,0,1:0:0:0:
152,258,31774,5,10,0:0:0:0:
242,178,32127,1,2,1:2:0:0:
349,231,32480,2,0,L|365:319,4,90,10|10|10|10|10,0:0|0:0|0:0|0:0|0:0,0:0:0:0:
235,270,33892,2,0,L|162:256,1,60,2|2,3:2|3:0,0:0:0:0:
137,305,34245,2,0,L|64:318,1,60,2|2,3:2|3:0,0:0:0:0:
30,326,34598,5,2,3:2:0:0:
30,326,35304,2,0,P|58:277|43:178,1,144,2|2,3:2|3:2,0:0:0:0:
17,158,36010,1,2,3:2:0:0:
17,158,36715,2,0,P|45:109|138:72,1,144,2|2,3:2|3:2,0:0:0:0:
169,84,37421,6,0,B|301:98|387:11|387:11|417:22|425:62,1,288,2|0,3:2|0:0,0:0:0:0:
437,141,38833,2,0,L|504:174,2,72,2|2|2,3:2|0:0|0:0,0:0:0:0:
393,161,39539,2,0,L|388:86,2,72,2|2|2,0:0|0:0|3:2,0:0:0:0:
427,194,40245,5,2,3:2:0:0:
469,280,40598,2,0,L|520:304,1,48,2|2,0:0|3:2,0:0:0:0:
387,372,41304,2,0,P|367:322|369:264,1,96,2|2,0:0|3:2,0:0:0:0:
182,223,42363,2,0,L|110:247,2,72,2|2|2,3:2|0:0|3:2,0:0:0:0:
222,248,43068,6,0,B|268:278|276:328|276:328|259:350|226:337,1,144,2|2,3:2|3:2,0:0:0:0:
98,381,44127,2,0,L|79:328,1,48,2|0,0:0|0:0,0:0:0:0:
40,311,44480,1,2,3:2:0:0:
83,225,44833,1,2,0:0:0:0:
57,134,45186,2,0,L|4:153,2,48,2|0|2,3:2|0:0|0:0,0:0:0:0:
68,87,45715,1,2,3:2:0:0:
68,87,45892,6,0,P|128:120|145:143,1,96,2|0,3:2|3:0,0:0:0:0:
239,161,46598,2,0,P|228:185|225:238,2,72,2|2|2,0:0|0:0|3:2,0:0:0:0:
220,117,47304,1,2,0:0:0:0:
68,0,48010,2,0,P|41:3|-5:26,2,72,2|2|2,0:0|0:0|3:2,0:0:0:0:
115,8,48715,5,2,0:0:0:0:
301,51,49421,2,0,P|322:35|351:-8,2,72,2|2|2,0:0|0:0|3:2,0:0:0:0:
275,91,50127,2,0,P|278:117|301:164,1,72,2|2,0:0|0:0,0:0:0:0:
365,211,50657,1,2,3:2:0:0:
365,211,50833,2,0,P|386:194|435:177,1,72,2|2,0:0|0:0,0:0:0:0:
511,191,51363,1,2,3:2:0:0:
511,191,51539,5,2,0:0:0:0:
495,285,51892,2,0,L|484:345,1,48,2|2,0:0|3:2,0:0:0:0:
390,341,52421,2,0,L|358:304,2,48,2|0|2,3:2|0:0|3:2,0:0:0:0:
368,384,52951,1,2,0:0:0:0:
273,368,53304,2,0,L|213:357,1,48,2|2,0:0|3:2,0:0:0:0:
221,311,53657,2,0,P|242:295|271:251,2,72,2|2|2,0:0|0:0|3:2,0:0:0:0:
190,273,54363,6,0,P|210:186|462:57,1,384,2|2,0:0|0:0,0:0:0:0:
505,188,56304,2,0,L|396:162,1,96,8|8,0:0|0:0,0:0:0:0:
365,152,56833,2,0,L|305:166,1,48,8|8,0:0|0:0,0:0:0:0:
260,180,57186,6,0,P|293:142|303:70,1,120,6|8,1:2|0:0,0:0:0:0:
184,62,57892,2,0,P|122:59|81:39,2,90,2|2|2,1:2|0:0|3:2,0:0:0:0:
220,14,58598,2,0,P|265:-8|337:0,1,120,2|8,1:2|0:0,0:0:0:0:
360,116,59304,2,0,P|419:97|453:67,1,90,2|2,1:2|0:0,0:0:0:0:
496,9,59833,1,0,1:2:0:0:
496,9,60010,6,0,P|480:53|469:251,1,240,2|0,1:2|1:0,0:0:0:0:
503,292,60892,2,0,L|480:347,1,60,2|8,0:0|0:0,0:0:0:0:
425,359,61244,1,2,3:2:0:0:
425,359,61421,2,0,P|396:303|393:258,2,90,2|2|2,1:2|0:0|0:0,0:0:0:0:
366,346,62127,2,0,P|313:312|288:274,2,90,2|2|10,1:2|0:0|0:0,0:0:0:0:
316,379,62833,6,0,P|287:337|220:308,1,120,2|10,1:2|3:2,0:0:0:0:
174,276,63363,2,0,P|137:341|35:335,1,180,2|10,3:2|0:0,0:0:0:0:
0,226,64245,2,0,P|45:203|117:212,1,120,2|8,1:2|0:0,0:0:0:0:
227,173,64951,2,0,P|236:216|259:255,2,90,2|2|2,1:2|0:0|3:2,0:0:0:0:
268,129,65657,6,0,P|222:106|150:115,1,120,2|10,1:2|0:0,0:0:0:0:
104,144,66186,2,0,P|61:115|33:49,1,120,2|0,3:2|0:0,0:0:0:0:
75,10,66715,1,10,0:0:0:0:
194,2,67068,1,2,1:2:0:0:
311,25,67421,2,0,L|298:83,1,60,10|10,0:0|0:0,0:0:0:0:
284,142,67774,2,0,L|233:173,2,60,10|10|8,0:0|0:0|0:0,0:0:0:0:
331,189,68304,1,2,1:2:0:0:
331,189,68480,6,0,P|377:152|436:146,1,120,6|10,1:2|0:0,0:0:0:0:
512,55,69186,2,0,P|482:22|443:0,2,90,2|2|2,1:2|0:0|3:2,0:0:0:0:
467,95,69892,2,0,P|408:103|354:79,1,120,2|8,1:2|0:0,0:0:0:0:
262,2,70598,2,0,P|218:0|174:11,2,90,2|2|2,1:2|0:2|3:2,0:0:0:0:
248,60,71304,6,0,P|200:95|179:150,1,120,2|8,1:2|0:0,0:0:0:0:
111,249,72010,2,0,P|150:270|180:304,2,90,2|2|2,1:2|0:0|3:2,0:0:0:0:
90,192,72715,2,0,P|50:213|20:247,1,90,10|8,3:2|3:2,0:0:0:0:
23,337,73245,1,8,3:2:0:0:
23,337,73421,2,0,P|67:336|110:350,1,90,8|8,3:2|3:2,0:0:0:0:
194,384,73951,1,8,3:2:0:0:
194,384,74127,5,2,1:2:0:0:
288,309,74480,1,10,0:0:0:0:
288,309,74657,2,0,P|323:356|378:377,1,120,10|10,3:2|0:0,0:0:0:0:
437,366,75186,2,0,L|450:290,1,60,0|2,1:0|3:2,0:0:0:0:
412,257,75539,1,2,1:2:0:0:
503,179,75892,1,10,0:0:0:0:
503,179,76068,1,10,0:0:0:0:
503,179,76245,2,0,P|480:140|470:96,2,90,10|10|2,1:2|0:0|3:2,0:0:0:0:
442,175,76951,6,0,P|395:138|336:132,1,120,2|8,1:2|0:0,0:0:0:0:
221,167,77657,1,0,1:0:0:0:
190,50,78010,1,8,0:0:0:0:
305,18,78363,2,0,P|358:42|417:33,1,120,2|8,1:2|0:0,0:0:0:0:
469,2,78892,1,8,0:0:0:0:
469,2,79068,2,0,L|482:82,1,60,8|8,0:0|0:0,0:0:0:0:
431,99,79421,2,0,L|418:179,1,60,8|8,0:0|0:0,0:0:0:0:
375,196,79774,5,4,1:0:0:0:
185,49,80480,2,0,L|103:-5,4,90,10|10|10|10|10,0:0|0:0|0:0|0:0|0:0,0:0:0:0:
226,162,81892,1,2,1:2:0:0:
119,218,82245,2,0,L|39:205,1,60,0|10,1:0|0:0,0:0:0:0:
0,197,82598,5,2,1:2:0:0:
204,323,83304,2,0,L|291:278,2,90,10|10|10,0:0|0:0|0:0,0:0:0:0:
150,296,84010,2,0,L|130:392,2,90,2|2|2,3:2|3:2|3:2,0:0:0:0:
97,267,84715,2,0,L|78:192,2,60,2|2|2,1:2|1:2|1:2,0:0:0:0:
59,314,85245,1,8,0:0:0:0:
59,314,85421,5,2,1:2:0:0:
159,379,85774,1,8,0:0:0:0:
258,311,86127,2,0,P|273:265|307:235,4,90,2|2|10|2|10,1:2|3:2|0:0|1:2|0:0,0:0:0:0:
292,367,87363,1,2,0:0:0:0:
292,367,87539,2,0,P|351:363|421:394,1,120,2|10,1:2|0:0,0:0:0:0:
467,366,88068,1,0,3:0:0:0:
467,366,88245,5,2,1:2:0:0:
380,282,88598,1,8,0:0:0:0:
393,162,88951,2,0,P|366:121|325:101,2,90,2|2|2,1:2|3:2|0:0,0:0:0:0:
438,202,89657,2,0,P|483:186|513:151,1,90,2|2,1:2|3:2,0:0:0:0:
500,71,90186,1,2,3:2:0:0:
500,71,90363,2,0,L|487:12,2,60,2|2|10,3:2|0:0|0:0,0:0:0:0:
446,58,90892,1,0,3:0:0:0:
446,58,91068,5,6,1:2:0:0:
493,293,91774,2,0,L|462:386,2,90,10|10|10,0:0|0:0|0:0,0:0:0:0:
510,235,92480,1,2,1:2:0:0:
416,159,92833,2,0,L|351:191,1,60,10|10,0:0|0:0,0:0:0:0:
307,210,93186,2,0,P|268:159|263:84,1,120,0|8,1:0|0:0,0:0:0:0:
337,11,93892,5,2,1:2:0:0:
108,85,94598,2,0,L|77:-8,2,90,8|10|10,0:0|0:0|0:0,0:0:0:0:
123,143,95304,1,2,1:2:0:0:
73,252,95657,2,0,L|137:284,1,60,10|8,0:0|0:0,0:0:0:0:
171,238,96010,2,0,P|229:237|280:278,1,120,0|10,1:0|0:0,0:0:0:0:
361,357,96715,6,0,L|296:389,1,60,2|0,1:2|1:0,0:0:0:0:
254,354,97068,2,0,L|189:386,1,60,8|0,0:0|3:0,0:0:0:0:
141,369,97421,1,2,1:2:0:0:
26,331,97774,2,0,L|58:266,1,60,10|0,0:0|3:0,0:0:0:0:
112,273,98127,2,0,L|144:208,1,60,2|0,1:2|3:0,0:0:0:0:
113,164,98480,1,8,0:0:0:0:
41,82,98833,5,2,1:2:0:0:
41,82,99010,1,0,3:0:0:0:
41,82,99186,1,10,0:0:0:0:
132,4,99539,6,0,L|154:72,1,60,2|0,1:2|1:0,0:0:0:0:
208,79,99892,2,0,L|230:147,1,60,8|0,0:0|3:0,0:0:0:0:
188,182,100245,1,2,1:2:0:0:
240,289,100598,2,0,L|308:311,1,60,10|0,0:0|3:0,0:0:0:0:
344,270,100951,2,0,L|412:247,1,60,2|0,1:2|3:0,0:0:0:0:
458,269,101304,1,10,0:0:0:0:
509,165,101657,5,0,1:0:0:0:
509,165,101833,1,2,1:2:0:0:
509,165,102010,2,0,L|440:187,1,60,8|2,0:0|1:2,0:0:0:0:
511,377,114362,6,0,P|469:351|403:349,1,96,6|0,0:0|0:0,0:0:0:0:
380,367,114891,1,0,3:0:0:0:
305,305,115244,2,0,B|298:257|298:257|338:213,1,96,2|2,0:0|0:0,0:0:0:0:
378,216,115773,2,0,P|404:174|406:108,1,96,2|0,0:0|0:0,0:0:0:0:
389,84,116303,1,0,3:0:0:0:
380,0,116656,2,0,B|416:31|416:31|464:25,1,96,2|2,3:0|3:0,0:0:0:0:
504,50,117185,6,0,P|480:93|424:128,1,96,2|0,0:0|0:0,0:0:0:0:
395,118,117715,1,0,3:0:0:0:
320,57,118067,2,0,L|363:36,2,48,2|0|2,3:0|0:0|3:0,0:0:0:0:
295,98,118597,2,0,P|252:123|186:125,1,96,2|0,0:0|0:0,0:0:0:0:
121,96,119303,1,2,0:0:0:0:
121,96,119479,2,0,P|133:48|178:0,1,96,2|0,0:0|0:0,0:0:0:0:
209,6,120009,5,6,3:2:0:0:
299,51,120362,1,0,0:0:0:0:
299,51,120538,1,0,3:0:0:0:
228,115,120891,2,0,B|197:151|197:151|203:199,1,96,2|2,3:0|3:0,0:0:0:0:
207,247,121420,1,2,3:2:0:0:
299,208,121773,1,0,0:0:0:0:
299,208,121950,1,0,3:0:0:0:
299,208,122126,2,0,P|328:166|342:133,2,72,2|2|2,3:0|3:0|3:2,0:0:0:0:
251,207,122832,6,0,B|160:257|159:368|159:368|106:391|75:354|72:352|69:348|57:298|-8:298,1,384,2|2,3:2|3:2,0:0:0:0:
61,116,124950,2,0,P|66:66|58:7,1,96,2|10,1:2|0:0,0:0:0:0:
180,2,125656,6,0,P|227:25|291:93,1,120,6|8,1:2|0:0,0:0:0:0:
237,184,126362,2,0,P|214:259|222:284,2,90,2|2|2,1:2|0:0|3:2,0:0:0:0:
294,199,127067,2,0,P|341:176|405:108,1,120,2|8,1:2|0:0,0:0:0:0:
463,34,127773,2,0,P|485:109|477:134,1,90,2|2,1:2|0:0,0:0:0:0:
434,195,128303,1,0,1:2:0:0:
434,195,128479,6,0,P|328:226|336:343,1,240,2|0,1:2|1:0,0:0:0:0:
386,376,129362,2,0,L|407:319,1,60,2|8,0:0|0:0,0:0:0:0:
453,280,129714,1,2,3:2:0:0:
453,280,129891,2,0,P|510:334|516:360,2,90,2|2|2,1:2|0:0|0:0,0:0:0:0:
426,225,130597,2,0,P|501:202|526:210,2,90,2|2|10,1:2|0:0|0:0,0:0:0:0:
376,190,131303,6,0,P|359:247|327:297,1,120,2|10,1:2|3:2,0:0:0:0:
345,355,131832,2,0,P|303:342|166:373,1,180,2|10,3:2|0:0,0:0:0:0:
58,329,132715,2,0,P|109:298|149:253,1,120,2|8,1:2|0:0,0:0:0:0:
68,165,133420,2,0,P|26:231|27:258,2,90,2|2|2,1:2|0:0|3:2,0:0:0:0:
123,142,134126,6,0,P|163:186|214:217,1,120,2|10,1:2|0:0,0:0:0:0:
215,277,134656,2,0,P|274:279|332:265,1,120,2|0,3:2|0:0,0:0:0:0:
384,234,135185,1,10,0:0:0:0:
308,140,135538,1,2,1:2:0:0:
329,21,135891,2,0,L|387:8,1,60,10|10,0:0|0:0,0:0:0:0:
432,48,136244,2,0,L|414:135,2,60,10|10|8,0:0|0:0|0:0,0:0:0:0:
484,25,136773,1,2,1:2:0:0:
484,25,136950,6,0,P|502:81|503:141,1,120,6|10,1:2|0:0,0:0:0:0:
436,241,137656,2,0,P|502:282|529:281,2,90,2|2|2,1:2|0:0|3:2,0:0:0:0:
409,186,138362,2,0,P|352:167|292:166,1,120,2|8,1:2|0:0,0:0:0:0:
176,198,139067,2,0,P|213:267|236:279,2,90,2|2|2,1:2|0:2|3:2,0:0:0:0:
197,141,139773,6,0,P|215:84|216:24,1,120,2|8,1:2|0:0,0:0:0:0:
97,43,140479,2,0,P|27:5|15:-17,2,90,2|2|2,1:2|0:0|3:2,0:0:0:0:
117,99,141185,2,0,P|119:177|104:200,1,90,10|8,3:2|3:2,0:0:0:0:
39,232,141715,1,8,3:2:0:0:
39,232,141891,2,0,P|92:288|119:295,1,90,8|8,3:2|3:2,0:0:0:0:
194,281,142420,1,8,3:2:0:0:
194,281,142597,5,2,1:2:0:0:
121,377,142950,1,10,0:0:0:0:
121,377,143126,2,0,P|102:320|101:260,1,120,10|10,3:2|0:0,0:0:0:0:
121,203,143656,2,0,L|62:190,1,60,0|2,1:0|3:2,0:0:0:0:
5,171,144009,1,2,1:2:0:0:
73,75,144362,1,10,0:0:0:0:
73,75,144538,1,10,0:0:0:0:
73,75,144715,2,0,P|113:7|112:-18,2,90,10|10|2,1:2|0:0|3:2,0:0:0:0:
13,83,145420,6,0,P|48:49|349:45,1,360,2|8,1:2|0:0,0:0:0:0:
350,157,146832,1,2,1:2:0:0:
242,195,147185,1,8,0:0:0:0:
242,195,147361,1,8,0:0:0:0:
242,195,147538,2,0,L|183:208,1,60,8|8,0:0|0:0,0:0:0:0:
164,265,147891,2,0,L|217:292,1,60,8|8,0:0|0:0,0:0:0:0:
240,354,148244,5,6,1:2:0:0:
373,383,148597,1,10,0:0:0:0:
373,383,148773,2,0,P|410:337|490:306,1,132.00000402832,10|10,0:0|0:0,0:0:0:0:
509,250,149303,2,0,L|488:175,1,66.0000020141602,10|2,0:0|1:2,0:0:0:0:
475,122,149656,5,2,1:2:0:0:
398,14,150009,1,8,0:0:0:0:
398,14,150185,2,0,P|363:61|354:147,1,132.00000402832,10|10,0:0|0:0,0:0:0:0:
374,195,150715,1,10,0:0:0:0:
251,244,151067,5,2,1:2:0:0:
214,117,151420,1,10,0:0:0:0:
214,117,151597,2,0,P|166:82|80:73,1,132.00000402832,10|10,0:0|0:0,0:0:0:0:
40,98,152126,1,10,0:0:0:0:
40,98,152303,1,0,1:2:0:0:
40,98,152479,5,2,1:2:0:0:
89,220,152832,2,0,L|74:293,1,66.0000020141602,10|0,0:0|1:0,0:0:0:0:
60,349,153185,1,10,0:0:0:0:
60,349,153362,2,0,P|50:290|-3:223,1,132.00000402832,2|2,1:2|1:2,0:0:0:0:
186,141,154244,5,10,0:0:0:0:
186,141,154420,2,0,P|244:150|311:204,1,132.00000402832,10|10,0:0|0:0,0:0:0:0:
252,236,154950,2,0,L|237:309,1,66.0000020141602,10|0,0:0|1:0,0:0:0:0:
257,363,155303,1,2,1:2:0:0:
362,282,155656,1,10,0:0:0:0:
362,282,155832,2,0,P|386:221|381:156,1,132.00000402832,10|10,0:0|0:0,0:0:0:0:
335,107,156362,2,0,L|390:57,1,66.0000020141602,10|2,0:0|1:2,0:0:0:0:
425,11,156715,6,0,P|476:51|504:110,1,132.00000402832,2|10,1:2|0:0,0:0:0:0:
465,163,157244,2,0,P|489:223|484:288,1,132.00000402832,10|10,0:0|0:0,0:0:0:0:
457,349,157773,1,10,0:0:0:0:
359,260,158126,5,2,1:2:0:0:
275,362,158479,1,8,0:2:0:0:
275,362,158656,1,0,3:0:0:0:
275,362,158832,2,0,L|202:347,1,66.0000020141602,10|8,0:0|0:0,0:0:0:0:
149,373,159185,2,0,L|76:358,1,66.0000020141602,8|0,0:0|1:0,0:0:0:0:
21,380,159538,5,2,1:2:0:0:
92,270,159891,1,10,0:0:0:0:
92,270,160067,2,0,P|83:205|45:151,1,132.00000402832,10|10,0:0|0:0,0:0:0:0:
0,103,160597,2,0,L|15:30,1,66.0000020141602,10|2,0:0|1:2,0:0:0:0:
70,5,160950,5,2,1:2:0:0:
146,119,161303,1,10,0:0:0:0:
146,119,161479,2,0,P|199:156|264:165,1,132.00000402832,10|10,0:0|0:0,0:0:0:0:
328,145,162009,1,10,0:0:0:0:
371,20,162362,5,2,1:2:0:0:
486,70,162715,1,10,0:0:0:0:
486,70,162891,2,0,P|448:123|439:188,1,132.00000402832,10|10,0:0|0:0,0:0:0:0:
466,260,163420,1,10,0:0:0:0:
466,260,163597,1,2,1:2:0:0:
466,260,163773,5,2,1:2:0:0:
511,384,164126,2,0,L|448:363,1,66.0000020141602,10|0,0:0|1:0,0:0:0:0:
388,382,164479,1,10,0:0:0:0:
388,382,164656,2,0,P|376:317|336:265,1,132.00000402832,10|2,0:0|1:2,0:0:0:0:
154,337,165538,5,10,0:0:0:0:
154,337,165715,2,0,P|89:325|37:285,1,132.00000402832,10|10,0:0|0:0,0:0:0:0:
60,223,166244,2,0,L|39:160,1,66.0000020141602,10|0,0:0|1:0,0:0:0:0:
20,96,166597,5,2,1:2:0:0:
117,6,166950,1,10,0:0:0:0:
117,6,167126,1,10,0:0:0:0:
117,6,167303,2,0,P|152:48|196:64,2,99.0000030212403,10|10|8,3:2|0:0|0:0,0:0:0:0:
112,72,168009,6,0,P|140:132|174:336,1,264.000008056641,2|0,1:2|1:0,0:0:0:0:
54,381,169067,1,8,0:0:0:0:
1,259,169420,1,2,1:2:0:0:
86,158,169773,1,8,0:0:0:0:
86,158,169950,1,8,0:0:0:0:
86,158,170126,2,0,L|167:192,1,66.0000020141602,8|8,0:0|0:0,0:0:0:0:
200,144,170479,2,0,L|281:110,1,66.0000020141602,0|0,1:0|1:0,0:0:0:0:
293,54,170832,6,0,P|354:65|400:158,1,143.999995605469,2|2,1:2|1:2,0:0:0:0:
380,199,171362,1,10,0:0:0:0:
473,318,171715,1,10,0:0:0:0:
473,318,171891,2,0,L|507:237,1,71.9999978027344,2|10,1:2|0:0,0:0:0:0:
438,216,172244,6,0,P|402:165|435:66,1,143.999995605469,2|2,1:2|1:2,0:0:0:0:
455,29,172773,1,10,3:2:0:0:
318,9,173126,1,10,3:2:0:0:
318,9,173303,2,0,L|237:42,1,71.9999978027344,2|8,1:2|0:0,0:0:0:0:
184,7,173656,6,0,P|123:17|77:111,1,143.999995605469,2|2,1:2|1:2,0:0:0:0:
89,151,174185,1,10,3:2:0:0:
37,288,174538,1,10,0:0:0:0:
37,288,174715,2,0,L|94:332,1,71.9999978027344,2|10,1:2|0:0,0:0:0:0:
146,380,175067,6,0,P|124:321|181:234,1,143.999995605469,2|2,1:2|1:2,0:0:0:0:
213,204,175597,1,8,0:0:0:0:
213,204,175773,1,2,1:2:0:0:
213,204,175950,1,10,0:0:0:0:
84,152,176303,1,10,0:0:0:0:
84,152,176479,6,0,P|139:125|160:23,1,143.999995605469,0|2,1:2|1:2,0:0:0:0:
218,0,177009,1,10,0:0:0:0:
354,61,177362,1,10,0:0:0:0:
354,61,177538,2,0,L|325:128,1,71.9999978027344,0|8,1:2|0:0,0:0:0:0:
264,165,177891,6,0,P|320:191|340:293,1,143.999995605469,2|2,1:2|1:2,0:0:0:0:
318,330,178420,1,10,0:2:0:0:
185,378,178773,1,10,0:0:0:0:
185,378,178950,2,0,L|175:305,1,71.9999978027344,2|10,1:2|0:0,0:0:0:0:
130,250,179303,6,0,P|191:254|259:176,1,143.999995605469,2|2,1:2|1:2,0:0:0:0:
285,139,179832,2,0,P|355:142|403:193,1,143.999995605469,10|10,0:0|0:0,0:0:0:0:
388,264,180362,1,2,1:2:0:0:
483,371,180715,2,0,L|471:204,2,143.999995605469,0|0|2,1:2|1:2|1:2,0:0:0:0:
411,378,181597,2,0,L|383:297,1,71.9999978027344,8|0,0:0|1:2,0:0:0:0:
330,278,181950,1,8,0:0:0:0:
330,278,182126,6,0,P|377:226|376:156,1,143.999995605469,0|2,1:2|1:2,0:0:0:0:
320,108,182656,1,10,0:0:0:0:
186,154,183009,1,10,0:0:0:0:
186,154,183185,2,0,L|158:73,1,71.9999978027344,2|10,1:2|0:0,0:0:0:0:
135,19,183538,6,0,P|86:69|16:72,1,143.999995605469,2|2,1:2|1:2,0:0:0:0:
10,143,184067,1,10,0:2:0:0:
116,248,184420,1,10,0:2:0:0:
116,248,184597,2,0,L|143:328,1,71.9999978027344,2|10,1:2|3:2,0:0:0:0:
108,381,184950,6,0,P|39:364|2:304,1,143.999995605469,2|2,1:2|1:2,0:0:0:0:
14,233,185479,1,10,0:0:0:0:
137,156,185832,1,10,0:0:0:0:
137,156,186009,2,0,L|217:183,1,71.9999978027344,2|10,1:2|0:0,0:0:0:0:
270,211,186362,6,0,P|320:162|323:92,1,143.999995605469,2|2,1:2|1:2,0:0:0:0:
299,34,186891,1,8,0:0:0:0:
299,34,187067,1,2,1:2:0:0:
299,34,187244,1,10,0:0:0:0:
445,1,187597,1,10,0:0:0:0:
445,1,187773,6,0,P|495:49|498:119,1,143.999995605469,0|2,1:2|1:2,0:0:0:0:
452,177,188303,1,10,0:0:0:0:
318,122,188656,2,0,L|344:32,2,71.9999978027344,2|2|10,0:0|1:2|0:0,0:0:0:0:
250,147,189185,6,0,P|247:216|296:268,1,143.999995605469,2|2,1:2|1:2,0:0:0:0:
363,236,189715,1,2,0:0:0:0:
363,236,189891,2,0,P|422:240|463:270,2,107.999996704102,2|10|8,1:2|0:0|0:0,0:0:0:0:
356,307,190597,6,0,P|280:349|131:351,2,215.999993408203,10|10|10,0:0|0:0|0:0,0:0:0:0:
302,172,192009,1,8,0:0:0:0:
256,192,192097,12,6,193420,0:0:0:0:
32,35,199067,5,10,0:0:0:0:
110,210,199773,2,0,L|103:291,4,72,10|10|10|10|10,0:0|0:0|0:0|0:0|0:0,0:0:0:0:
46,137,201185,2,0,P|100:109|124:79,1,96,0|10,1:0|0:0,0:0:0:0:
172,0,201891,5,10,0:0:0:0:
359,41,202597,2,0,L|440:34,4,72,10|10|10|10|10,0:0|0:0|0:0|0:0|0:0,0:0:0:0:
341,87,203832,1,10,0:0:0:0:
341,87,204009,2,0,L|375:181,1,96,8|2,0:0|3:0,0:0:0:0:
471,224,204715,6,0,P|502:185|508:66,2,161.999995056153,6|8|8,1:2|0:0|0:0,0:0:0:0:
364,243,206126,1,0,1:0:0:0:
501,328,206656,2,0,L|513:385,1,53.9999983520508,8|0,0:0|1:0,0:0:0:0:
404,383,207185,2,0,L|347:371,1,53.9999983520508,8|0,0:0|1:0,0:0:0:0:
314,331,207538,6,0,P|295:284|195:219,2,161.999995056153,2|8|8,1:2|0:0|0:0,0:0:0:0:
217,379,208950,1,0,1:0:0:0:
55,362,209479,2,0,L|67:305,1,53.9999983520508,8|0,0:0|1:0,0:0:0:0:
121,215,210009,2,0,L|109:158,1,53.9999983520508,10|2,0:0|1:2,0:0:0:0:
147,122,210362,6,0,P|107:153|-11:159,2,161.999995056153,2|8|8,1:2|0:0|0:0,0:0:0:0:
105,22,211773,1,0,1:0:0:0:
266,3,212303,2,0,L|323:15,1,53.9999983520508,8|0,0:0|1:0,0:0:0:0:
384,100,212832,2,0,L|327:112,1,53.9999983520508,10|2,0:0|1:2,0:0:0:0:
282,87,213185,6,0,P|235:105|170:205,1,161.999995056153,2|8,1:2|0:0,0:0:0:0:
171,248,213891,2,0,P|210:216|329:211,1,161.999995056153,2|0,1:2|0:0,0:0:0:0:
353,248,214597,2,0,P|347:297|267:385,1,161.999995056153,2|8,1:2|0:0,0:0:0:0:
223,378,215303,2,0,P|241:327|237:274,1,107.999996704102,0|8,1:0|0:0,0:0:0:0:
208,228,215832,1,8,0:0:0:0:
208,228,216009,6,0,P|146:253|88:247,2,120,4|8|0,1:2|0:0|1:0,0:0:0:0:
145,125,217067,1,8,0:0:0:0:
29,157,217420,2,0,P|4:219|10:277,1,120,2|8,1:2|0:0,0:0:0:0:
60,379,218126,2,0,P|121:352|158:307,1,120,2|8,1:2|0:0,0:0:0:0:
167,193,218832,6,0,P|158:126|179:72,2,120,2|8|0,1:2|0:0|1:0,0:0:0:0:
278,238,219891,1,8,0:0:0:0:
396,217,220244,1,0,1:0:0:0:
482,61,220773,1,0,0:0:0:0:
482,61,220950,2,0,L|471:-12,2,60,2|0|10,1:2|1:0|0:0,0:0:0:0:
361,65,221656,6,0,P|299:38|262:-6,2,120,2|8|0,1:2|0:0|1:0,0:0:0:0:
478,89,222715,1,8,0:0:0:0:
391,171,223067,2,0,P|366:232|371:290,1,120,2|8,1:2|0:0,0:0:0:0:
429,373,223773,2,0,P|481:331|505:278,1,120,2|8,1:2|0:0,0:0:0:0:
468,169,224479,6,0,L|211:218,3,240,10|10|10|10,0:0|0:0|0:0|0:0,0:0:0:0:
51,55,227303,6,0,P|96:13|163:12,1,120,14|0,0:0|1:0,0:0:0:0:
262,55,228009,2,0,B|215:137|215:137|249:233,2,180,8|8|8,0:0|0:0|0:0,0:0:0:0:
380,71,229420,2,0,P|419:31|430:-25,2,90,2|2|2,1:2|0:0|1:2,0:0:0:0:
370,130,230126,6,0,P|387:188|445:223,1,120,10|0,0:0|1:0,0:0:0:0:
509,314,230832,2,0,B|427:267|427:267|331:301,2,180,8|8|8,0:0|0:0|0:0,0:0:0:0:
409,384,232244,2,0,L|432:307,2,60,2|2|2,1:2|1:2|1:2,0:0:0:0:
289,372,232950,5,10,0:0:0:0:
247,259,233303,1,2,1:2:0:0:
276,142,233656,2,0,L|376:93,4,90,10|10|10|10|10,0:0|0:0|0:0|0:0|0:0,0:0:0:0:
159,111,235067,2,0,P|131:62|135:5,2,90,2|2|0,1:2|0:0|1:0,0:0:0:0:
218,121,235773,5,10,0:0:0:0:
159,225,236126,1,2,1:2:0:0:
43,241,236479,2,0,L|64:131,4,90,10|10|10|10|10,0:0|0:0|0:0|0:0|0:0,0:0:0:0:
77,356,237891,2,0,L|154:379,1,60,2|2,3:2|3:0,0:0:0:0:
160,319,238244,2,0,L|237:342,1,60,2|2,3:2|3:0,0:0:0:0:
258,380,238597,5,2,3:2:0:0:
