osu file format v14

[General]
AudioFilename: ZUN - GREEN-EYED JEALOUSY.mp3
AudioLeadIn: 3000
PreviewTime: 71589
Countdown: 0
SampleSet: None
StackLeniency: 0.7
Mode: 0
LetterboxInBreaks: 1
WidescreenStoryboard: 1

[Editor]
DistanceSpacing: 1.2
BeatDivisor: 4
GridSize: 4
TimelineZoom: 0.8999999

[Metadata]
Title:Green-Eyed Jealousy
TitleUnicode:緑眼のジェラシー
Artist:ZUN
ArtistUnicode:ZUN
Creator:Parachute
Version:Rin Desu's Insane
Source:東方Project
Tags:Mizuhashi Parsee Subterranean Animism th11 lufi10 Dai Rin Desu touhou chireiden
BeatmapID:1283654
BeatmapSetID:54267

[Difficulty]
HPDrainRate:5.5
CircleSize:4
OverallDifficulty:6
ApproachRate:8
SliderMultiplier:1.6
SliderTickRate:1

[Events]
//Background and Video events
0,0,"By LCyphre.jpeg",0,0
//Break Periods
//Storyboard Layer 0 (Background)
//Storyboard Layer 1 (Fail)
//Storyboard Layer 2 (Pass)
//Storyboard Layer 3 (Foreground)
//Storyboard Sound Samples

[TimingPoints]
37,372.670807453416,3,2,0,60,1,0
37,-133.333333333333,3,2,0,60,0,0
16807,-100,3,2,0,60,0,0
35068,-100,3,2,0,40,0,0
35813,-100,3,2,0,60,0,0
51838,-100,3,2,0,65,0,0
51931,-100,3,2,0,25,0,0
52210,-100,3,2,0,55,0,0
52583,-100,3,2,0,45,0,0
52956,-100,3,2,0,30,0,0
53142,-100,3,2,0,40,0,0
53328,-100,3,2,0,50,0,0
53515,-100,3,2,0,60,0,0
53701,-100,3,2,0,70,0,1
88732,-100,3,2,0,50,0,1
89105,-100,3,2,0,70,0,1
89384,-100,3,2,0,70,0,0
89477,-100,3,2,0,55,0,1
89571,-100,3,2,0,55,0,0
97304,-100,3,2,0,75,0,0
98422,-100,3,2,0,80,0,0
106620,-100,3,2,0,65,0,0
106807,-100,3,2,0,75,0,0
106993,-100,3,2,0,85,0,0

[Colours]
Combo1 : 83,255,9
Combo2 : 146,36,255
Combo3 : 255,128,192
Combo4 : 0,0,255

[HitObjects]
256,192,37,5,6,0:0:0:0:
464,44,1155,1,2,1:2:0:0:
432,280,1527,1,0,0:0:0:0:
254,117,1900,1,2,1:2:0:0:
152,268,2273,6,0,P|188:204|64:128,1,240.000009155274,2|0,0:0|1:0,0:0:0:0:
240,44,3391,2,0,L|336:120,1,120.000004577637,2|0,1:2|0:0,0:0:0:0:
308,296,4136,2,0,L|292:236,1,60.0000022888184,2|0,1:2|0:0,0:0:0:0:
198,241,4509,6,0,P|170:350|58:361,1,240.000009155274,2|0,0:0|1:0,0:0:0:0:
100,176,5627,2,0,P|108:112|164:72,1,120.000004577637,2|0,1:2|0:0,0:0:0:0:
352,52,6372,1,2,0:0:0:0:
368,292,6745,6,0,P|380:182|274:151,1,240.000009155274,2|0,1:2|1:2,0:0:0:0:
226,287,7863,2,0,P|194:343|128:368,1,120.000004577637,2|0,1:2|0:0,0:0:0:0:
72,108,8608,2,0,L|92:28,1,60.0000022888184,2|0,1:2|0:0,0:0:0:0:
144,156,8981,6,0,L|16:304,1,180.000006866455,6|0,0:2|0:0,0:0:0:0:
0,193,9726,1,2,0:0:0:0:
32,92,9912,1,0,0:0:0:0:
123,37,10099,1,2,1:2:0:0:
188,208,10471,1,0,0:0:0:0:
223,21,10844,1,2,1:2:0:0:
223,21,11217,6,0,P|321:27|359:107,1,180.000006866455,2|0,1:2|0:0,0:0:0:0:
268,102,11962,1,2,0:0:0:0:
323,183,12148,1,0,0:0:0:0:
423,165,12335,1,2,1:2:0:0:
274,304,12707,1,0,0:0:0:0:
477,292,13080,1,2,1:2:0:0:
477,292,13453,6,0,P|500:232|469:172,1,120.000004577637,2|0,0:0|0:0,0:0:0:0:
44,43,14571,1,2,0:0:0:0:
244,98,14943,1,0,0:0:0:0:
40,142,15316,1,2,0:0:0:0:
217,250,15689,5,2,1:2:0:0:
0,264,16061,1,0,0:2:0:0:
232,328,16434,1,2,1:2:0:0:
0,264,16807,1,2,1:2:0:0:
81,314,16993,2,0,L|81:359,2,40,2|0|2,1:2|0:0|1:2,0:0:0:0:
169,271,17366,1,2,0:0:0:0:
223,349,17552,2,0,L|273:331,2,40,2|0|0,1:2|0:0|0:0,0:0:0:0:
263,250,17925,6,0,P|209:177|144:196,1,160,2|0,1:2|0:0,0:0:0:0:
196,93,18484,2,0,L|284:113,1,80,0|0,1:2|0:2,0:0:0:0:
383,122,18856,1,0,1:0:0:0:
461,186,19043,2,0,L|438:285,1,80,2|0,0:0|1:0,0:0:0:0:
320,205,19415,2,0,L|232:185,1,80,2|0,0:0|1:2,0:0:0:0:
117,243,19788,2,0,L|195:260,1,80,2|0,0:0|1:2,0:0:0:0:
158,128,20161,6,0,P|85:108|15:184,1,160,2|0,0:0|0:0,0:0:0:0:
10,253,20720,1,0,1:2:0:0:
43,342,20906,2,0,L|144:352,1,80,0|0,0:0|1:2,0:0:0:0:
218,355,21279,1,2,0:0:0:0:
313,343,21465,2,0,P|339:312|351:271,2,80,0|0|0,1:2|0:0|1:2,0:0:0:0:
250,263,22024,1,2,0:0:0:0:
250,263,22117,1,0,0:0:0:0:
250,263,22210,1,0,1:2:0:0:
185,191,22397,6,0,P|209:114|291:75,1,160,2|0,0:0|0:0,0:0:0:0:
369,91,22956,2,0,P|391:123|399:162,1,80,0|0,1:0|0:0,0:0:0:0:
381,257,23328,1,0,1:2:0:0:
306,318,23515,2,0,P|232:277|156:299,1,160,2|0,0:2|0:2,0:0:0:0:
82,348,24074,1,0,1:2:0:0:
44,259,24260,2,0,P|38:219|46:181,1,80,2|0,0:0|1:2,0:0:0:0:
142,182,24633,6,0,P|214:179|214:106,1,160,2|0,0:2|0:0,0:0:0:0:
150,58,25192,2,0,L|70:58,2,80,0|0|0,1:2|0:0|1:2,0:0:0:0:
286,58,25751,2,0,P|326:61|363:102,1,80,2|0,0:0|1:2,0:0:0:0:
358,181,26123,1,0,0:0:0:0:
412,260,26310,1,0,1:2:0:0:
276,261,26496,2,0,L|178:261,1,80,2|0,0:0|1:2,0:0:0:0:
83,183,26869,6,0,L|166:183,2,80,2|0|0,0:0|1:2|0:0,0:0:0:0:
113,261,27428,1,0,1:2:0:0:
19,240,27614,1,2,0:0:0:0:
12,136,27800,1,2,1:2:0:0:
85,62,27987,2,0,L|169:62,1,80,2|0,0:0|1:2,0:0:0:0:
271,132,28359,2,0,L|163:132,1,80,2|0,0:0|1:2,0:0:0:0:
314,62,28732,2,0,L|406:62,1,80,2|0,0:0|1:2,0:0:0:0:
484,36,29105,6,0,L|484:205,1,160,2|0,0:0|0:2,0:0:0:0:
468,316,29664,1,0,1:2:0:0:
370,359,29850,2,0,L|291:339,1,80,2|0,0:0|1:2,0:0:0:0:
190,275,30223,2,0,L|293:265,1,80,2|0,0:0|1:2,0:0:0:0:
141,212,30596,2,0,L|90:273,1,80,2|0,0:0|1:2,0:0:0:0:
94,87,30968,2,0,L|119:11,1,80,2|0,0:0|1:2,0:0:0:0:
28,43,31341,6,0,P|13:103|83:167,1,160,2|0,0:0|0:0,0:0:0:0:
154,143,31900,2,0,L|231:109,2,80,0|0|0,1:2|0:0|1:2,0:0:0:0:
273,208,32459,2,0,L|189:208,1,80,2|0,0:0|1:2,0:0:0:0:
308,280,32832,2,0,L|389:280,1,80,2|0,0:0|1:2,0:0:0:0:
332,156,33204,2,0,L|332:68,1,80,2|0,0:0|1:2,0:0:0:0:
427,91,33577,5,2,1:2:0:0:
427,91,33670,1,0,0:0:0:0:
427,91,33763,1,0,1:2:0:0:
451,184,33950,1,2,1:2:0:0:
511,258,34136,1,2,1:2:0:0:
464,341,34322,2,0,L|353:341,1,80,2|0,1:2|0:0,0:0:0:0:
324,258,34695,2,0,L|412:258,1,80,2|0,1:2|0:0,0:0:0:0:
324,258,35068,2,0,L|275:228,4,40,0|0|0|0|0,1:2|1:2|1:2|1:2|1:2,1:2:0:0:
95,184,35813,6,0,B|124:135|66:84|66:84|83:23|209:-2|175:121|175:121|216:157|216:157|216:190,1,400,6|0,0:0|0:0,0:0:0:0:
306,224,36931,2,0,L|402:192,1,80,2|0,0:0|0:0,0:0:0:0:
362,123,37304,2,0,L|311:38,1,80,0|0,1:2|0:0,0:0:0:0:
416,52,37676,2,0,L|458:127,1,80,2|0,1:2|1:2,0:0:0:0:
460,218,38049,6,0,L|424:300,1,80,2|0,0:0|0:0,0:0:0:0:
345,270,38422,2,0,L|379:193,1,80,0|0,1:2|0:0,0:0:0:0:
365,349,38794,2,0,L|279:349,1,80,2|0,0:0|0:0,0:0:0:0:
164,346,39167,1,2,1:2:0:0:
291,263,39540,1,0,1:2:0:0:
177,149,39912,2,0,P|181:108|194:72,1,80,2|0,1:2|0:0,0:0:0:0:
331,188,40285,6,0,B|285:179|268:165|263:135|265:107|298:85|298:85|350:104|378:111|399:124|420:153|428:189|418:237|369:267|369:267,1,400,6|0,0:0|0:0,0:0:0:0:
251,317,41403,2,0,L|147:317,1,80,6|0,1:2|0:0,0:0:0:0:
117,191,41776,2,0,L|229:191,1,80,2|0,1:2|0:0,0:0:0:0:
213,56,42148,2,0,L|117:56,1,80,2|0,1:2|0:0,0:0:0:0:
247,129,42521,5,4,1:2:0:0:
256,192,42707,12,2,44384,1:2:0:0:
475,230,44757,6,0,B|430:257|430:257|491:365|245:266|279:288|280:258|424:174,1,400,6|0,1:2|0:0,0:0:0:0:
451,76,45875,2,0,L|387:28,1,80,2|0,0:0|0:0,0:0:0:0:
237,52,46248,2,0,L|317:84,1,80,0|0,1:2|0:0,0:0:0:0:
430,166,46620,2,0,L|350:166,1,80,2|0,1:2|1:2,0:0:0:0:
202,175,46993,6,0,L|282:223,1,80,2|0,0:0|0:0,0:0:0:0:
424,248,47366,2,0,L|344:264,1,80,0|0,1:2|0:0,0:0:0:0:
171,283,47738,2,0,L|278:311,1,80,2|0,0:0|0:0,0:0:0:0:
416,344,48111,1,2,1:2:0:0:
373,156,48484,1,0,1:2:0:0:
176,144,48856,1,2,1:2:0:0:
176,144,49229,6,0,B|146:197|146:197|48:205|48:205|16:97|110:83|110:83|193:49,1,400,6|0,1:2|0:0,0:0:0:0:
392,106,50347,1,6,1:2:0:0:
447,286,50720,1,0,1:2:0:0:
463,38,51092,1,2,1:2:0:0:
319,331,51465,6,0,B|229:342|192:317|172:297|164:269|207:205|207:205|253:244|356:226|356:226|286:80,1,560,6|0,1:2|0:0,0:0:0:0:
286,80,52956,2,0,L|243:113,6,40,2|0|0|0|0|0|0,0:0|0:0|1:0|0:0|0:0|0:0|0:0,0:0:0:0:
328,60,53701,6,0,B|362:23|430:0|499:20|532:162|327:89|466:177|466:177|467:216|467:216|420:272,1,400,2|0,0:0|1:0,0:0:0:0:
344,336,54819,2,0,P|299:343|266:357,1,80,2|0,0:0|1:2,0:0:0:0:
344,240,55192,2,0,P|299:247|266:261,1,80,2|0,0:0|1:2,0:0:0:0:
340,144,55564,2,0,P|295:151|262:165,1,80,2|0,0:0|1:2,0:0:0:0:
128,172,55937,6,0,P|100:100|136:28,1,160,2|0,0:0|0:2,0:0:0:0:
280,44,56496,2,0,L|368:64,2,80,0|0|0,1:2|0:0|1:0,0:0:0:0:
371,145,57055,2,0,B|417:178|417:178|421:225|415:239|407:247|391:258|373:262|358:260|349:255|346:244,1,160,2|0,0:0|0:0,0:0:0:0:
280,282,57614,1,0,1:2:0:0:
203,344,57800,1,2,0:0:0:0:
203,344,57894,1,0,0:0:0:0:
203,344,57987,1,0,1:2:0:0:
148,252,58173,6,0,B|111:278|111:278|61:264|41:257|23:237|19:210|37:187|89:193|109:153|109:153|127:121|100:97|62:85|30:115|25:156|86:143,1,400,2|0,0:0|1:0,0:0:0:0:
189,81,59291,2,0,B|251:24|359:66,1,160,2|0,0:0|0:0,0:0:0:0:
339,59,59757,1,0,0:0:0:0:
339,59,59850,1,0,1:2:0:0:
470,163,60036,2,0,B|510:191|502:259,1,80,2|0,0:0|1:0,0:0:0:0:
426,345,60409,6,0,B|402:301|402:301|417:233|417:233|350:237|291:247|298:308|332:325|276:359,1,320,2|0,0:0|0:0,0:0:0:0:
168,336,61341,1,0,1:2:0:0:
184,219,61527,2,0,P|199:183|231:156,1,80,2|0,0:2|1:0,0:0:0:0:
325,160,61900,1,0,0:0:0:0:
325,160,61993,1,0,0:0:0:0:
325,160,62086,1,0,1:0:0:0:
224,67,62273,2,0,B|176:71|135:25|135:25,1,80,2|0,0:0|1:2,0:0:0:0:
99,165,62645,6,0,B|104:203|84:240|84:240|33:271|33:271|19:300|23:317|31:331|48:334|66:320|63:295,1,240,2|0,0:0|1:2,0:0:0:0:
168,259,63391,1,2,0:0:0:0:
183,148,63577,1,2,1:2:0:0:
283,238,63763,2,0,P|303:264|353:275,1,80,2|0,0:0|1:0,0:0:0:0:
470,216,64136,2,0,P|450:190|400:179,1,80,2|0,0:0|1:0,0:0:0:0:
283,238,64509,2,0,P|303:264|353:275,1,80,2|0,0:0|1:0,0:0:0:0:
470,216,64881,6,0,P|450:190|435:128,1,80,2|0,0:0|1:0,0:0:0:0:
363,81,65254,1,0,0:0:0:0:
363,81,65347,1,0,0:2:0:0:
363,81,65440,1,0,1:2:0:0:
244,164,65627,1,2,0:0:0:0:
262,18,65813,1,2,1:2:0:0:
156,140,65999,2,0,L|69:207,1,80,2|0,0:0|1:2,0:0:0:0:
52,340,66372,2,0,L|115:291,1,80,2|0,0:0|1:2,0:0:0:0:
156,140,66745,2,0,L|204:216,1,80,2|0,0:0|1:2,0:0:0:0:
328,355,67117,6,0,B|424:254|333:238|333:238|347:135,1,240,2|0,0:0|1:2,0:0:0:0:
432,194,67863,1,0,0:0:0:0:
432,194,67956,1,0,0:0:0:0:
432,194,68049,1,0,1:2:0:0:
471,63,68235,2,0,L|392:62,1,80,2|0,0:0|1:2,0:0:0:0:
242,29,68608,2,0,L|322:29,1,80,2|0,0:0|1:2,0:0:0:0:
184,94,68981,2,0,L|104:94,1,80,2|0,0:0|1:2,0:0:0:0:
16,218,69353,6,0,L|16:326,1,80,2|0,0:0|1:2,0:0:0:0:
162,254,69726,2,0,L|162:174,1,80,2|0,0:0|1:2,0:0:0:0:
230,310,70099,2,0,B|270:310|270:310|294:342,1,80,2|0,0:0|1:0,0:0:0:0:
264,212,70471,1,2,0:0:0:0:
364,296,70658,1,2,1:2:0:0:
352,160,70844,2,0,L|340:112,2,40,2|0|2,0:0|0:0|1:2,0:0:0:0:
364,296,71217,1,2,0:0:0:0:
264,212,71403,1,0,1:2:0:0:
239,102,71589,6,0,P|77:55|152:194,1,400,2|0,0:0|1:0,0:0:0:0:
133,297,72707,2,0,L|86:368,1,80,2|0,0:0|1:2,0:0:0:0:
222,294,73080,2,0,L|296:324,1,80,2|0,0:0|1:2,0:0:0:0:
238,210,73453,2,0,L|325:155,1,80,2|0,0:0|1:2,0:0:0:0:
473,44,73825,6,0,B|525:120|493:196,1,160,2|0,0:2|0:0,0:0:0:0:
446,312,74384,1,0,1:2:0:0:
360,356,74571,1,0,0:0:0:0:
268,324,74757,1,0,1:2:0:0:
248,188,74943,2,0,P|204:204|176:232,1,80,2|0,0:0|1:2,0:0:0:0:
233,97,75316,1,0,0:0:0:0:
233,97,75409,1,0,0:0:0:0:
233,97,75502,1,0,1:2:0:0:
320,152,75689,2,0,P|338:116|337:77,1,80,2|0,0:0|1:0,0:0:0:0:
410,191,76061,6,0,L|502:191,2,80,2|0|0,0:0|1:0|0:0,0:0:0:0:
301,242,76620,2,0,L|222:298,1,80,0|0,1:0|0:0,0:0:0:0:
112,289,76993,1,0,1:0:0:0:
46,191,77179,2,0,P|70:89|193:134,1,240,2|0,0:0|1:0,0:0:0:0:
296,68,77925,2,0,L|400:44,1,80,2|0,0:0|1:0,0:0:0:0:
480,132,78297,6,0,L|388:156,1,80,2|0,0:0|1:0,0:0:0:0:
320,219,78670,1,0,0:0:0:0:
265,298,78856,1,0,1:0:0:0:
168,332,79043,1,0,0:0:0:0:
74,283,79229,1,0,1:0:0:0:
60,176,79415,2,0,P|136:136|216:160,1,160,2|0,0:0|0:2,0:0:0:0:
204,152,79881,1,0,0:0:0:0:
204,152,79974,1,0,1:0:0:0:
88,57,80161,2,0,L|8:57,1,80,2|0,0:0|1:0,0:0:0:0:
200,61,80533,6,0,P|284:85|340:157,1,160,2|0,0:0|0:2,0:0:0:0:
331,137,81092,1,0,1:0:0:0:
364,228,81279,1,2,0:0:0:0:
356,324,81465,1,2,1:2:0:0:
264,356,81651,2,0,L|184:344,1,80,2|0,0:0|1:0,0:0:0:0:
56,308,82024,2,0,P|20:291|1:256,1,80,2|0,0:0|1:0,0:0:0:0:
4,120,82397,2,0,P|23:85|58:68,1,80,2|0,0:0|1:0,0:0:0:0:
104,188,82769,6,0,P|229:135|252:96,1,160,2|0,0:0|0:0,0:0:0:0:
356,168,83328,1,0,1:0:0:0:
288,252,83515,1,2,0:0:0:0:
288,252,83608,1,0,0:0:0:0:
288,252,83701,1,0,1:0:0:0:
407,343,83887,2,0,L|487:343,1,80,2|0,0:0|1:0,0:0:0:0:
396,252,84260,2,0,P|430:219|423:175,1,80,2|0,0:0|1:0,0:0:0:0:
317,69,84633,2,0,P|283:102|290:146,1,80,2|0,0:0|1:0,0:0:0:0:
412,92,85005,6,0,P|412:44|397:11,1,80,2|0,0:0|1:0,0:0:0:0:
253,9,85378,1,0,0:0:0:0:
253,9,85471,1,0,0:0:0:0:
253,9,85564,1,0,1:0:0:0:
144,60,85751,1,0,0:0:0:0:
148,180,85937,1,0,1:0:0:0:
244,248,86123,2,0,P|281:264|342:254,1,80,2|0,0:0|1:0,0:0:0:0:
408,172,86496,2,0,P|402:131|363:83,1,80,2|0,0:0|1:0,0:0:0:0:
260,72,86869,2,0,P|226:96|204:154,1,80,2|0,0:0|1:0,0:0:0:0:
300,167,87241,5,2,0:0:0:0:
300,167,87335,1,0,0:0:0:0:
300,167,87428,1,0,1:0:0:0:
216,224,87614,2,0,L|163:243,4,40,2|0|2|0|2,0:0|0:0|1:2|0:0|0:0,0:0:0:0:
98,164,88173,1,0,1:0:0:0:
1,237,88359,1,2,1:2:0:0:
38,351,88546,1,0,1:0:0:0:
164,333,88732,1,0,1:0:0:0:
294,334,88918,2,0,L|277:299,4,40,0|0|0|0|0,1:0|1:0|1:0|1:0|1:0,1:0:0:0:
395,109,89477,6,0,B|464:254|464:254|383:293|383:293|351:232|351:232|249:207,1,400,6|0,1:2|0:0,0:0:0:0:
64,208,90596,2,0,L|80:288,1,80,2|0,0:0|0:0,0:0:0:0:
144,196,90968,2,0,L|160:276,1,80,0|0,1:2|0:0,0:0:0:0:
248,344,91341,2,0,L|326:328,1,80,2|0,1:2|1:2,0:0:0:0:
232,268,91714,6,0,L|310:252,1,80,2|0,0:0|0:0,0:0:0:0:
360,152,92086,2,0,L|267:142,1,80,0|0,1:2|0:0,0:0:0:0:
368,76,92459,2,0,L|276:64,1,80,2|0,0:0|0:0,0:0:0:0:
176,52,92832,2,0,L|160:148,1,80,2|0,1:2|0:0,0:0:0:0:
55,77,93204,1,0,1:2:0:0:
120,248,93577,1,2,1:2:0:0:
120,248,93950,6,0,B|128:312|240:338|240:338|289:280|289:280|222:260|216:250|216:250|216:154,1,400,6|0,1:2|0:0,0:0:0:0:
312,68,95068,2,0,L|312:148,1,80,6|0,1:2|0:0,0:0:0:0:
412,100,95440,2,0,L|412:180,1,80,2|0,1:2|0:0,0:0:0:0:
336,300,95813,2,0,L|336:220,1,80,2|0,1:2|0:2,0:2:0:0:
312,68,96186,5,6,1:2:0:0:
256,192,96558,12,2,98049,0:0:0:0:
392,304,98422,6,0,B|384:252|384:252|336:228|292:304|292:304|256:356|256:356|196:176,1,400,6|0,1:2|0:0,0:0:0:0:
157,304,99540,2,0,L|124:216,1,80,2|0,0:2|0:0,0:0:0:0:
88,124,99912,2,0,L|6:158,1,80,0|0,1:2|0:0,0:0:0:0:
60,52,100285,2,0,L|156:52,1,80,2|0,1:2|1:2,0:0:0:0:
252,56,100658,6,0,L|252:155,1,80,2|0,0:0|0:0,0:0:0:0:
356,172,101030,2,0,L|356:92,1,80,0|0,1:2|0:0,0:0:0:0:
400,276,101403,2,0,L|492:276,1,80,2|0,0:0|0:0,0:0:0:0:
332,240,101776,2,0,L|249:240,1,80,2|0,1:2|0:0,0:0:0:0:
136,312,102148,1,0,1:2:0:0:
208,80,102521,1,2,1:2:0:0:
208,80,102894,6,0,B|164:108|164:108|132:128|152:216|152:216|240:156|240:156|328:156|328:156|328:208,1,400,6|0,1:2|0:0,0:0:0:0:
340,296,104012,2,0,L|376:368,1,80,6|0,1:2|0:0,0:0:0:0:
431,226,104384,2,0,L|528:226,1,80,2|0,1:2|0:0,0:0:0:0:
396,125,104757,2,0,L|396:33,1,80,2|0,1:2|0:0,0:0:0:0:
298,140,105130,6,0,P|46:209|177:338,1,560,6|0,1:2|0:0,0:0:0:0:
286,331,106620,2,0,L|338:363,6,40,2|0|0|0|0|0|0,0:0|0:0|0:0|0:0|0:0|0:0|0:0,0:0:0:0:
355,272,107366,5,6,0:0:0:0:
