osu file format v14

[General]
AudioFilename: ZUN - GREEN-EYED JEALOUSY.mp3
AudioLeadIn: 3000
PreviewTime: 71589
Countdown: 0
SampleSet: Soft
StackLeniency: 0.7
Mode: 0
LetterboxInBreaks: 1
WidescreenStoryboard: 0

[Editor]
DistanceSpacing: 0.5
BeatDivisor: 2
GridSize: 4
TimelineZoom: 1.3

[Metadata]
Title:Green-Eyed Jealousy
TitleUnicode:緑眼のジェラシー
Artist:ZUN
ArtistUnicode:ZUN
Creator:Parachute
Version:Lunatic
Source:東方Project
Tags:Mizuhashi Parsee Subterranean Animism th11 lufi10 Dai Rin Desu touhou chireiden
BeatmapID:183084
BeatmapSetID:54267

[Difficulty]
HPDrainRate:6
CircleSize:4
OverallDifficulty:7
ApproachRate:8
SliderMultiplier:2
SliderTickRate:2

[Events]
//Background and Video events
0,0,"By LCyphre.jpeg",0,0
//Break Periods
//Storyboard Layer 0 (Background)
//Storyboard Layer 1 (Fail)
//Storyboard Layer 2 (Pass)
//Storyboard Layer 3 (Foreground)
//Storyboard Sound Samples

[TimingPoints]
37,372.670807453416,3,2,0,60,1,0
33577,-100,3,2,0,50,0,0
35068,-100,3,2,0,40,0,0
35627,-100,3,2,0,50,0,0
35813,-100,3,2,0,70,0,0
51838,-100,3,2,0,45,0,0
51931,-100,3,2,0,35,0,0
52956,-100,3,2,0,30,0,0
53142,-100,3,2,0,40,0,0
53328,-100,3,2,0,50,0,0
53515,-100,3,2,0,60,0,0
53701,-100,3,2,0,70,0,1
66372,-100,3,2,0,60,0,1
66745,-100,3,2,0,70,0,1
67117,-100,3,2,0,80,0,1
68235,-100,3,2,0,70,0,1
88359,-100,3,2,0,40,0,1
88732,-100,3,2,0,60,0,1
89105,-100,3,2,0,70,0,1
89384,-100,3,2,0,70,0,0
89477,-100,3,2,0,85,0,0
89571,-100,3,2,0,70,0,0
97304,-200,3,2,0,40,0,0
97676,-200,3,2,0,40,0,0
98422,-100,3,2,0,70,0,0
105130,-100,3,2,0,15,0,0
105502,-100,3,2,0,25,0,0
105875,-100,3,2,0,35,0,0
106248,-100,3,2,0,45,0,0
106620,-100,3,2,0,55,0,0
106807,-100,3,2,0,65,0,0
106993,-100,3,2,0,75,0,0
107179,-100,3,2,0,85,0,0
107366,-100,3,2,0,90,0,0

[Colours]
Combo1 : 83,255,9
Combo2 : 146,36,255
Combo3 : 255,128,192
Combo4 : 0,0,255

[HitObjects]
256,192,37,5,6,1:2:0:0:
148,136,223,2,0,L|124:260,2,100
213,64,782,2,0,L|312:84,1,100
364,248,1155,2,0,L|388:124,1,100,2|0,1:2|0:0,0:0:0:0:
200,300,1527,2,0,L|299:320,1,100,2|0,1:2|0:0,0:0:0:0:
148,136,1900,2,0,L|128:234,1,100,2|0,0:0|0:0,0:0:0:0:
256,192,2273,6,0,P|348:184|416:84,1,200,2|0,1:2|0:0,0:0:0:0:
484,188,2832,1,0,0:0:0:0:
432,284,3018,1,0,0:0:0:0:
320,284,3204,1,0,0:0:0:0:
256,192,3391,2,0,P|164:200|96:300,2,200,2|0|2,1:2|0:0|1:2,0:0:0:0:
256,192,4322,1,0,0:0:0:0:
127,127,4509,6,0,P|161:38|256:24,1,200,2|0,1:2|0:0,0:0:0:0:
256,192,5068,2,0,L|256:312,2,100
256,24,5627,2,0,P|350:38|384:127,1,200,2|0,1:2|0:0,0:0:0:0:
256,192,6186,1,0,0:0:0:0:
172,328,6372,1,2,1:2:0:0:
340,328,6558,1,0,0:0:0:0:
256,192,6745,6,0,P|164:164|60:248,1,200,2|0,1:2|0:0,0:0:0:0:
172,328,7304,1,0,0:0:0:0:
256,192,7490,2,0,P|348:164|452:248,2,200,0|2|0,0:2|1:2|0:0,0:0:0:0:
308,48,8422,2,0,L|204:48,2,100,0|2|0,0:0|1:2|0:0,0:0:0:0:
212,148,8981,6,0,P|256:220|300:148,1,200,6|0,1:2|0:0,0:0:0:0:
408,340,9726,5,2,0:0:0:0:
352,192,9912,1,0,0:0:0:0:
256,272,10099,1,2,1:2:0:0:
160,192,10285,1,0,0:0:0:0:
104,340,10471,1,2,0:0:0:0:
376,264,10844,5,2,0:0:0:0:
256,136,11030,1,0,0:0:0:0:
136,264,11217,2,0,P|76:264|92:148,1,200,2|0,1:2|0:0,0:0:0:0:
256,288,11962,5,2,0:0:0:0:
192,80,12148,1,0,0:0:0:0:
368,192,12335,1,2,1:2:0:0:
144,192,12521,1,0,0:0:0:0:
320,80,12707,1,2,0:0:0:0:
320,80,13080,5,2,1:2:0:0:
256,288,13266,1,0,0:0:0:0:
192,80,13453,2,0,P|136:60|40:144,2,200,2|0|0,0:0|0:0|0:0,0:0:0:0:
168,240,14571,5,2,1:2:0:0:
256,104,14757,1,0,0:0:0:0:
344,240,14943,1,2,0:0:0:0:
168,144,15130,1,0,0:0:0:0:
344,144,15316,1,2,0:0:0:0:
256,280,15502,1,0,0:0:0:0:
256,280,15689,5,2,1:2:0:0:
376,56,16061,1,2,1:2:0:0:
136,56,16434,1,2,1:2:0:0:
376,56,16807,5,2,1:2:0:0:
339,72,16900,1,0,1:0:0:0:
306,95,16993,1,2,1:2:0:0:
279,125,17086,1,0,1:0:0:0:
256,160,17179,1,2,1:2:0:0:
256,16,17366,5,2,0:2:0:0:
136,56,17552,5,2,1:2:0:0:
173,73,17645,1,0,1:0:0:0:
206,95,17738,1,2,1:2:0:0:
233,125,17832,1,0,1:0:0:0:
256,160,17925,6,0,B|256:280,1,100,2|0,0:2|1:0,0:0:0:0:
216,336,18297,2,0,B|96:336,1,100,0|0,0:0|1:0,0:0:0:0:
296,336,18670,2,0,B|416:336,1,100,0|0,0:0|1:0,0:0:0:0:
216,264,19043,2,0,B|192:200|96:200,1,100,2|0,0:0|1:0,0:0:0:0:
296,264,19415,2,0,B|320:200|416:200,1,100,2|0,0:0|1:0,0:0:0:0:
256,192,19788,2,0,B|256:72,1,100,2|0,0:0|1:0,0:0:0:0:
328,144,20161,6,0,B|376:104|376:32,1,100,2|0,0:0|1:0,0:0:0:0:
184,144,20533,2,0,B|136:104|136:32,1,100,0|0,0:0|1:0,0:0:0:0:
256,24,20906,2,0,B|256:128,1,100,0|0,0:0|1:0,0:0:0:0:
192,216,21279,2,0,B|88:320,1,100,2|0,0:0|1:0,0:0:0:0:
320,216,21651,2,0,B|424:320,1,100,0|0,0:0|1:0,0:0:0:0:
256,123,22024,2,0,B|256:23,1,100,2|0,0:0|1:0,0:0:0:0:
144,160,22397,6,0,P|120:212|132:256,1,100,2|0,0:0|1:0,0:0:0:0:
168,64,22769,1,0,0:0:0:0:
192,216,22956,1,0,1:0:0:0:
168,64,23142,1,0,0:0:0:0:
196,220,23328,1,0,1:0:0:0:
368,160,23515,2,0,P|392:212|380:256,1,100,2|0,0:0|1:0,0:0:0:0:
344,64,23887,1,0,0:0:0:0:
320,216,24074,1,0,1:0:0:0:
256,123,24260,2,0,B|272:72|240:72|256:24,1,100,2|0,0:0|1:0,0:0:0:0:
256,261,24633,6,0,B|267:315|244:313|256:361,1,100,2|0,0:0|1:0,0:0:0:0:
192,216,25005,1,0,0:0:0:0:
320,216,25192,1,0,1:0:0:0:
192,216,25378,1,0,0:0:0:0:
320,216,25564,1,0,1:0:0:0:
180,132,25751,2,0,P|160:92|180:28,1,100,2|0,0:0|1:0,0:0:0:0:
341,39,26123,2,0,P|352:87|332:132,1,100,0|0,0:0|1:0,0:0:0:0:
256,0,26496,2,0,L|256:112,1,100,2|0,0:0|1:0,0:0:0:0:
152,168,26869,5,2,0:0:0:0:
184,264,27055,1,0,1:0:0:0:
256,192,27241,1,0,0:0:0:0:
328,264,27428,1,0,1:0:0:0:
360,168,27614,1,2,0:0:0:0:
256,192,27800,1,2,1:2:0:0:
220,352,27987,1,2,0:0:0:0:
292,352,28173,1,0,1:0:0:0:
184,264,28359,1,2,0:0:0:0:
328,264,28546,1,0,1:0:0:0:
152,168,28732,1,2,0:0:0:0:
360,168,28918,1,0,1:0:0:0:
196,100,29105,6,0,P|172:72|180:4,1,100,2|0,0:0|1:0,0:0:0:0:
316,100,29477,2,0,P|340:72|332:4,1,100,0|0,0:0|1:0,0:0:0:0:
152,168,29850,2,0,L|80:240,1,100,2|0,0:0|1:0,0:0:0:0:
208,252,30223,2,0,L|168:368,1,100,2|0,0:0|1:0,0:0:0:0:
304,252,30596,2,0,L|336:346,1,100,2|0,0:0|1:0,0:0:0:0:
360,168,30968,2,0,L|430:238,1,100,2|0,0:0|1:0,0:0:0:0:
344,76,31341,6,0,P|256:36|168:76,2,200,2|0|0,0:0|0:0|0:0,0:0:0:0:
256,232,32459,1,2,0:0:0:0:
344,76,32832,1,2,0:0:0:0:
167,76,33204,1,2,0:0:0:0:
256,28,33577,5,2,1:2:0:0:
256,37,33670,1,0,1:2:0:0:
256,46,33763,1,0,1:2:0:0:
256,55,33856,1,0,1:2:0:0:
256,65,33950,1,2,1:2:0:0:
256,74,34043,1,0,1:2:0:0:
256,83,34136,1,2,1:2:0:0:
256,92,34229,1,0,0:0:0:0:
256,101,34322,1,2,0:0:0:0:
168,128,34509,5,0,0:0:0:0:
256,192,34695,1,2,1:2:0:0:
256,192,34788,1,0,1:2:0:0:
256,192,34881,1,0,1:2:0:0:
256,192,34974,1,0,1:2:0:0:
256,192,35068,2,0,B|256:224,8,25,0|0|0|0|0|0|0|0|0,1:2|1:2|1:2|1:2|1:2|1:2|1:2|1:2|1:2,1:2:0:0:
214,300,35627,1,0,1:0:0:0:
296,304,35813,5,6,0:0:0:0:
352,247,35999,1,0,0:0:0:0:
352,166,36186,1,0,0:0:0:0:
295,109,36372,1,0,0:0:0:0:
215,109,36558,1,0,0:0:0:0:
158,165,36745,1,0,0:0:0:0:
158,244,36931,5,2,0:0:0:0:
214,300,37117,1,0,0:0:0:0:
256,204,37304,1,2,0:0:0:0:
295,109,37490,1,0,0:0:0:0:
256,88,37583,1,0,1:0:0:0:
215,109,37676,1,2,1:2:0:0:
256,8,37863,1,0,1:0:0:0:
215,109,38049,6,0,B|127:197,1,100,2|0,0:0|0:0,0:0:0:0:
256,204,38422,2,0,B|256:316,1,100,2|0,1:2|0:0,0:0:0:0:
295,109,38794,2,0,B|383:197,1,100,2|0,0:0|0:0,0:0:0:0:
480,176,39167,5,2,1:2:0:0:
416,32,39540,1,0,1:2:0:0:
256,36,39912,1,2,1:2:0:0:
295,109,40099,1,0,0:0:0:0:
217,109,40285,6,0,B|184:136|204:176|164:200,1,100,6|0,0:0|0:0,0:0:0:0:
208,264,40658,2,0,B|256:288|304:264,1,100
341,195,41030,2,0,B|308:176|328:136|295:109,1,100
217,109,41403,6,0,B|151:140|103:100,1,100,6|0,0:0|0:0,0:0:0:0:
56,176,41776,2,0,B|82:231|50:279,1,100,2|0,1:2|0:0,0:0:0:0:
120,336,42148,2,0,B|168:304|228:337,1,100,2|0,1:2|0:0,0:0:0:0:
272,268,42521,6,0,B|240:218|280:162,1,100,6|0,0:0|0:0,0:0:0:0:
328,116,42894,2,0,B|379:83|428:116,1,100
480,172,43266,2,0,B|522:218|485:269,1,100
408,296,43639,5,0,1:0:0:0:
332,269,43825,1,0,0:0:0:0:
388,213,44012,1,0,1:0:0:0:
388,213,44105,1,0,1:0:0:0:
388,213,44198,1,0,1:0:0:0:
388,213,44291,1,0,1:0:0:0:
388,213,44384,1,0,1:0:0:0:
316,144,44571,1,0,1:0:0:0:
232,192,44757,6,0,B|208:136|232:80,1,100,6|0,0:0|1:0,0:0:0:0:
283,38,45130,2,0,B|339:14|395:38,1,100,0|0,0:0|1:0,0:0:0:0:
437,90,45502,2,0,B|461:146|437:202,1,100,0|0,0:0|1:0,0:0:0:0:
385,245,45875,6,0,B|329:269|273:245,1,100,2|0,0:0|1:0,0:0:0:0:
184,248,46248,1,2,0:0:0:0:
144,176,46434,1,0,1:0:0:0:
119,176,46527,1,0,0:0:0:0:
94,176,46620,1,2,0:0:0:0:
94,95,46807,1,0,1:0:0:0:
180,40,46993,6,0,L|304:40,1,100,2|0,0:0|0:0,0:0:0:0:
424,136,47366,2,0,L|300:136,1,100,2|0,1:2|0:0,0:0:0:0:
324,248,47738,2,0,L|424:248,1,100,2|0,0:0|0:0,0:0:0:0:
280,344,48111,6,0,L|180:344,2,100,2|0|0,1:2|0:0|1:2,0:0:0:0:
400,340,48670,1,0,0:0:0:0:
324,248,48856,2,0,P|351:189|388:160,1,100,2|0,1:2|0:0,0:0:0:0:
472,104,49229,6,0,P|392:21|204:164,1,400,6|0,1:2|0:0,0:0:0:0:
380,300,50347,5,4,0:0:0:0:
132,300,50720,1,2,0:0:0:0:
256,88,51092,1,2,0:0:0:0:
152,184,51465,6,0,B|187:148,3,50,4|0|0|0,0:0|0:0|0:0|0:0,0:0:0:0:
256,256,51838,2,0,B|256:206,3,50
360,184,52210,2,0,B|324:148,3,50
256,88,52583,2,0,B|256:32,3,50,0|0|0|0,1:2|0:0|0:0|0:0,0:0:0:0:
223,100,52956,5,0,1:2:0:0:
205,130,53049,1,0,1:2:0:0:
211,165,53142,1,0,1:2:0:0:
238,187,53235,1,0,1:2:0:0:
273,187,53328,1,0,1:2:0:0:
300,165,53422,1,0,0:0:0:0:
306,130,53515,1,0,1:2:0:0:
289,100,53608,1,0,0:0:0:0:
256,88,53701,6,0,P|288:28|420:20,1,200,2|0,0:0|0:0,0:0:0:0:
496,112,54260,1,0,1:0:0:0:
392,192,54446,1,0,0:0:0:0:
496,272,54633,1,0,1:0:0:0:
392,192,54819,2,0,L|336:304,1,100,2|0,0:0|1:0,0:0:0:0:
256,56,55192,2,0,L|368:112,1,100,2|0,0:0|1:0,0:0:0:0:
120,192,55564,2,0,L|176:80,1,100,2|0,0:0|1:0,0:0:0:0:
256,192,55937,6,0,P|212:304|136:332,1,200,2|0,0:0|0:0,0:0:0:0:
120,192,56496,1,0,1:0:0:0:
256,56,56682,1,0,0:0:0:0:
392,192,56869,1,0,1:0:0:0:
496,100,57055,2,0,P|532:192|496:284,1,200,2|0,0:0|0:0,0:0:0:0:
368,100,57614,1,0,1:0:0:0:
256,192,57800,1,2,0:0:0:0:
144,284,57987,1,0,1:0:0:0:
144,99,58173,6,0,P|200:32|256:100,1,200,2|0,0:0|0:0,0:0:0:0:
255,285,58732,2,0,P|312:351|367:284,1,200,0|0,1:0|1:0,0:0:0:0:
177,196,59291,2,0,P|146:234|144:284,1,100,2|0,0:0|1:0,0:0:0:0:
290,121,59664,2,0,P|273:75|232:49,1,100,0|0,0:0|1:0,0:0:0:0:
299,257,60036,2,0,P|347:265|391:242,1,100,2|0,0:0|1:0,0:0:0:0:
160,317,60409,6,0,P|70:285|47:192,1,200,2|0,0:0|0:0,0:0:0:0:
162,67,60968,2,0,P|72:99|47:191,1,200,0|0,1:0|1:0,0:0:0:0:
256,192,61527,1,2,0:0:0:0:
256,192,61620,1,0,0:0:0:0:
256,192,61714,1,0,1:0:0:0:
312,96,61900,1,0,0:0:0:0:
200,96,62086,1,0,1:0:0:0:
356,192,62273,1,2,0:0:0:0:
156,192,62459,1,0,1:0:0:0:
348,340,62645,6,0,P|256:376|164:340,1,200,2|0,0:0|0:0,0:0:0:0:
356,192,63204,1,0,1:0:0:0:
256,292,63391,1,2,0:0:0:0:
156,192,63577,1,2,1:2:0:0:
256,92,63763,2,0,B|208:68|160:92,1,100,2|0,0:0|1:0,0:0:0:0:
356,192,64136,2,0,B|380:144|356:96,1,100,2|0,0:0|1:0,0:0:0:0:
256,292,64509,2,0,B|304:316|352:292,1,100,2|0,0:0|1:2,0:0:0:0:
156,192,64881,6,0,B|132:240|156:288,1,100,2|0,0:0|1:0,0:0:0:0:
256,92,65254,1,0,0:0:0:0:
256,192,65440,1,0,1:0:0:0:
152,48,65627,1,2,0:0:0:0:
360,48,65813,1,2,1:2:0:0:
256,192,65999,2,0,L|256:84,1,100,2|0,0:0|1:0,0:0:0:0:
176,276,66372,2,0,P|136:303|128:352,1,100,2|0,0:0|1:0,0:0:0:0:
384,352,66745,2,0,P|375:303|335:276,1,100,2|0,0:0|1:0,0:0:0:0:
256,334,67117,5,2,0:0:0:0:
256,192,67304,1,0,1:0:0:0:
256,50,67490,1,0,0:0:0:0:
384,192,67676,1,0,1:0:0:0:
256,192,67863,1,0,0:0:0:0:
128,192,68049,1,0,1:0:0:0:
256,50,68235,6,0,L|152:124,1,100,2|0,0:0|1:0,0:0:0:0:
392,160,68608,2,0,L|304:76,1,100,2|0,0:0|1:0,0:0:0:0:
356,332,68981,2,0,L|384:216,1,100,2|0,0:0|1:0,0:0:0:0:
180,332,69353,2,0,L|300:332,1,100,2|0,0:0|1:0,0:0:0:0:
120,160,69726,2,0,L|144:264,1,100,2|0,0:0|1:0,0:0:0:0:
256,50,70099,2,0,L|152:124,1,100,2|0,0:0|1:2,0:0:0:0:
256,50,70471,5,2,0:0:0:0:
156,332,70658,1,2,1:2:0:0:
392,160,70844,1,2,0:0:0:0:
120,160,71030,1,2,1:2:0:0:
356,332,71217,1,2,0:0:0:0:
256,50,71403,1,2,1:2:0:0:
256,224,71589,5,2,0:0:0:0:
256,224,71776,2,0,B|272:176|240:176|256:124,2,100,0|0|0,1:0|0:0|1:0,0:0:0:0:
188,260,72335,1,0,0:0:0:0:
324,260,72521,1,0,1:0:0:0:
120,160,72707,2,0,P|144:100|172:72,1,100,2|0,0:0|1:0,0:0:0:0:
344,75,73080,2,0,P|376:112|391:159,1,100,2|0,0:0|1:0,0:0:0:0:
304,336,73453,2,0,P|256:348|208:336,1,100,2|0,0:0|1:0,0:0:0:0:
256,224,73825,6,0,L|256:24,2,200,2|0|0,0:0|0:0|0:0,0:0:0:0:
256,224,74757,1,0,1:0:0:0:
140,300,74943,2,0,L|68:204,1,100,2|0,0:0|1:0,0:0:0:0:
308,356,75316,2,0,L|204:356,1,100,0|0,0:0|1:0,0:0:0:0:
432,220,75689,2,0,L|372:300,1,100,2|0,0:0|1:0,0:0:0:0:
256,224,76061,5,2,0:0:0:0:
208,104,76248,2,0,B|256:80|304:104,1,100,0|0,1:0|0:0,0:0:0:0:
420,136,76620,1,0,1:0:0:0:
256,224,76807,1,0,0:0:0:0:
92,136,76993,1,0,1:0:0:0:
72,305,77179,2,0,P|157:356|256:360,1,200,2|0,0:0|0:0,0:0:0:0:
256,224,77738,1,0,1:0:0:0:
404,352,77925,2,0,L|404:240,1,100,2|0,0:0|1:0,0:0:0:0:
440,79,78297,6,0,P|355:28|256:24,1,200,2|0,0:0|0:0,0:0:0:0:
96,80,78856,1,0,1:0:0:0:
256,192,79043,1,0,0:0:0:0:
416,304,79229,1,0,1:0:0:0:
196,297,79415,2,0,L|68:305,1,100,2|0,0:0|1:0,0:0:0:0:
348,220,79788,2,0,L|476:228,1,100,0|0,0:0|1:0,0:0:0:0:
164,164,80161,2,0,L|65:158,1,100,2|0,0:0|1:2,0:0:0:0:
316,87,80533,6,0,L|416:81,2,100,2|0|0,0:0|1:0|0:0,0:0:0:0:
192,72,81092,1,0,1:0:0:0:
192,312,81279,1,2,0:0:0:0:
36,192,81465,1,2,1:2:0:0:
192,72,81651,2,0,P|196:124|256:136,1,100,2|0,0:0|1:0,0:0:0:0:
136,256,82024,2,0,P|188:252|200:192,1,100,2|0,0:0|1:0,0:0:0:0:
320,312,82397,2,0,P|316:260|256:248,1,100,2|0,0:0|1:0,0:0:0:0:
376,128,82769,6,0,P|324:132|312:192,1,100,2|0,0:0|1:0,0:0:0:0:
272,72,83142,1,0,0:0:0:0:
240,312,83328,1,0,1:0:0:0:
388,288,83515,2,0,P|332:280|300:216,1,100,2|0,0:0|1:0,0:0:0:0:
159,323,83887,2,0,P|164:275|199:241,1,100,2|0,0:0|1:0,0:0:0:0:
124,96,84260,2,0,P|180:104|212:168,1,100,2|0,0:0|1:0,0:0:0:0:
352,60,84633,2,0,P|347:108|312:142,1,100,2|0,0:0|1:0,0:0:0:0:
200,240,85005,5,2,0:0:0:0:
312,240,85192,1,0,1:0:0:0:
168,336,85378,1,0,0:0:0:0:
344,336,85564,1,0,1:0:0:0:
144,152,85751,1,0,0:0:0:0:
368,152,85937,1,0,1:0:0:0:
220,72,86123,6,0,P|256:43|292:72,1,100,2|0,0:0|1:2,0:0:0:0:
364,192,86496,2,0,P|368:260|332:300,1,100,2|0,0:0|1:2,0:0:0:0:
159,284,86869,2,0,P|138:240|148:192,1,100,2|0,0:0|1:2,0:0:0:0:
160,96,87241,2,0,B|100:104|52:64,1,100,2|0,0:0|1:0,0:0:0:0:
303,281,87614,1,2,0:0:0:0:
209,281,87800,1,2,1:2:0:0:
352,96,87987,2,0,B|412:88|447:118,1,100,2|0,0:0|1:0,0:0:0:0:
256,88,88359,5,2,0:0:0:0:
209,281,88546,1,0,1:0:0:0:
352,211,88732,1,0,1:0:0:0:
154,214,88918,1,0,1:0:0:0:
332,125,89105,1,0,1:0:0:0:
172,127,89291,1,0,1:0:0:0:
298,281,89477,5,6,0:0:0:0:
256,192,90596,5,2,0:0:0:0:
172,127,90968,1,2,0:0:0:0:
256,60,91341,1,2,1:2:0:0:
340,127,91714,1,2,0:0:0:0:
340,257,92086,1,2,1:2:0:0:
256,324,92459,1,2,0:0:0:0:
172,257,92832,5,2,1:2:0:0:
256,192,93204,1,0,1:2:0:0:
300,64,93577,1,2,1:2:0:0:
212,64,93763,1,0,0:0:0:0:
392,104,93950,2,0,P|256:275|120:104,1,500,6|0,0:0|0:0,0:0:0:0:
40,168,95068,5,6,1:2:0:0:
296,160,95254,1,0,0:0:0:0:
176,336,95440,1,2,1:2:0:0:
256,96,95627,1,0,0:0:0:0:
336,336,95813,1,2,1:2:0:0:
216,160,95999,1,0,0:0:0:0:
472,168,96186,1,6,1:2:0:0:
256,192,96372,12,0,97304,1:0:0:0:
256,84,97676,5,0,1:1:0:0:
256,84,97769,1,0,1:1:0:0:
256,84,97863,1,0,1:1:0:0:
256,84,97956,1,0,1:1:0:0:
256,84,98049,1,0,1:1:0:0:
256,176,98235,1,0,1:1:0:0:
184,216,98422,6,0,B|136:176|80:224,1,100,6|0,0:0|1:0,0:0:0:0:
256,280,98794,2,0,B|280:328|232:328|256:376,1,100,0|0,0:0|1:0,0:0:0:0:
328,216,99167,2,0,B|376:176|432:224,1,100,0|0,0:0|1:0,0:0:0:0:
488,136,99540,6,0,B|408:60,1,100,2|0,0:0|1:0,0:0:0:0:
208,40,99912,2,0,L|328:40,1,100,2|0,0:0|1:2,0:0:0:0:
96,67,100285,2,0,B|24:136,1,100,2|0,0:0|1:0,0:0:0:0:
24,316,100658,6,0,B|96:247,1,100,2|0,0:0|1:0,0:0:0:0:
304,192,101030,2,0,L|204:192,1,100,2|0,0:0|1:0,0:0:0:0:
415,247,101403,2,0,B|488:316,1,100,2|0,0:0|1:0,0:0:0:0:
256,376,101776,5,2,0:0:0:0:
472,24,102148,1,0,1:2:0:0:
40,24,102521,1,2,0:0:0:0:
116,140,102707,1,0,0:0:0:0:
256,132,102894,6,4,B|256:32,2,100,6|0|0,1:2|1:0|1:0,0:0:0:0:
256,232,103453,1,0,1:0:0:0:
308,320,103639,1,0,0:0:0:0:
204,320,103825,1,0,1:0:0:0:
328,144,104012,6,0,B|376:112|392:64,1,100,6|0,0:0|1:0,0:0:0:0:
184,144,104384,2,0,B|136:112|120:68,1,100,2|0,0:0|1:0,0:0:0:0:
256,232,104757,2,0,B|244:289|267:289|256:336,1,100,2|0,0:0|1:0,0:0:0:0:
328,144,105130,6,0,B|376:192,7,50,6|0|0|0|0|0|0|0,1:2|1:0|1:0|1:0|1:0|1:0|1:0|1:0,1:0:0:0:
184,144,105875,6,0,B|135:192,7,50,0|0|0|0|0|0|0|0,1:0|1:0|1:0|1:0|1:0|1:0|1:0|1:0,1:0:0:0:
256,88,106620,5,0,1:0:0:0:
256,113,106714,1,0,1:0:0:0:
256,137,106807,1,0,1:0:0:0:
256,161,106900,1,0,1:0:0:0:
256,185,106993,1,0,1:0:0:0:
256,209,107086,1,0,1:0:0:0:
256,233,107179,1,0,1:0:0:0:
256,258,107273,1,0,1:0:0:0:
256,282,107366,5,6,1:2:0:0:
