osu file format v14

[General]
AudioFilename: ZUN - GREEN-EYED JEALOUSY.mp3
AudioLeadIn: 3000
PreviewTime: 71589
Countdown: 0
SampleSet: Normal
StackLeniency: 0.7
Mode: 0
LetterboxInBreaks: 1
WidescreenStoryboard: 0

[Editor]
Bookmarks: 94294
DistanceSpacing: 0.7
BeatDivisor: 4
GridSize: 4
TimelineZoom: 1

[Metadata]
Title:Green-Eyed Jealousy
TitleUnicode:緑眼のジェラシー
Artist:ZUN
ArtistUnicode:ZUN
Creator:Parachute
Version:Dai's Hard
Source:東方Project
Tags:Mizuhashi Parsee Subterranean Animism th11 lufi10 Dai Rin Desu touhou chireiden
BeatmapID:187042
BeatmapSetID:54267

[Difficulty]
HPDrainRate:6
CircleSize:4
OverallDifficulty:6
ApproachRate:7
SliderMultiplier:1.6
SliderTickRate:2

[Events]
//Background and Video events
0,0,"By LCyphre.jpeg",0,0
//Break Periods
2,36013,43857
//Storyboard Layer 0 (Background)
//Storyboard Layer 1 (Fail)
//Storyboard Layer 2 (Pass)
//Storyboard Layer 3 (Foreground)
//Storyboard Sound Samples

[TimingPoints]
37,372.670807453416,3,1,0,45,1,0
782,-100,3,1,0,55,0,0
45875,-100,3,1,0,70,0,0
53701,-100,3,2,0,80,0,1
89477,-100,3,1,0,65,0,0

[Colours]
Combo1 : 83,255,9
Combo2 : 146,36,255
Combo3 : 255,128,192
Combo4 : 0,0,255

[HitObjects]
104,84,37,6,0,B|184:144|256:84|256:84|328:24|396:84,1,320,2|0,0:0|0:0,0:0:0:0:
380,220,1155,2,0,P|388:260|377:297,1,80,2|0,0:0|0:0,0:0:0:0:
256,384,1527,2,0,L|256:300,1,80,2|0,0:0|0:0,0:0:0:0:
131,221,1900,2,0,P|121:259|134:296,1,80,2|0,0:0|0:0,0:0:0:0:
256,236,2273,2,0,B|256:76,1,160,2|0,0:0|0:0,0:0:0:0:
180,52,2832,2,0,P|204:12|236:0,2,80
176,136,3391,6,0,P|168:212|96:256,2,160,2|0|0,0:0|0:0|0:0,0:0:0:0:
32,128,4509,2,0,P|40:52|112:8,2,160,2|0|0,0:0|0:0|0:0,0:0:0:0:
180,192,5627,2,0,B|228:212|260:192|260:192|292:172|340:192,2,160,2|0|0,0:0|0:0|0:0,0:0:0:0:
112,48,6745,2,0,B|76:56|52:92|52:92|12:72|0:16,2,160,2|0|0,0:0|0:0|0:0,0:0:0:0:
275,64,7863,2,0,P|360:192|275:320,1,320,2|2,0:0|0:0,0:0:0:0:
128,320,8981,6,0,P|56:288|24:216,1,160,2|0,0:0|0:0,0:0:0:0:
48,136,9540,2,0,P|88:164|100:204,2,80,0|2|0,0:0|0:0|0:0,0:0:0:0:
44,60,10099,2,0,B|132:64|132:64|200:40,1,160,2|2,0:0|0:0,0:0:0:0:
304,144,10844,2,0,P|344:144|384:128,2,80,2|0|2,0:0|0:0|0:0,0:0:0:0:
48,48,11962,5,2,0:0:0:0:
104,104,12148,1,0,0:0:0:0:
152,40,12335,2,0,B|232:40|232:72|320:72,1,160,2|2,0:0|0:0,0:0:0:0:
464,108,13080,2,0,P|480:68|472:20,2,80,2|0|2,0:0|0:0|0:0,0:0:0:0:
48,336,14571,6,0,P|80:264|150:213,1,160,2|0,0:0|0:0,0:0:0:0:
304,176,15316,2,0,P|272:248|201:298,1,160,0|2,0:0|0:0,0:0:0:0:
216,136,16061,2,0,P|248:64|318:13,1,160,0|2,0:0|0:0,0:0:0:0:
368,160,16807,2,0,B|369:201|328:226,2,80,2|0|0,0:0|0:0|0:0,0:0:0:0:
328,88,17366,2,0,B|291:113|291:155,2,80,0|2|0,0:0|0:0|0:0,0:0:0:0:
384,36,17925,6,0,P|468:165|380:305,1,320,6|0,0:0|0:0,0:0:0:0:
232,312,19043,2,0,P|196:280|184:248,1,80,2|0,0:0|0:0,0:0:0:0:
204,140,19415,2,0,P|240:172|252:204,1,80,2|0,0:0|0:0,0:0:0:0:
140,188,19788,2,0,P|104:156|92:124,1,80,2|0,0:0|0:0,0:0:0:0:
80,40,20161,2,0,P|160:40|240:80,1,160,2|0,0:0|0:0,0:0:0:0:
304,112,20720,2,0,P|280:140|232:152,2,80
360,56,21279,6,0,P|452:172|360:296,1,320,2|0,0:0|0:0,0:0:0:0:
208,272,22397,2,0,P|204:192|256:131,1,160,2|0,0:0|0:0,0:0:0:0:
328,96,22956,2,0,P|340:136|320:184,2,80
256,48,23515,2,0,B|176:48|176:16|96:16,2,160,2|0|0,0:0|0:0|0:0,0:0:0:0:
360,184,24633,2,0,P|424:136|456:60,2,160,2|0|0,0:0|0:0|0:0,0:0:0:0:
200,256,25751,6,0,P|96:152|200:48,1,320,2|2,0:0|0:0,0:0:0:0:
344,40,26869,2,0,B|448:16|488:128,1,160,2|0,0:0|0:0,0:0:0:0:
448,180,27428,2,0,B|396:164|396:108,2,80,0|2|0,0:0|0:0|0:0,0:0:0:0:
508,236,27987,2,0,P|492:312|428:356,1,160,2|0,0:0|0:0,0:0:0:0:
272,320,28732,2,0,P|236:344|192:348,2,80,2|0|2,0:0|0:0|0:0,0:0:0:0:
488,88,29850,6,0,P|428:36|328:40,1,160,0|2,0:0|0:0,0:0:0:0:
208,104,30596,2,0,P|268:156|368:152,1,160,0|2,0:0|0:0,0:0:0:0:
489,207,31341,2,0,P|344:268|196:220,1,320,2|0,0:0|0:0,0:0:0:0:
48,184,32459,6,0,P|40:264|88:324,1,160,2|0,0:0|0:0,0:0:0:0:
196,220,33204,2,0,P|204:140|156:80,1,160,0|2,0:0|0:0,0:0:0:0:
0,80,33950,2,0,P|0:120|32:160,1,80,2|0,0:0|0:0,0:0:0:0:
96,192,34322,2,0,P|176:184|256:208,1,160,2|2,0:0|0:0,0:0:0:0:
256,192,34881,12,4,35813,0:0:0:0:
384,240,44757,6,0,B|336:304|256:332|256:332|176:304|128:240,1,320,2|0,0:0|0:0,0:0:0:0:
132,80,45875,1,2,0:0:0:0:
256,184,46248,1,0,0:0:0:0:
380,80,46620,1,0,0:0:0:0:
324,228,46993,2,0,P|256:264|188:228,1,160,2|0,0:0|0:0,0:0:0:0:
188,64,47738,2,0,P|256:28|324:64,1,160,0|2,0:0|0:0,0:0:0:0:
392,212,48484,1,0,0:0:0:0:
256,288,48856,6,0,B|212:320|156:308|156:308|112:276,2,160,2|2|0,0:0|0:0|0:0,0:0:0:0:
309,111,49974,1,0,0:0:0:0:
158,218,50347,5,4,0:0:0:0:
353,218,50720,1,2,0:0:0:0:
202,111,51092,1,2,0:0:0:0:
256,288,51465,1,4,0:0:0:0:
256,192,51838,12,4,53701,0:0:0:0:
112,48,54819,6,0,P|116:84|112:128,1,80,2|0,0:0|0:0,0:0:0:0:
192,216,55192,2,0,P|188:168|192:136,1,80,2|0,0:0|0:0,0:0:0:0:
272,216,55564,2,0,P|276:256|272:304,1,80,2|0,0:0|0:0,0:0:0:0:
352,296,55937,2,0,B|360:256|352:216|352:216|336:176|336:136,1,160,4|0,0:0|0:0,0:0:0:0:
272,88,56496,2,0,P|306:64|346:60,2,80,2|0|0,0:0|0:0|0:0,0:0:0:0:
228,152,57055,6,0,B|168:224|204:308|204:308|280:292|348:344,1,320,4|0,0:0|0:0,0:0:0:0:
500,312,58173,2,0,B|480:256|428:240|428:240|440:184,1,160,4|0,0:0|0:0,0:0:0:0:
448,108,58732,2,0,P|488:120|512:152,2,80,2|0|0,0:0|0:0|0:0,0:0:0:0:
368,112,59291,2,0,B|291:137|200:112|200:112|116:132|96:224,1,320,4|0,0:0|0:0,0:0:0:0:
176,348,60409,6,0,B|216:352|252:328|252:328|296:336|336:328,1,160,4|0,0:0|0:0,0:0:0:0:
392,272,60968,2,0,P|408:308|440:340,2,80,2|0|0,0:0|0:0|0:0,0:0:0:0:
408,192,61527,2,0,B|280:140|320:192|256:252|192:192|232:140|104:192,1,320,4|4,0:0|0:0,0:0:0:0:
48,340,62645,6,0,P|0:280|8:196,2,160,4|2|0,0:0|0:0|0:0,0:0:0:0:
128,356,63577,1,2,0:0:0:0:
208,364,63763,2,0,P|276:324|312:252,1,160,4|4,0:0|0:0,0:0:0:0:
360,104,64509,2,0,P|396:120|424:160,2,80,4|0|4,0:0|0:0|0:0,0:0:0:0:
40,32,65627,5,0,0:0:0:0:
112,64,65813,1,2,0:0:0:0:
48,112,65999,2,0,P|24:188|76:264,1,160,4|4,0:0|0:0,0:0:0:0:
192,352,66745,2,0,B|168:384|119:376,2,80,4|0|4,0:0|0:0|0:0,0:0:0:0:
504,48,68235,6,0,B|504:128|456:128|456:200,1,160,6|0,0:0|0:0,0:0:0:0:
296,192,68981,2,0,B|295:122|343:122|343:42,1,160,2|4,0:0|0:0,0:0:0:0:
184,40,69726,2,0,B|184:120|136:120|136:189,1,160,2|0,0:0|0:0,0:0:0:0:
136,350,70471,2,0,B|96:334|88:288,2,80,4|0|0,0:0|0:0|0:0,0:0:0:0:
167,276,71030,2,0,P|200:300|216:344,2,80,0|4|0,0:0|0:0|0:0,0:0:0:0:
88,288,71589,6,0,P|-4:168|88:48,1,320,4|0,0:0|0:0,0:0:0:0:
248,48,72707,2,0,B|328:48,1,80,4|0,0:0|0:0,0:0:0:0:
402,190,73080,2,0,B|322:190,1,80,4|0,0:0|0:0,0:0:0:0:
285,119,73453,2,0,B|365:119,1,80,4|0,0:0|0:0,0:0:0:0:
439,261,73825,2,0,B|272:264,1,160,4|0,0:0|0:0,0:0:0:0:
199,269,74384,2,0,P|188:308|135:341,2,80,2|0|0,0:0|0:0|0:0,0:0:0:0:
176,192,74943,6,0,P|152:116|88:72,2,160,4|0|0,0:0|0:0|0:0,0:0:0:0:
336,192,76061,2,0,P|360:116|424:72,2,160,4|0|0,0:0|0:0|0:0,0:0:0:0:
336,352,77179,2,0,B|416:352|416:320|496:320,2,160,4|0|0,0:0|0:0|0:0,0:0:0:0:
176,352,78297,2,0,B|96:352|96:320|16:320,2,160,4|0|0,0:0|0:0|0:0,0:0:0:0:
352,192,79415,2,0,B|336:112|256:72|256:72|176:112|160:192,1,320,4|4,0:0|0:0,0:0:0:0:
336,352,80533,6,0,P|416:336|482:290,2,160,4|2|0,0:0|0:0|0:0,0:0:0:0:
256,308,81465,1,2,0:0:0:0:
176,352,81651,2,0,P|96:336|30:290,2,160,4|0|2,0:0|0:0|0:0,0:0:0:0:
256,214,82769,1,4,0:0:0:0:
456,136,83515,6,0,P|404:74|328:40,1,160,0|2,0:0|0:0,0:0:0:0:
56,136,84260,2,0,P|108:74|184:40,1,160,0|2,0:0|0:0,0:0:0:0:
392,176,85005,2,0,P|256:104|120:176,1,320,4|0,0:0|0:0,0:0:0:0:
184,320,86123,6,0,P|256:352|328:320,1,160,2|0,0:0|0:0,0:0:0:0:
325,212,86869,2,0,P|256:180|184:212,1,160,2|0,0:0|0:0,0:0:0:0:
256,359,87614,1,2,0:0:0:0:
256,359,87800,1,0,0:0:0:0:
256,359,87987,2,0,B|256:200,1,160,4|4,0:0|0:0,0:0:0:0:
104,64,89477,6,0,B|48:104|112:152|112:152|48:192|112:232|112:232|48:280|104:320,1,320,2|0,0:0|0:0,0:0:0:0:
256,280,90596,1,2,0:0:0:0:
336,144,90968,2,0,P|400:188|412:268,1,160
176,144,91714,2,0,P|112:188|100:268,1,160,2|0,0:0|0:0,0:0:0:0:
256,288,92459,2,0,B|256:128,1,160,2|2,0:0|0:0,0:0:0:0:
106,192,93204,5,0,0:0:0:0:
176,336,93577,1,2,0:0:0:0:
256,192,93950,1,6,0:0:0:0:
336,336,94322,1,0,0:0:0:0:
406,192,94695,1,0,0:0:0:0:
256,192,95068,6,0,B|256:32,2,160,2|2|2,0:0|0:0|0:0,0:0:0:0:
72,192,96186,2,0,P|256:324|440:192,1,480,2|0,0:0|0:0,0:0:0:0:
336,74,97676,1,0,0:0:0:0:
176,74,98049,1,0,0:0:0:0:
120,224,98422,6,0,B|160:272|216:272|216:224|232:168|280:168|296:224|296:272|352:272|392:224,1,320,2|0,0:0|0:0,0:0:0:0:
220,104,99540,2,0,B|140:104|140:136|60:136,1,160,2|0,0:0|0:0,0:0:0:0:
292,104,100285,2,0,B|372:104|372:136|452:136,1,160,0|2,0:0|0:0,0:0:0:0:
256,168,101030,2,0,B|256:336,2,160,2|0|2,0:0|0:0|0:0,0:0:0:0:
136,104,102148,2,0,P|92:164|134:231,1,160,0|2,0:0|0:0,0:0:0:0:
380,229,102894,6,0,P|420:164|376:104,1,160,2|0,0:0|0:0,0:0:0:0:
256,36,103639,1,0,0:0:0:0:
168,324,104012,1,4,0:0:0:0:
416,148,104384,1,2,0:0:0:0:
96,148,104757,1,2,0:0:0:0:
344,324,105130,1,4,0:0:0:0:
256,192,105502,12,4,107366,0:0:0:0:
