osu file format v14

[General]
AudioFilename: ZUN - GREEN-EYED JEALOUSY.mp3
AudioLeadIn: 3000
PreviewTime: 71589
Countdown: 0
SampleSet: Soft
StackLeniency: 0.7
Mode: 0
LetterboxInBreaks: 1
WidescreenStoryboard: 0

[Editor]
DistanceSpacing: 1
BeatDivisor: 2
GridSize: 4
TimelineZoom: 1

[Metadata]
Title:Green-Eyed Jealousy
TitleUnicode:緑眼のジェラシー
Artist:ZUN
ArtistUnicode:ZUN
Creator:Parachute
Version:Normal
Source:東方Project
Tags:Mizuhashi Parsee Subterranean Animism th11 lufi10 Dai Rin Desu touhou chireiden
BeatmapID:165048
BeatmapSetID:54267

[Difficulty]
HPDrainRate:4
CircleSize:3.5
OverallDifficulty:3
ApproachRate:4
SliderMultiplier:1.2
SliderTickRate:1

[Events]
//Background and Video events
0,0,"By LCyphre.jpeg",0,0
//Break Periods
//Storyboard Layer 0 (Background)
//Storyboard Layer 1 (Fail)
//Storyboard Layer 2 (Pass)
//Storyboard Layer 3 (Foreground)
//Storyboard Sound Samples

[TimingPoints]
37,372.670807453416,3,2,0,40,1,0
35068,-133.333333333333,3,2,0,40,0,0
35813,-100,3,2,0,60,0,0
36931,-100,3,2,0,50,0,0
40285,-100,3,2,0,60,0,0
42614,-100,3,2,0,5,0,0
44757,-100,3,2,0,45,0,0
45875,-100,3,2,0,50,0,0
53328,-100,3,2,0,70,0,0
53701,-100,3,2,0,80,0,1
54074,-100,3,2,0,60,0,1
88732,-133.333333333333,3,2,0,35,0,1
89105,-133.333333333333,3,2,0,90,0,1
89384,-133.333333333333,3,2,0,90,0,0
89477,-100,3,2,0,60,0,1
89571,-100,3,2,0,100,0,0
90596,-100,3,2,0,50,0,0
98422,-100,3,2,0,60,0,0
105130,-100,3,2,0,45,0,0
105875,-100,3,2,0,35,0,0
106620,-100,3,2,0,5,0,0
107366,-100,3,2,0,30,0,0

[Colours]
Combo1 : 83,255,9
Combo2 : 146,36,255
Combo3 : 255,128,192
Combo4 : 0,0,255

[HitObjects]
104,92,37,6,0,P|28:173|108:243,1,240,4|0,1:2|0:0,0:0:0:0:
192,164,1155,1,2,0:0:0:0:
252,60,1527,2,0,P|308:60|364:100,1,120
425,198,2273,6,0,P|425:310|318:344,1,240,2|0,0:0|0:0,0:0:0:0:
194,344,3391,2,0,P|87:311|102:182,1,240,2|2,0:0|0:0,0:0:0:0:
97,78,4509,6,0,P|196:137|196:252,1,240,2|0,0:0|0:0,0:0:0:0:
316,252,5627,2,0,P|316:137|415:78,1,240,2|2,0:0|0:0,0:0:0:0:
414,194,6745,6,0,L|414:326,2,120,2|0|0,0:0|0:0|0:0,0:0:0:0:
343,99,7863,2,0,B|227:43|227:99|103:47,1,240,2|2,0:0|0:0,0:0:0:0:
48,152,8981,6,0,L|48:272,1,120,6|0,1:2|0:0,0:0:0:0:
168,304,9726,2,0,B|160:376,2,60,2|0|2,0:0|0:0|0:0,0:0:0:0:
256,224,10471,1,2,0:0:0:0:
344,304,10844,1,2,0:0:0:0:
464,272,11217,6,0,L|464:152,1,120,2|0,0:0|0:0,0:0:0:0:
379,67,11962,2,0,B|379:131,1,60,2|0,0:0|0:0,0:0:0:0:
324,152,12335,2,0,P|260:144|208:108,1,120,2|2,0:0|0:0,0:0:0:0:
112,48,13080,1,2,0:0:0:0:
48,152,13453,6,0,P|28:272|112:344,1,240,2|0,0:0|0:0,0:0:0:0:
228,344,14571,2,0,L|364:344,2,120,2|0|2,0:0|0:0|0:0,0:0:0:0:
228,224,15689,6,0,L|88:224,2,120,2|0|0,1:2|1:2|1:2,0:0:0:0:
348,228,16807,2,0,L|408:228,1,60,2|0,1:2|1:2,0:0:0:0:
468,228,17179,2,0,L|468:164,1,60,2|0,1:2|0:0,0:0:0:0:
468,108,17552,2,0,L|400:108,1,60,2|0,1:2|1:2,0:0:0:0:
348,108,17925,6,0,P|224:96|116:32,1,240,2|0,1:2|0:0,0:0:0:0:
36,120,19043,1,2,1:2:0:0:
8,236,19415,1,2,0:0:0:0:
68,340,19788,1,2,1:2:0:0:
188,356,20161,6,0,P|316:344|356:216,1,240,2|0,1:2|0:0,0:0:0:0:
361,130,21279,2,0,P|302:31|188:28,1,240,2|2,1:2|1:2,0:0:0:0:
68,36,22397,6,0,L|24:156,2,120,2|0|0,1:2|0:0|0:0,0:0:0:0:
136,136,23515,2,0,L|180:16,2,120,2|0|2,1:2|0:0|1:2,0:0:0:0:
256,144,24633,6,0,P|340:148|288:272,1,240,2|0,1:2|0:0,0:0:0:0:
200,252,25751,2,0,P|136:220|120:164,1,120,2|0,1:2|0:0,0:0:0:0:
140,64,26496,1,2,1:2:0:0:
256,24,26869,5,2,1:2:0:0:
268,264,27614,2,0,L|249:207,1,60,2|0,0:0|0:0,0:0:0:0:
196,176,27987,2,0,P|160:208|152:288,2,120,2|0|2,1:2|0:0|0:0,0:0:0:0:
316,176,29105,6,0,P|357:217|363:276,1,120,2|0,1:2|0:0,0:0:0:0:
256,340,29850,1,2,0:0:0:0:
172,256,30223,1,2,1:2:0:0:
196,140,30596,1,2,0:0:0:0:
316,140,30968,1,2,0:0:0:0:
340,256,31341,6,0,P|408:216|400:60,1,240,2|0,1:2|0:0,0:0:0:0:
316,140,32459,2,0,P|292:88|316:4,2,120,2|0|2,1:2|0:0|0:0,0:0:0:0:
256,244,33577,5,2,1:2:0:0:
171,328,33950,2,0,L|99:328,1,60,2|0,0:0|1:2,0:0:0:0:
68,285,34322,1,2,0:0:0:0:
68,164,34695,2,0,P|158:97|248:164,1,240,2|0,1:2|1:2,0:0:0:0:
264,284,35813,6,0,P|354:350|443:283,1,240,6|0,1:2|0:0,0:0:0:0:
444,164,36931,1,2,0:0:0:0:
368,68,37304,2,0,P|288:76|248:100,1,120,2|0,1:2|1:2,0:0:0:0:
136,64,38049,5,2,0:0:0:0:
68,164,38422,2,0,P|56:224|68:296,1,120,2|0,1:2|1:2,0:0:0:0:
164,356,39167,2,0,P|204:312|228:248,1,120,2|0,0:2|1:2,0:0:0:0:
256,140,39912,1,2,1:2:0:0:
285,256,40285,6,0,P|307:311|348:356,2,120,6|0|0,0:0|1:2|1:2,0:0:0:0:
332,144,41403,2,0,P|372:188|394:243,2,120,6|0|0,0:0|1:2|1:2,0:0:0:0:
240,68,42521,5,6,1:2:0:0:
256,192,42645,12,0,44757,1:2:0:0:
56,308,45875,5,2,0:2:0:0:
168,356,46248,1,0,1:2:0:0:
256,276,46620,1,0,1:2:0:0:
256,276,46993,5,2,0:0:0:0:
344,356,47365,1,0,1:2:0:0:
456,308,47738,1,0,1:2:0:0:
463,188,48111,2,0,P|426:78|318:37,1,240,2|2,1:2|0:0,0:0:0:0:
195,37,49229,6,0,P|87:79|50:189,1,240,2|0,1:2|0:0,0:0:0:0:
60,308,50347,1,2,1:2:0:0:
176,280,50720,1,2,0:0:0:0:
256,192,51092,1,2,1:2:0:0:
300,80,51465,6,0,P|416:192|300:304,1,360,2|0,1:2|1:2,0:0:0:0:
256,192,52956,2,0,B|200:176|200:208|132:192,1,120,0|0,1:0|1:0,0:0:0:0:
72,92,53701,6,0,P|16:193|72:292,1,240,2|0,1:2|2:2,0:0:0:0:
184,336,54819,1,2,1:2:0:0:
304,340,55192,1,0,1:2:0:0:
412,284,55564,1,2,0:2:0:0:
448,168,55937,6,0,P|404:88|320:180,1,240,2|0,1:2|0:0,0:0:0:0:
197,163,57055,2,0,P|127:84|64:168,1,240,2|2,1:2|0:0,0:0:0:0:
144,252,58173,6,0,P|256:289|369:252,1,240,2|0,1:2|0:0,0:0:0:0:
368,132,59291,2,0,P|256:95|144:133,1,240,2|2,1:2|0:0,0:0:0:0:
48,200,60409,6,0,P|27:114|133:15,1,240,2|0,1:2|0:0,0:0:0:0:
144,136,61527,2,0,P|224:216|360:240,1,240,2|2,1:2|0:0,0:0:0:0:
456,192,62645,6,0,P|408:72|280:80,1,240,2|2,1:2|1:2,0:0:0:0:
256,88,63577,1,0,0:2:0:0:
201,62,63763,2,0,P|139:58|76:98,2,120,2|0|2,1:2|0:0|1:2,0:0:0:0:
256,168,64881,6,0,B|268:228|240:228|256:288,2,120,2|0|2,1:2|0:0|1:2,0:0:0:0:
272,108,65813,1,0,0:0:0:0:
311,62,65999,2,0,P|373:58|436:98,2,120,2|0|2,1:2|0:0|1:2,0:0:0:0:
192,60,67117,6,0,P|108:88|208:128,1,240,2|0,1:2|0:0,0:0:0:0:
312,168,68235,2,0,P|344:232|320:304,2,120,2|0|0,1:2|0:0|0:0,0:0:0:0:
200,216,69353,6,0,P|168:152|192:80,2,120,2|0|0,1:2|0:0|0:0,0:0:0:0:
272,122,70471,2,0,L|315:165,1,60,2|0,1:2|0:0,0:0:0:0:
304,224,70844,2,0,L|224:260,1,60,2|0,1:2|0:0,0:0:0:0:
200,216,71217,2,0,L|200:132,1,60,2|0,1:2|0:0,0:0:0:0:
176,100,71589,6,0,P|112:132|124:280,1,240,2|0,1:2|0:0,0:0:0:0:
228,340,72707,1,2,1:2:0:0:
348,328,73080,1,0,1:2:0:0:
404,224,73453,1,2,0:0:0:0:
412,104,73825,6,0,P|333:29|256:104,1,240,2|0,1:2|0:0,0:0:0:0:
256,224,74943,2,0,P|178:299|99:224,1,240,2|2,1:2|1:2,0:0:0:0:
104,104,76061,6,0,P|141:40|192:140,1,240,2|0,1:2|0:0,0:0:0:0:
317,138,77179,2,0,P|332:40|408:104,1,240,2|2,1:2|0:0,0:0:0:0:
416,224,78297,6,0,P|328:352|216:356,1,240,2|0,1:2|0:0,0:0:0:0:
136,336,79415,2,0,B|64:248|144:196|88:96,1,240,2|2,1:2|0:2,0:2:0:0:
184,32,80533,6,0,P|288:32|272:164,1,240,2|2,1:2|1:2,0:0:0:0:
256,192,81465,1,0,0:0:0:0:
216,238,81651,2,0,P|168:178|188:122,2,120,2|2|0,1:2|0:0|1:2,0:0:0:0:
296,146,82769,6,0,P|344:206|324:262,1,120,2|0,1:2|0:0,0:0:0:0:
260,336,83515,1,0,0:0:0:0:
172,252,83887,1,2,1:2:0:0:
168,132,84260,1,0,0:0:0:0:
252,44,84633,1,2,0:0:0:0:
372,28,85005,6,0,B|472:104|400:132|512:224,1,240,2|0,1:2|0:0,0:0:0:0:
436,316,86123,2,0,L|316:336,1,120,2|0,1:2|0:0,0:0:0:0:
195,336,86869,2,0,L|76:316,1,120,0|2,0:0|1:2,0:0:0:0:
48,200,87614,6,0,L|48:124,1,60,2|0,1:2|0:0,0:0:0:0:
48,79,87987,1,2,0:0:0:0:
167,79,88359,2,0,P|295:159|167:239,1,360,2|4,1:2|1:2,0:0:0:0:
167,239,90596,6,0,B|47:239,2,120,0|2|0,1:2|0:0|0:0,0:0:0:0:
220,132,91714,2,0,B|351:133,2,120,0|2|0,1:2|0:0|0:0,0:0:0:0:
148,36,92832,5,2,1:2:0:0:
264,0,93204,1,2,1:2:0:0:
372,48,93577,1,2,1:2:0:0:
420,156,93950,2,4,P|419:227|176:320,1,360,6|4,1:2|1:2,0:0:0:0:
100,252,95440,5,2,0:0:0:0:
140,140,95813,1,2,1:2:0:0:
232,216,96186,1,6,1:2:0:0:
256,192,96372,12,4,98422,0:0:0:0:
209,153,99540,6,0,B|141:186|175:220|112:248,2,120,0|2|0,0:0|1:2|1:2,0:0:0:0:
296,236,100658,2,0,B|363:202|329:168|384:140,2,120,0|2|0,0:0|1:2|1:2,0:0:0:0:
216,324,101776,6,0,P|104:340|36:224,1,240,2|2,1:2|1:2,0:0:0:0:
36,128,102894,2,0,P|103:35|217:51,1,240,6|0,1:2|0:0,0:0:0:0:
288,144,104012,5,6,1:2:0:0:
220,244,104384,2,4,P|216:308|252:372,1,120,0|2,1:2|1:2,0:0:0:0:
360,372,105130,1,4,1:2:0:0:
256,192,105316,12,4,107366,1:2:0:0:
