osu file format v14

[General]
AudioFilename: audio.mp3
AudioLeadIn: 0
PreviewTime: 35032
Countdown: 0
SampleSet: Normal
StackLeniency: 0.7
Mode: 1
LetterboxInBreaks: 0
WidescreenStoryboard: 0

[Editor]
Bookmarks: 12038,23535,35032,46529,58026,69523
DistanceSpacing: 1.7
BeatDivisor: 4
GridSize: 4
TimelineZoom: 1.2

[Metadata]
Title:Ghost Lead
TitleUnicode:ゴーストリード
Artist:ZUN
ArtistUnicode:ZUN
Creator:kogasa
Version:Muzukashii
Source:東方Project
Tags:yuyuko saigyouji th13 ten desires shinreibyou touhou ayyri
BeatmapID:987371
BeatmapSetID:460989

[Difficulty]
HPDrainRate:6
CircleSize:5
OverallDifficulty:5
ApproachRate:5
SliderMultiplier:1.4
SliderTickRate:1

[Events]
//Background and Video events
0,0,"clip (2016-05-30 at 05.52.15).png",0,35
//Break Periods
//Storyboard Layer 0 (Background)
//Storyboard Layer 1 (Fail)
//Storyboard Layer 2 (Pass)
//Storyboard Layer 3 (Foreground)
//Storyboard Sound Samples

[TimingPoints]
541,359.281437125748,4,1,0,75,1,0
46529,-100,4,1,0,75,0,1
58026,-100,4,1,0,75,0,0
69523,-100,4,1,0,75,0,1
81020,-100,4,1,0,75,0,0

[HitObjects]
256,192,541,5,6,0:0:0:0:
256,192,1259,1,4,0:0:0:0:
256,192,1978,1,6,0:0:0:0:
256,192,2876,1,0,0:0:0:0:
256,192,3055,1,8,0:0:0:0:
256,192,3415,1,6,0:0:0:0:
256,192,4133,1,4,0:0:0:0:
256,192,4493,1,8,0:0:0:0:
256,192,4852,1,4,0:0:0:0:
256,192,5750,1,0,0:0:0:0:
256,192,5930,1,8,0:0:0:0:
256,192,6289,1,4,0:0:0:0:
256,192,7008,1,4,0:0:0:0:
256,192,7726,1,4,0:0:0:0:
256,192,8085,1,8,0:0:0:0:
256,192,8445,1,0,0:0:0:0:
256,192,8624,1,8,0:0:0:0:
256,192,8984,1,8,0:0:0:0:
256,192,9163,1,0,0:0:0:0:
256,192,9523,1,8,0:0:0:0:
256,192,9882,1,0,0:0:0:0:
256,192,10061,1,0,0:0:0:0:
256,192,10241,1,8,0:0:0:0:
256,192,10600,1,0,0:0:0:0:
256,192,10960,1,8,0:0:0:0:
256,192,11319,1,0,0:0:0:0:
256,192,11499,1,8,0:0:0:0:
256,192,11678,1,8,0:0:0:0:
256,192,11858,1,0,0:0:0:0:
256,192,12038,1,4,0:0:0:0:
256,192,12397,1,0,0:0:0:0:
256,192,12756,1,0,0:0:0:0:
256,192,12936,1,8,0:0:0:0:
256,192,13295,1,8,0:0:0:0:
256,192,13475,1,0,0:0:0:0:
256,192,13654,1,0,0:0:0:0:
256,192,13834,1,8,0:0:0:0:
256,192,14193,1,0,0:0:0:0:
256,192,14373,1,8,0:0:0:0:
256,192,14732,1,8,0:0:0:0:
256,192,14912,1,4,0:0:0:0:
256,192,15271,1,4,0:0:0:0:
256,192,15630,1,4,0:0:0:0:
256,192,15990,1,0,0:0:0:0:
256,192,16169,1,0,0:0:0:0:
256,192,16349,1,8,0:0:0:0:
256,192,16529,1,8,0:0:0:0:
256,192,16888,1,0,0:0:0:0:
256,192,17067,1,8,0:0:0:0:
256,192,17247,1,0,0:0:0:0:
256,192,17427,1,8,0:0:0:0:
256,192,17517,1,8,0:0:0:0:
256,192,17606,1,8,0:0:0:0:
256,192,17786,1,4,0:0:0:0:
256,192,18145,1,0,0:0:0:0:
256,192,18505,1,0,0:0:0:0:
256,192,18684,1,8,0:0:0:0:
256,192,19043,1,8,0:0:0:0:
256,192,19222,1,0,0:0:0:0:
256,192,19402,1,0,0:0:0:0:
256,192,19582,1,8,0:0:0:0:
256,192,19942,1,8,0:0:0:0:
256,192,20121,1,0,0:0:0:0:
256,192,20301,1,8,0:0:0:0:
256,192,20481,1,8,0:0:0:0:
256,192,20660,1,4,0:0:0:0:
256,192,21020,1,4,0:0:0:0:
256,192,21379,1,4,0:0:0:0:
256,192,21738,1,8,0:0:0:0:
256,192,21918,1,0,0:0:0:0:
256,192,22097,1,0,0:0:0:0:
256,192,22277,1,8,0:0:0:0:
256,192,22636,1,8,0:0:0:0:
256,192,22996,1,8,0:0:0:0:
256,192,23175,1,8,0:0:0:0:
256,192,23265,1,8,0:0:0:0:
256,192,23355,1,8,0:0:0:0:
256,192,23535,1,4,0:0:0:0:
256,192,23894,1,8,0:0:0:0:
256,192,24074,1,8,0:0:0:0:
256,192,24254,1,0,0:0:0:0:
256,192,24612,1,0,0:0:0:0:
256,192,24792,1,0,0:0:0:0:
256,192,24972,1,8,0:0:0:0:
256,192,25331,1,0,0:0:0:0:
256,192,25690,1,0,0:0:0:0:
256,192,25870,1,0,0:0:0:0:
256,192,26049,1,8,0:0:0:0:
256,192,26229,1,8,0:0:0:0:
256,192,26409,1,4,0:0:0:0:
256,192,26768,1,4,0:0:0:0:
256,192,27127,1,4,0:0:0:0:
256,192,27487,1,8,0:0:0:0:
256,192,27666,1,0,0:0:0:0:
256,192,27846,1,8,0:0:0:0:
256,192,28205,1,0,0:0:0:0:
256,192,28385,1,8,0:0:0:0:
256,192,28564,1,0,0:0:0:0:
256,192,28744,1,8,0:0:0:0:
256,192,28924,1,8,0:0:0:0:
256,192,29014,1,8,0:0:0:0:
256,192,29103,1,8,0:0:0:0:
256,192,29283,1,4,0:0:0:0:
256,192,29642,1,0,0:0:0:0:
256,192,29822,1,8,0:0:0:0:
256,192,30002,1,8,0:0:0:0:
256,192,30361,1,0,0:0:0:0:
256,192,30540,1,8,0:0:0:0:
256,192,30720,1,0,0:0:0:0:
256,192,31079,1,0,0:0:0:0:
256,192,31439,1,8,0:0:0:0:
256,192,31618,1,0,0:0:0:0:
256,192,31798,1,8,0:0:0:0:
256,192,31978,1,0,0:0:0:0:
256,192,32157,1,12,0:0:0:0:
256,192,32517,1,4,0:0:0:0:
256,192,32876,1,4,0:0:0:0:
256,192,33235,1,8,0:0:0:0:
256,192,33325,1,8,0:0:0:0:
256,192,33415,1,8,0:0:0:0:
256,192,33594,1,4,0:0:0:0:
256,192,34133,1,0,0:0:0:0:
256,192,34313,1,8,0:0:0:0:
256,192,34493,1,0,0:0:0:0:
256,192,34672,1,8,0:0:0:0:
256,192,34762,1,8,0:0:0:0:
256,192,34852,1,8,0:0:0:0:
256,192,35032,1,4,0:0:0:0:
256,192,35750,1,4,0:0:0:0:
256,192,36469,1,4,0:0:0:0:
256,192,37367,1,0,0:0:0:0:
256,192,37546,1,8,0:0:0:0:
256,192,37906,1,4,0:0:0:0:
256,192,38624,1,4,0:0:0:0:
256,192,39343,1,6,0:0:0:0:
256,192,39702,1,8,0:0:0:0:
256,192,39792,1,8,0:0:0:0:
256,192,39882,1,8,0:0:0:0:
256,192,40061,1,8,0:0:0:0:
256,192,40241,1,0,0:0:0:0:
256,192,40600,1,0,0:0:0:0:
256,192,40780,1,4,0:0:0:0:
256,192,41499,1,4,0:0:0:0:
256,192,42217,1,4,0:0:0:0:
256,192,43115,1,0,0:0:0:0:
256,192,43205,1,0,0:0:0:0:
256,192,43295,1,0,0:0:0:0:
256,192,43475,1,0,0:0:0:0:
256,192,43654,1,8,0:0:0:0:
256,192,44014,1,8,0:0:0:0:
256,192,44373,1,0,0:0:0:0:
256,192,44552,1,0,0:0:0:0:
256,192,44732,1,8,0:0:0:0:
256,192,45091,1,0,0:0:0:0:
256,192,45451,1,8,0:0:0:0:
256,192,45810,1,8,0:0:0:0:
256,192,45990,1,0,0:0:0:0:
256,192,46169,1,8,0:0:0:0:
256,192,46349,1,0,0:0:0:0:
256,192,46529,1,6,0:0:0:0:
256,192,46888,1,0,0:0:0:0:
256,192,47067,1,0,0:0:0:0:
256,192,47247,1,8,0:0:0:0:
256,192,47786,1,0,0:0:0:0:
256,192,47966,1,8,0:0:0:0:
256,192,48325,1,0,0:0:0:0:
256,192,48684,1,0,0:0:0:0:
256,192,48864,1,0,0:0:0:0:
256,192,49043,1,8,0:0:0:0:
256,192,49223,1,8,0:0:0:0:
256,192,49403,1,0,0:0:0:0:
256,192,49762,1,0,0:0:0:0:
256,192,49942,1,8,0:0:0:0:
256,192,50121,1,4,0:0:0:0:
256,192,50481,1,4,0:0:0:0:
256,192,50840,1,6,0:0:0:0:
256,192,51199,1,8,0:0:0:0:
256,192,51379,1,0,0:0:0:0:
256,192,51558,1,0,0:0:0:0:
256,192,51738,1,8,0:0:0:0:
256,192,52097,1,8,0:0:0:0:
256,192,52277,1,0,0:0:0:0:
256,192,52636,1,0,0:0:0:0:
256,192,52816,1,8,0:0:0:0:
256,192,52996,1,0,0:0:0:0:
256,192,53535,1,8,0:0:0:0:
256,192,53714,1,0,0:0:0:0:
256,192,54073,1,8,0:0:0:0:
256,192,54253,1,0,0:0:0:0:
256,192,54433,1,0,0:0:0:0:
256,192,54612,1,8,0:0:0:0:
256,192,54972,1,8,0:0:0:0:
256,192,55151,1,0,0:0:0:0:
256,192,55511,1,0,0:0:0:0:
256,192,55870,1,0,0:0:0:0:
256,192,56229,1,8,0:0:0:0:
256,192,56409,1,0,0:0:0:0:
256,192,56588,1,0,0:0:0:0:
256,192,56678,1,0,0:0:0:0:
256,192,56768,1,0,0:0:0:0:
256,192,56948,1,8,0:0:0:0:
256,192,57307,1,0,0:0:0:0:
256,192,57487,1,8,0:0:0:0:
256,192,57666,1,8,0:0:0:0:
256,192,57756,1,8,0:0:0:0:
256,192,57846,1,8,0:0:0:0:
256,192,58026,1,4,0:0:0:0:
256,192,58744,1,4,0:0:0:0:
256,192,59463,1,4,0:0:0:0:
256,192,60181,1,0,0:0:0:0:
256,192,60361,1,0,0:0:0:0:
256,192,60540,1,0,0:0:0:0:
256,192,60720,1,0,0:0:0:0:
256,192,60900,1,6,0:0:0:0:
256,192,61259,1,6,0:0:0:0:
256,192,61618,1,6,0:0:0:0:
256,192,61978,1,0,0:0:0:0:
256,192,62157,1,0,0:0:0:0:
256,192,62337,1,8,0:0:0:0:
256,192,62696,1,8,0:0:0:0:
256,192,62876,1,0,0:0:0:0:
256,192,63055,1,8,0:0:0:0:
256,192,63235,1,0,0:0:0:0:
256,192,63415,1,8,0:0:0:0:
256,192,63505,1,8,0:0:0:0:
256,192,63594,1,8,0:0:0:0:
256,192,63774,1,4,0:0:0:0:
256,192,64493,1,4,0:0:0:0:
256,192,65211,1,4,0:0:0:0:
256,192,66289,1,0,0:0:0:0:
256,192,66648,1,6,0:0:0:0:
256,192,67008,1,6,0:0:0:0:
256,192,67367,1,6,0:0:0:0:
256,192,67726,1,0,0:0:0:0:
256,192,67906,1,0,0:0:0:0:
256,192,68085,1,8,0:0:0:0:
256,192,68624,1,8,0:0:0:0:
256,192,68984,1,8,0:0:0:0:
256,192,69163,1,8,0:0:0:0:
256,192,69253,1,8,0:0:0:0:
256,192,69343,1,8,0:0:0:0:
256,192,69523,1,4,0:0:0:0:
256,192,69882,1,0,0:0:0:0:
256,192,70061,1,8,0:0:0:0:
256,192,70241,1,4,0:0:0:0:
256,192,70780,1,8,0:0:0:0:
256,192,70960,1,4,0:0:0:0:
256,192,71319,1,0,0:0:0:0:
256,192,71678,1,0,0:0:0:0:
256,192,71858,1,0,0:0:0:0:
256,192,72038,1,8,0:0:0:0:
256,192,72217,1,0,0:0:0:0:
256,192,72397,1,6,0:0:0:0:
256,192,72756,1,6,0:0:0:0:
256,192,73115,1,6,0:0:0:0:
256,192,73475,1,0,0:0:0:0:
256,192,73654,1,0,0:0:0:0:
256,192,73834,1,8,0:0:0:0:
256,192,74373,1,0,0:0:0:0:
256,192,74552,1,8,0:0:0:0:
256,192,74732,1,0,0:0:0:0:
256,192,74912,1,8,0:0:0:0:
256,192,75002,1,8,0:0:0:0:
256,192,75091,1,8,0:0:0:0:
256,192,75271,1,4,0:0:0:0:
256,192,75630,1,0,0:0:0:0:
256,192,75810,1,8,0:0:0:0:
256,192,75990,1,4,0:0:0:0:
256,192,76529,1,8,0:0:0:0:
256,192,76708,1,4,0:0:0:0:
256,192,77067,1,0,0:0:0:0:
256,192,77427,1,0,0:0:0:0:
256,192,77606,1,0,0:0:0:0:
256,192,77786,1,8,0:0:0:0:
256,192,77966,1,0,0:0:0:0:
256,192,78145,1,6,0:0:0:0:
256,192,78505,1,4,0:0:0:0:
256,192,78864,1,6,0:0:0:0:
256,192,79223,1,4,0:0:0:0:
256,192,79582,1,6,0:0:0:0:
256,192,80301,1,0,0:0:0:0:
256,192,80481,1,8,0:0:0:0:
256,192,80660,1,8,0:0:0:0:
256,192,80750,1,8,0:0:0:0:
256,192,80840,1,8,0:0:0:0:
256,192,81020,1,4,0:0:0:0:
