osu file format v14

[General]
AudioFilename: audio.mp3
AudioLeadIn: 0
PreviewTime: 35032
Countdown: 0
SampleSet: Normal
StackLeniency: 0.7
Mode: 1
LetterboxInBreaks: 0
WidescreenStoryboard: 0

[Editor]
Bookmarks: 12038,35032
DistanceSpacing: 1.7
BeatDivisor: 2
GridSize: 4
TimelineZoom: 1.1

[Metadata]
Title:Ghost Lead
TitleUnicode:ゴーストリード
Artist:ZUN
ArtistUnicode:ZUN
Creator:kogasa
Version:Kantan
Source:東方Project
Tags:yuyuko saigyouji th13 ten desires shinreibyou touhou ayyri
BeatmapID:987370
BeatmapSetID:460989

[Difficulty]
HPDrainRate:7
CircleSize:5
OverallDifficulty:3
ApproachRate:5
SliderMultiplier:1.4
SliderTickRate:1

[Events]
//Background and Video events
0,0,"clip (2016-05-30 at 05.52.15).png",0,35
//Break Periods
//Storyboard Layer 0 (Background)
//Storyboard Layer 1 (Fail)
//Storyboard Layer 2 (Pass)
//Storyboard Layer 3 (Foreground)
//Storyboard Sound Samples

[TimingPoints]
541,359.281437125748,4,1,0,75,1,0
46529,-100,4,1,0,75,0,1
58026,-100,4,1,0,75,0,0
69523,-100,4,1,0,75,0,1
81020,-100,4,1,0,75,0,0

[HitObjects]
256,192,541,5,8,0:0:0:0:
256,192,1259,1,0,0:0:0:0:
256,192,1978,1,0,0:0:0:0:
256,192,3415,1,0,0:0:0:0:
256,192,4133,1,0,0:0:0:0:
256,192,4493,1,8,0:0:0:0:
256,192,4852,1,0,0:0:0:0:
256,192,6289,1,8,0:0:0:0:
256,192,7008,1,0,0:0:0:0:
256,192,7726,1,0,0:0:0:0:
256,192,9163,1,0,0:0:0:0:
256,192,10600,1,8,0:0:0:0:
256,192,12038,1,4,0:0:0:0:
256,192,12756,1,0,0:0:0:0:
256,192,13475,1,8,0:0:0:0:
256,192,14912,1,8,0:0:0:0:
256,192,15271,1,0,0:0:0:0:
256,192,15630,1,8,0:0:0:0:
256,192,16349,1,8,0:0:0:0:
256,192,17067,1,0,0:0:0:0:
256,192,17786,1,8,0:0:0:0:
256,192,18505,1,0,0:0:0:0:
256,192,19223,1,0,0:0:0:0:
256,192,20660,1,8,0:0:0:0:
256,192,21020,1,0,0:0:0:0:
256,192,21379,1,0,0:0:0:0:
256,192,22097,1,6,0:0:0:0:
256,192,23535,1,6,0:0:0:0:
256,192,24253,1,0,0:0:0:0:
256,192,24972,1,8,0:0:0:0:
256,192,26409,1,8,0:0:0:0:
256,192,26768,1,0,0:0:0:0:
256,192,27127,1,8,0:0:0:0:
256,192,27846,1,8,0:0:0:0:
256,192,28564,1,0,0:0:0:0:
256,192,29283,1,8,0:0:0:0:
256,192,30002,1,0,0:0:0:0:
256,192,30720,1,0,0:0:0:0:
256,192,32157,1,8,0:0:0:0:
256,192,32517,1,0,0:0:0:0:
256,192,32876,1,0,0:0:0:0:
256,192,33594,1,6,0:0:0:0:
256,192,35032,1,0,0:0:0:0:
256,192,35750,1,0,0:0:0:0:
256,192,36469,1,8,0:0:0:0:
256,192,37906,1,0,0:0:0:0:
256,192,38624,1,0,0:0:0:0:
256,192,39343,1,6,0:0:0:0:
256,192,40780,1,0,0:0:0:0:
256,192,41499,1,8,0:0:0:0:
256,192,42217,1,0,0:0:0:0:
256,192,43654,1,8,0:0:0:0:
256,192,45091,1,0,0:0:0:0:
256,192,46529,1,6,0:0:0:0:
256,192,47247,1,0,0:0:0:0:
256,192,47966,1,8,0:0:0:0:
256,192,49403,1,0,0:0:0:0:
256,192,50121,1,8,0:0:0:0:
256,192,50840,1,0,0:0:0:0:
256,192,52277,1,12,0:0:0:0:
256,192,52996,1,0,0:0:0:0:
256,192,53714,1,8,0:0:0:0:
256,192,55151,1,4,0:0:0:0:
256,192,56588,1,8,0:0:0:0:
256,192,58026,1,6,0:0:0:0:
256,192,58744,1,8,0:0:0:0:
256,192,59463,1,8,0:0:0:0:
256,192,60900,1,8,0:0:0:0:
256,192,61259,1,8,0:0:0:0:
256,192,61618,1,0,0:0:0:0:
256,192,62337,1,8,0:0:0:0:
256,192,63055,1,0,0:0:0:0:
256,192,63774,1,6,0:0:0:0:
256,192,64493,1,0,0:0:0:0:
256,192,65211,1,0,0:0:0:0:
256,192,66648,1,8,0:0:0:0:
256,192,67008,1,8,0:0:0:0:
256,192,67367,1,0,0:0:0:0:
256,192,68085,1,8,0:0:0:0:
256,192,69523,1,6,0:0:0:0:
256,192,70241,1,0,0:0:0:0:
256,192,70960,1,8,0:0:0:0:
256,192,72038,1,0,0:0:0:0:
256,192,72397,1,8,0:0:0:0:
256,192,72756,1,8,0:0:0:0:
256,192,73115,1,8,0:0:0:0:
256,192,73834,1,8,0:0:0:0:
256,192,74552,1,0,0:0:0:0:
256,192,75271,1,6,0:0:0:0:
256,192,75990,1,0,0:0:0:0:
256,192,76708,1,0,0:0:0:0:
256,192,77786,1,0,0:0:0:0:
256,192,78145,1,8,0:0:0:0:
256,192,78505,1,8,0:0:0:0:
256,192,78864,1,8,0:0:0:0:
256,192,79582,1,6,0:0:0:0:
256,192,81020,1,4,0:0:0:0:
