osu file format v14

[General]
AudioFilename: audio.mp3
AudioLeadIn: 0
PreviewTime: 84276
Countdown: 0
SampleSet: Soft
StackLeniency: 0.9
Mode: 0
LetterboxInBreaks: 0
WidescreenStoryboard: 1

[Editor]
Bookmarks: 12370,24370,48370,60370,72370,84370,96370,108370,132370,144370,156370,168370,180370,192370,204370,216370,228370,240370,245245
DistanceSpacing: 1
BeatDivisor: 6
GridSize: 16
TimelineZoom: 2.4

[Metadata]
Title:G Free
TitleUnicode:G Free
Artist:ZUN
ArtistUnicode:ZUN
Creator:Halfslashed
Version:Hard
Source:東方Project
Tags:touhou celestial wizardry ~ magical astronomy 大空魔術 ~ maribel hearn renko usami team shanghai alice illusionary band video game instrumental c70 マエリベリー・ハーン 宇佐見 蓮子 owc2022ffm3 luscent
BeatmapID:4489038
BeatmapSetID:1884924

[Difficulty]
HPDrainRate:4
CircleSize:4
OverallDifficulty:6
ApproachRate:8
SliderMultiplier:1.4
SliderTickRate:1

[Events]
//Background and Video events
0,0,"maribel renko bg 3.png",0,0
//Break Periods
2,84570,94120
2,192570,202120
//Storyboard Layer 0 (Background)
//Storyboard Layer 1 (Fail)
//Storyboard Layer 2 (Pass)
//Storyboard Layer 3 (Foreground)
//Storyboard Layer 4 (Overlay)
//Storyboard Sound Samples

[TimingPoints]
370,375,4,2,0,40,1,0
370,-125,4,2,0,40,0,0
12370,-83.3333333333333,4,2,0,80,0,0
24370,-100,4,2,0,50,0,0
48370,-125,4,2,0,40,0,0
60370,-83.3333333333333,4,2,0,60,0,0
84370,-100,4,2,0,40,0,0
96370,-83.3333333333333,4,2,0,80,0,0
108370,-100,4,2,0,50,0,0
132370,-125,4,2,0,40,0,0
144370,-83.3333333333333,4,2,0,60,0,0
168370,-71.4285714285714,4,2,0,80,0,1
192370,-100,4,2,0,50,0,0
204370,-83.3333333333333,4,2,0,80,0,0
216370,-71.4285714285714,4,2,0,85,0,1
228370,-83.3333333333333,4,2,0,70,0,0
228376,-83.3333333333333,4,1,0,15,0,0
229120,-83.3333333333333,4,2,0,70,0,0
237370,-83.3333333333333,4,3,0,70,0,0
237932,-83.3333333333333,4,2,0,70,0,0
240370,-100,4,2,0,70,0,0
241870,-200,4,2,0,50,0,0

[Colours]
Combo1 : 255,234,149
Combo2 : 86,4,198
Combo3 : 252,20,119
Combo4 : 11,151,255

[HitObjects]
35,157,10870,5,4,0:3:0:0:
35,157,11245,1,4,0:3:0:0:
35,157,11620,2,0,L|42:127,3,28,8|8|8|8,3:0|3:0|3:0|3:0,0:0:0:0:
70,94,11995,2,0,L|53:67,3,28,0|0|0|0,1:0|1:0|1:0|1:0,0:0:0:0:
16,62,12370,6,0,P|78:56|265:-4,1,251.999992309571,4|0,3:1|1:0,0:0:0:0:
258,0,13120,1,4,3:0:0:0:
301,82,13307,2,0,L|293:129,2,41.9999987182618,0|0|4,1:0|0:0|3:0,0:0:0:0:
379,112,13682,1,0,1:0:0:0:
496,95,13870,6,0,P|482:33|469:11,1,83.9999974365235,4|0,0:3|1:0,0:0:0:0:
440,178,14245,2,0,P|493:211|518:218,1,83.9999974365235,4|0,0:3|1:0,0:0:0:0:
507,301,14620,1,4,0:3:0:0:
434,270,14807,1,0,1:0:0:0:
434,270,14901,2,0,P|420:332|406:354,1,83.9999974365235,8|0,3:0|3:0,0:0:0:0:
379,384,15182,6,0,P|324:340|263:92,1,335.999989746094,0|0,1:0|1:0,0:0:0:0:
262,93,16120,1,4,3:0:0:0:
187,55,16307,2,0,L|179:8,2,41.9999987182618,0|0|4,1:0|0:0|3:0,0:0:0:0:
193,138,16682,1,0,1:0:0:0:
75,143,16870,6,0,P|14:128|-8:116,1,83.9999974365235,4|0,0:3|1:0,0:0:0:0:
128,214,17245,2,0,P|188:228|211:240,1,83.9999974365235,4|0,0:3|1:0,0:0:0:0:
268,296,17620,1,4,0:3:0:0:
224,369,17807,1,0,1:0:0:0:
224,369,17901,2,0,P|170:335|144:329,1,83.9999974365235,8|8,3:0|3:0,0:0:0:0:
110,337,18182,1,0,1:0:0:0:
31,367,18370,6,0,P|56:310|98:118,1,251.999992309571,4|8,3:0|1:3,0:0:0:0:
98,87,19026,1,8,3:0:0:0:
98,87,19120,1,12,3:0:0:0:
175,119,19307,2,0,L|222:111,2,41.9999987182618,0|0|4,1:0|0:0|3:0,0:0:0:0:
140,195,19682,1,0,1:0:0:0:
215,286,19870,6,0,P|248:232|255:208,1,83.9999974365235,4|0,0:3|1:0,0:0:0:0:
161,360,20245,2,0,P|221:374|244:386,1,83.9999974365235,4|0,0:3|1:0,0:0:0:0:
320,357,20620,1,4,0:3:0:0:
378,297,20807,1,0,1:0:0:0:
378,297,20901,2,0,P|407:352|425:370,1,83.9999974365235,8|0,3:0|3:0,0:0:0:0:
456,343,21182,6,0,P|412:287|164:227,1,335.999989746094,0|0,1:0|1:0,0:0:0:0:
165,226,22120,1,4,3:0:0:0:
160,309,22307,2,0,L|168:356,2,41.9999987182618,0|0|4,1:0|0:0|3:0,0:0:0:0:
85,348,22682,1,0,1:0:0:0:
31,241,22870,6,0,P|27:289|-3:365,2,125.999996154785,4|4|4,1:2|1:2|1:2,0:0:0:0:
16,158,23620,1,0,1:0:0:0:
16,158,23713,1,0,1:0:0:0:
16,158,23807,1,0,1:0:0:0:
16,158,23901,1,0,1:0:0:0:
16,158,23995,2,0,P|75:139|100:139,1,83.9999974365235,0|0,1:0|1:0,0:0:0:0:
148,12,24370,6,0,P|163:71|231:117,1,140,4|4,0:1|3:3,0:0:0:0:
224,115,24932,1,0,1:0:0:0:
323,35,25120,2,0,P|375:3|455:19,1,140,4|4,3:3|3:3,0:0:0:0:
450,16,25682,1,0,1:0:0:0:
427,129,25870,6,0,P|393:160|367:161,1,70,4|0,3:3|1:0,0:0:0:0:
304,138,26245,1,4,0:3:0:0:
304,138,26432,1,0,1:0:0:0:
262,194,26620,2,0,P|264:239|281:259,1,70,4|0,0:3|1:0,0:0:0:0:
313,253,26901,2,0,P|347:250|375:269,1,70,0|0,3:0|3:0,0:0:0:0:
409,259,27182,6,0,P|409:319|356:381,1,140,0|0,1:0|1:0,0:0:0:0:
361,378,27745,1,4,0:3:0:0:
233,378,27932,2,0,P|224:328|182:286,1,105,2|2,1:3|3:0,0:0:0:0:
153,284,28307,1,0,0:0:0:0:
93,321,28495,2,0,P|95:366|112:386,1,70,6|0,0:3|1:0,0:0:0:0:
13,289,28870,6,0,P|42:269|86:177,1,140,4|4,0:3|0:3,0:0:0:0:
345,278,29620,2,0,P|318:300|312:334,1,70,4|0,0:3|1:0,0:0:0:0:
364,384,29995,1,4,0:3:0:0:
424,349,30182,1,0,1:0:0:0:
416,248,30370,6,0,L|434:106,1,140,4|4,0:3|0:3,0:0:0:0:
481,58,30932,1,0,1:0:0:0:
481,58,31026,1,0,3:0:0:0:
481,58,31120,1,4,3:3:0:0:
419,7,31307,2,0,L|346:16,2,70,0|4|0,1:0|3:3|1:0,0:0:0:0:
370,87,31870,6,0,L|324:144,1,70,4|0,0:3|1:0,0:0:0:0:
455,230,32245,2,0,L|447:161,1,70,4|0,0:3|1:0,0:0:0:0:
353,273,32620,1,4,0:3:0:0:
294,231,32807,1,0,1:0:0:0:
294,231,32901,2,0,L|234:275,1,70,0|0,3:0|3:0,0:0:0:0:
213,247,33182,6,0,L|153:201,1,70,0|4,1:0|0:3,0:0:0:0:
112,263,33557,1,0,1:0:0:0:
164,309,33745,2,0,L|168:345,4,35,4|0|0|0|4,3:3|3:0|1:0|3:0|3:3,0:0:0:0:
98,349,34307,1,0,1:0:0:0:
98,349,34401,1,0,0:0:0:0:
98,349,34495,2,0,L|24:359,1,70,4|0,3:3|1:0,0:0:0:0:
2,293,34870,5,0,1:0:0:0:
46,198,35151,1,0,1:0:0:0:
88,101,35432,1,0,1:0:0:0:
135,189,35620,1,0,1:0:0:0:
135,189,35713,1,0,1:0:0:0:
135,189,35807,1,0,1:0:0:0:
135,189,35901,1,0,1:0:0:0:
135,189,35995,2,0,L|62:198,1,70,4|0,0:3|1:0,0:0:0:0:
217,272,36370,6,0,P|255:310|339:349,1,140,4|4,0:1|3:3,0:0:0:0:
402,343,36932,1,0,1:0:0:0:
428,182,37307,2,0,P|475:173|497:174,2,70,0|4|0,1:0|3:3|1:0,0:0:0:0:
362,68,37870,6,0,P|353:21|354:-1,1,70,4|0,0:3|1:0,0:0:0:0:
331,151,38245,2,0,P|291:177|276:194,1,70,4|0,3:3|1:0,0:0:0:0:
136,237,38620,1,4,3:3:0:0:
71,211,38807,1,0,1:0:0:0:
71,211,38901,2,0,P|111:185|126:168,1,70,0|0,3:0|3:0,0:0:0:0:
125,133,39182,6,0,P|172:136|193:143,1,70,0|4,1:0|0:3,0:0:0:0:
230,83,39557,1,0,1:0:0:0:
102,25,39932,2,0,L|55:76,1,70,2|6,1:3|3:3,0:0:0:0:
40,110,40213,1,2,3:0:0:0:
40,110,40307,2,0,P|83:130|104:135,2,70,0|6|0,0:0|3:3|1:0,0:0:0:0:
41,244,40870,6,0,P|9:207|0:188,1,70,4|0,3:3|1:0,0:0:0:0:
25,320,41245,2,0,P|4:363|0:384,1,70,4|0,0:3|1:0,0:0:0:0:
122,243,41620,1,4,0:3:0:0:
181,287,41807,1,0,1:0:0:0:
181,287,41901,2,0,P|226:271|243:259,1,70,0|0,3:0|0:0,0:0:0:0:
256,226,42182,1,0,1:0:0:0:
293,317,42370,6,0,P|338:343|429:359,1,140,4|4,3:3|3:3,0:0:0:0:
487,326,42932,1,8,1:3:0:0:
487,326,43026,1,8,3:0:0:0:
487,326,43120,1,12,3:3:0:0:
435,264,43307,2,0,P|404:280|379:305,2,70,0|4|0,1:0|3:3|1:0,0:0:0:0:
387,132,43870,6,0,P|383:84|376:63,1,70,4|0,0:3|1:0,0:0:0:0:
458,170,44245,2,0,P|497:196|512:213,1,70,4|0,3:3|1:0,0:0:0:0:
504,335,44620,1,4,3:3:0:0:
442,368,44807,1,0,1:0:0:0:
442,368,44901,2,0,P|421:324|417:302,1,70,0|0,3:0|3:0,0:0:0:0:
425,269,45182,6,0,P|381:247|360:243,1,70,0|4,1:0|0:3,0:0:0:0:
294,265,45557,1,0,1:0:0:0:
297,125,45932,2,0,L|355:162,1,70,2|6,1:3|3:3,0:0:0:0:
387,144,46213,1,2,3:0:0:0:
387,144,46307,2,0,P|411:119|441:100,2,70,0|6|0,0:0|3:3|1:0,0:0:0:0:
364,3,46870,5,0,1:0:0:0:
364,3,46963,1,0,1:0:0:0:
364,3,47057,2,0,L|352:36,1,35,0|0,1:0|1:0,0:0:0:0:
320,71,47245,2,0,L|331:104,3,35,8|8|8|8,3:0|3:0|3:0|3:0,0:0:0:0:
297,140,47620,1,0,1:0:0:0:
297,140,47713,1,0,1:0:0:0:
297,140,47807,1,0,1:0:0:0:
297,140,47901,1,0,1:0:0:0:
297,140,47995,2,0,L|238:102,1,70,0|0,1:0|1:0,0:0:0:0:
139,0,48370,6,0,P|59:70|85:174,1,224,4|0,1:0|1:0,0:0:0:0:
169,151,49307,1,0,3:0:0:0:
217,181,49495,2,0,P|224:208|217:238,1,56,0|0,3:0|1:0,0:0:0:0:
126,256,49870,6,0,P|101:223|37:186,2,112,4|0|0,3:0|0:0|1:0,0:0:0:0:
100,384,50901,2,0,B|69:377,1,28,0|0,1:0|3:0,0:0:0:0:
22,353,51182,6,0,P|86:336|299:368,1,280,0|0,1:0|3:0,0:0:0:0:
373,384,52307,1,0,3:0:0:0:
427,368,52495,2,0,P|450:354|466:331,1,56,0|0,3:0|1:0,0:0:0:0:
438,254,52870,6,0,P|400:239|347:186,1,112,4|0,3:0|0:0,0:0:0:0:
314,23,53620,1,0,1:0:0:0:
466,66,53995,1,4,0:3:0:0:
480,12,54182,6,0,P|371:99|237:137,1,280,0|0,1:0|3:0,0:0:0:0:
170,94,55307,1,0,3:0:0:0:
195,44,55495,2,0,P|221:36|249:42,1,56,0|0,3:0|1:0,0:0:0:0:
126,0,55870,6,0,P|111:37|58:90,2,112,4|4|0,0:3|0:3|3:0,0:0:0:0:
6,20,56901,2,0,B|0:47,1,28,0|0,3:0|3:0,0:0:0:0:
19,99,57182,6,0,P|56:175|69:259,1,168,0|4,1:0|0:3,0:0:0:0:
18,310,57932,2,0,L|31:253,1,56,2|0,3:0|3:0,0:0:0:0:
255,382,58495,1,0,1:0:0:0:
255,382,58588,1,0,1:0:0:0:
255,382,58682,1,0,1:0:0:0:
255,382,58776,1,0,1:0:0:0:
255,382,58870,6,0,P|217:351|196:322,1,84,4|0,3:0|0:0,0:0:0:0:
200,295,59245,2,0,B|205:292|202:295|207:292|231:288,3,28,0|0|0|0,1:0|1:0|1:0|1:0,0:0:0:0:
254,283,59620,1,4,3:0:0:0:
324,268,59807,1,4,3:0:0:0:
409,312,59995,1,0,1:0:0:0:
409,312,60088,1,0,1:0:0:0:
409,312,60182,1,0,1:0:0:0:
409,312,60276,1,0,1:0:0:0:
409,312,60370,6,0,P|458:265|480:163,1,167.999994873047,4|4,3:2|0:3,0:0:0:0:
460,97,60932,1,8,1:3:0:0:
460,97,61026,1,8,3:0:0:0:
460,97,61120,1,12,3:3:0:0:
425,20,61307,1,0,1:0:0:0:
340,22,61495,1,4,3:3:0:0:
372,99,61682,1,0,1:0:0:0:
302,146,61870,6,0,P|287:174|237:202,1,83.9999974365235,4|0,0:3|1:0,0:0:0:0:
107,116,62245,2,0,P|133:99|191:99,1,83.9999974365235,4|0,0:3|1:0,0:0:0:0:
220,271,62620,1,4,0:3:0:0:
146,230,62807,1,0,1:0:0:0:
146,230,62901,1,0,3:0:0:0:
135,313,63088,1,0,0:0:0:0:
135,313,63182,6,0,P|93:314|57:294,1,83.9999974365235,0|4,1:0|3:3,0:0:0:0:
52,210,63557,1,0,1:0:0:0:
0,150,63745,2,0,L|3:197,4,41.9999987182618,4|0|0|0|6,3:3|3:0|1:0|3:0|3:3,0:0:0:0:
53,85,64307,1,0,1:0:0:0:
0,18,64495,1,6,3:3:0:0:
83,10,64682,1,0,1:0:0:0:
142,69,64870,6,0,P|168:85|225:84,1,83.9999974365235,4|0,0:3|1:0,0:0:0:0:
218,253,65245,2,0,P|246:267|274:317,1,83.9999974365235,4|0,0:3|1:0,0:0:0:0:
351,171,65620,1,4,3:3:0:0:
351,171,65713,1,0,3:0:0:0:
351,171,65807,1,0,1:0:0:0:
351,171,65901,1,0,3:0:0:0:
351,171,65995,2,0,L|265:189,1,83.9999974365235,4|0,3:3|1:0,0:0:0:0:
408,248,66370,6,0,L|390:334,2,83.9999974365235,4|0|4,0:3|1:0|3:3,0:0:0:0:
430,172,66932,1,8,1:3:0:0:
430,172,67026,1,8,3:0:0:0:
430,172,67120,1,12,3:3:0:0:
491,228,67307,1,0,1:0:0:0:
503,144,67495,1,4,3:3:0:0:
438,90,67682,1,0,1:0:0:0:
481,17,67870,6,0,P|444:-2|403:-2,1,83.9999974365235,4|0,3:3|1:0,0:0:0:0:
275,94,68245,1,4,3:3:0:0:
275,94,68338,1,0,3:0:0:0:
275,94,68432,1,0,1:0:0:0:
247,173,68620,1,4,0:3:0:0:
295,241,68807,2,0,P|336:242|372:222,1,83.9999974365235,0|4,1:0|0:3,0:0:0:0:
215,248,69182,6,0,P|184:276|172:316,1,83.9999974365235,0|4,1:0|0:3,0:0:0:0:
223,381,69557,1,0,1:0:0:0:
299,344,69745,2,0,L|252:347,4,41.9999987182618,4|0|2|2|4,3:3|3:0|1:3|3:0|0:3,0:0:0:0:
379,366,70307,2,0,L|461:383,1,83.9999974365235,0|6,1:0|3:0,0:0:0:0:
512,259,70682,1,0,1:0:0:0:
512,259,70776,1,0,3:0:0:0:
512,259,70870,6,0,P|471:260|435:240,1,83.9999974365235,4|0,0:3|1:0,0:0:0:0:
354,265,71245,2,0,L|371:182,1,83.9999974365235,4|0,3:3|1:0,0:0:0:0:
277,88,71620,1,0,1:0:0:0:
277,88,71713,1,0,1:0:0:0:
277,88,71807,1,0,1:0:0:0:
277,88,71901,1,0,1:0:0:0:
277,88,71995,2,0,L|294:170,1,83.9999974365235,0|0,1:0|1:0,0:0:0:0:
247,240,72370,5,4,3:2:0:0:
172,202,72557,1,0,1:0:0:0:
152,120,72745,2,0,P|151:79|171:43,1,83.9999974365235,4|0,0:3|1:0,0:0:0:0:
136,19,73026,1,0,3:0:0:0:
136,19,73120,1,4,3:3:0:0:
62,58,73307,1,0,1:0:0:0:
80,140,73495,1,4,0:3:0:0:
41,217,73682,1,0,1:0:0:0:
41,217,73776,1,0,3:0:0:0:
41,217,73870,6,0,L|0:226,2,41.9999987182618,4|0|0,1:3|3:0|1:0,0:0:0:0:
73,250,74150,1,0,3:0:0:0:
73,250,74245,2,0,L|32:258,2,41.9999987182618,4|0|0,1:3|3:0|1:0,0:0:0:0:
108,281,74526,1,0,3:0:0:0:
108,281,74620,2,0,L|100:322,3,41.9999987182618,4|0|0|0,1:3|3:0|1:0|3:0,0:0:0:0:
139,336,74995,2,0,L|148:377,3,41.9999987182618,4|0|0|0,1:3|3:0|1:0|3:0,0:0:0:0:
189,383,75370,5,0,1:0:0:0:
310,351,75651,1,0,1:0:0:0:
431,319,75932,1,0,1:0:0:0:
431,319,76120,2,0,L|422:277,3,41.9999987182618,4|0|0|0,1:3|3:0|1:0|3:0,0:0:0:0:
447,244,76495,2,0,L|438:202,3,41.9999987182618,4|0|0|0,1:3|3:0|1:0|3:0,0:0:0:0:
423,163,76870,6,0,L|381:154,1,41.9999987182618,2|0,1:3|3:0,0:0:0:0:
353,185,77057,1,0,3:0:0:0:
353,185,77151,2,0,L|311:176,1,41.9999987182618,2|0,3:3|3:0,0:0:0:0:
284,144,77338,1,0,3:0:0:0:
284,144,77432,1,2,1:3:0:0:
316,65,77620,2,0,L|307:24,2,41.9999987182618,0|0|0,1:0|1:0|1:0,0:0:0:0:
338,29,77901,1,0,1:0:0:0:
469,17,78182,1,0,1:0:0:0:
469,17,78276,1,0,3:0:0:0:
469,17,78370,6,0,P|448:95|385:163,1,167.999994873047,4|4,0:3|0:3,0:0:0:0:
315,149,78932,1,8,1:3:0:0:
315,149,79026,1,8,3:0:0:0:
315,149,79120,1,12,3:3:0:0:
238,183,79307,1,0,1:0:0:0:
294,245,79495,1,4,0:3:0:0:
244,312,79682,1,0,1:0:0:0:
303,371,79870,6,0,P|386:366|503:236,1,251.999992309571,4|0,0:3|1:0,0:0:0:0:
490,168,80620,1,4,0:3:0:0:
412,159,80807,1,2,1:3:0:0:
412,159,80901,1,2,3:0:0:0:
412,159,80995,2,0,P|382:159|329:137,1,83.9999974365235,4|2,0:3|1:3,0:0:0:0:
189,0,81370,6,0,P|174:25|166:81,1,83.9999974365235,4|0,0:3|1:0,0:0:0:0:
192,158,81745,2,0,L|197:113,3,41.9999987182618,4|0|0|0,0:3|3:0|1:0|3:0,0:0:0:0:
238,112,82120,1,4,1:3:0:0:
238,112,82213,1,0,1:0:0:0:
238,112,82307,2,0,L|243:157,1,41.9999987182618,0|0,1:0|1:0,0:0:0:0:
219,189,82495,2,0,L|174:184,3,41.9999987182618,4|0|0|0,3:3|0:0|0:0|0:0,0:0:0:0:
135,179,82870,5,4,0:3:0:0:
92,107,83057,1,4,3:3:0:0:
65,218,83245,1,0,1:0:0:0:
65,218,83338,1,0,1:0:0:0:
65,218,83432,1,0,1:0:0:0:
65,218,83526,1,0,1:0:0:0:
65,218,83620,2,0,L|69:259,3,41.9999987182618,0|0|0|0,1:0|1:0|1:0|1:0,0:0:0:0:
39,289,83995,2,0,L|34:330,4,41.9999987182618,0|0|0|0|2,1:0|1:0|1:0|1:0|0:0,0:0:0:0:
492,374,94870,5,4,0:3:0:0:
492,374,95245,1,4,0:3:0:0:
492,374,95620,2,0,L|457:362,3,35,8|8|8|8,3:0|3:0|3:0|3:0,0:0:0:0:
453,327,95995,2,0,L|436:293,3,35,0|0|0|0,1:0|1:0|1:0|1:0,0:0:0:0:
461,260,96370,6,0,P|484:217|481:16,1,251.999992309571,4|0,3:1|1:0,0:0:0:0:
482,19,97120,1,4,3:0:0:0:
399,35,97307,2,0,L|353:21,2,41.9999987182618,0|0|4,1:0|0:0|3:0,0:0:0:0:
371,114,97682,1,0,1:0:0:0:
363,233,97870,6,0,P|394:272|429:287,1,83.9999974365235,4|0,0:3|1:0,0:0:0:0:
314,169,98245,2,0,P|264:176|234:199,1,83.9999974365235,4|0,0:3|1:0,0:0:0:0:
213,276,98620,1,4,0:3:0:0:
253,354,98807,1,0,1:0:0:0:
253,354,98901,1,8,3:0:0:0:
168,378,99088,1,0,3:0:0:0:
168,378,99182,6,0,P|180:297|61:79,1,335.999989746094,0|0,1:0|1:0,0:0:0:0:
65,82,100120,1,4,3:0:0:0:
11,145,100307,2,0,L|-1:185,2,41.9999987182618,0|0|4,1:0|0:0|3:0,0:0:0:0:
91,169,100682,1,0,1:0:0:0:
14,259,100870,6,0,P|-4:305|0:343,1,83.9999974365235,4|0,0:3|1:0,0:0:0:0:
91,279,101245,2,0,P|140:285|175:271,1,83.9999974365235,4|0,0:3|1:0,0:0:0:0:
209,198,101620,1,4,0:3:0:0:
172,127,101807,1,0,1:0:0:0:
172,127,101901,2,0,P|210:96|225:61,1,83.9999974365235,8|8,3:0|3:0,0:0:0:0:
222,23,102182,1,0,1:0:0:0:
303,0,102370,6,0,P|324:42|322:242,1,251.999992309571,4|8,3:0|1:3,0:0:0:0:
303,280,103026,1,8,3:0:0:0:
303,280,103120,1,12,3:0:0:0:
254,348,103307,2,0,L|213:361,2,41.9999987182618,0|0|4,1:0|0:0|3:0,0:0:0:0:
330,382,103682,1,0,1:0:0:0:
430,316,103870,6,0,P|464:352|474:388,1,83.9999974365235,4|0,0:3|1:0,0:0:0:0:
500,259,104245,2,0,P|466:223|456:187,1,83.9999974365235,4|0,0:3|1:0,0:0:0:0:
502,120,104620,1,4,0:3:0:0:
455,56,104807,1,0,1:0:0:0:
455,56,104901,2,0,P|395:37|370:37,1,83.9999974365235,8|0,3:0|3:0,0:0:0:0:
366,79,105182,6,0,P|301:129|53:135,1,335.999989746094,0|0,1:0|1:0,0:0:0:0:
57,137,106120,1,4,3:0:0:0:
40,55,106307,2,0,L|0:42,2,41.9999987182618,0|0|4,1:0|0:0|3:0,0:0:0:0:
106,2,106682,1,0,1:0:0:0:
210,58,106870,6,0,P|251:62|336:37,2,125.999996154785,4|4|4,1:2|1:2|1:2,0:0:0:0:
150,106,107620,1,0,1:0:0:0:
150,106,107713,1,0,1:0:0:0:
150,106,107807,1,0,1:0:0:0:
150,106,107901,1,0,1:0:0:0:
150,106,107995,2,0,P|181:145|216:160,1,83.9999974365235,0|0,1:0|1:0,0:0:0:0:
344,141,108370,6,0,P|367:176|371:276,1,140,4|4,0:1|3:3,0:0:0:0:
372,271,108932,1,0,1:0:0:0:
288,384,109120,2,0,P|250:365|197:280,1,140,4|4,3:3|3:3,0:0:0:0:
198,285,109682,1,0,1:0:0:0:
220,165,109870,6,0,P|243:199|269:210,1,70,4|0,3:3|1:0,0:0:0:0:
340,194,110245,1,4,0:3:0:0:
340,194,110432,1,0,1:0:0:0:
316,125,110620,2,0,P|319:83|336:60,1,70,4|0,0:3|1:0,0:0:0:0:
366,45,110901,2,0,P|406:55|433:46,1,70,0|0,3:0|3:0,0:0:0:0:
461,27,111182,6,0,P|452:68|384:141,1,140,0|0,1:0|1:0,0:0:0:0:
388,139,111745,1,4,0:3:0:0:
274,102,111932,2,0,P|255:64|170:11,1,140,2|0,1:3|0:0,0:0:0:0:
107,30,112495,2,0,P|65:26|42:9,1,70,6|0,0:3|1:0,0:0:0:0:
130,113,112870,6,0,P|60:109|0:141,1,140,4|4,0:3|0:3,0:0:0:0:
66,380,113620,2,0,P|80:340|102:323,1,70,4|0,0:3|1:0,0:0:0:0:
170,310,113995,1,4,0:3:0:0:
224,354,114182,1,0,1:0:0:0:
321,315,114370,6,0,L|453:387,1,140,4|4,0:3|0:3,0:0:0:0:
499,339,114932,1,0,1:0:0:0:
499,339,115026,1,0,3:0:0:0:
499,339,115120,1,4,3:3:0:0:
478,263,115307,2,0,L|501:165,2,70,0|4|0,1:0|3:3|1:0,0:0:0:0:
414,196,115870,6,0,L|316:219,1,70,4|0,0:3|1:0,0:0:0:0:
239,122,116245,2,0,L|187:207,1,70,4|0,0:3|1:0,0:0:0:0:
189,59,116620,1,4,0:3:0:0:
245,17,116807,1,0,1:0:0:0:
245,17,116901,2,0,L|342:40,1,70,0|0,3:0|3:0,0:0:0:0:
347,27,117182,6,0,L|444:3,1,70,0|4,1:0|0:3,0:0:0:0:
472,51,117557,1,0,1:0:0:0:
411,85,117745,2,0,L|398:138,4,35,4|0|0|0|4,3:3|3:0|1:0|3:0|3:3,0:0:0:0:
479,135,118307,1,0,1:0:0:0:
479,135,118401,1,0,0:0:0:0:
479,135,118495,2,0,L|520:211,1,70,4|0,3:3|1:0,0:0:0:0:
487,262,118870,5,0,1:0:0:0:
393,215,119151,1,0,1:0:0:0:
301,266,119432,1,0,1:0:0:0:
344,349,119620,1,0,1:0:0:0:
344,349,119713,1,0,1:0:0:0:
344,349,119807,1,0,1:0:0:0:
344,349,119901,1,0,1:0:0:0:
344,349,119995,2,0,L|412:332,1,70,4|0,0:3|1:0,0:0:0:0:
242,384,120370,6,0,P|188:349|100:314,1,140,4|4,0:1|3:3,0:0:0:0:
48,321,120932,1,0,1:0:0:0:
0,198,121307,2,0,P|35:197|68:181,2,70,0|4|0,1:0|3:3|1:0,0:0:0:0:
20,66,121870,6,0,P|19:31|3:-2,1,70,4|0,0:3|1:0,0:0:0:0:
114,101,122245,2,0,P|140:123|174:132,1,70,4|0,3:3|1:0,0:0:0:0:
287,116,122620,1,4,3:3:0:0:
336,178,122807,1,0,1:0:0:0:
336,178,122901,2,0,P|323:210|299:235,1,70,0|0,3:0|3:0,0:0:0:0:
265,244,123182,6,0,P|277:276|301:301,1,70,0|4,1:0|0:3,0:0:0:0:
369,319,123557,1,0,1:0:0:0:
244,383,123932,2,0,L|175:366,1,70,2|6,1:3|3:3,0:0:0:0:
153,339,124213,1,2,3:0:0:0:
152,338,124307,2,0,P|118:347|92:370,2,70,0|6|0,0:0|3:3|1:0,0:0:0:0:
206,206,124870,6,0,P|182:231|169:263,1,70,4|0,3:3|1:0,0:0:0:0:
289,178,125245,2,0,P|279:144|257:117,1,70,4|0,0:3|1:0,0:0:0:0:
308,6,125620,1,4,0:3:0:0:
358,61,125807,1,0,1:0:0:0:
358,61,125901,2,0,P|391:69|426:63,1,70,0|0,3:0|0:0,0:0:0:0:
456,45,126182,1,0,1:0:0:0:
512,142,126370,6,0,P|515:205|501:299,1,140,4|4,3:3|3:3,0:0:0:0:
445,316,126932,1,8,1:3:0:0:
445,316,127026,1,8,3:0:0:0:
445,316,127120,1,12,3:3:0:0:
383,260,127307,2,0,P|408:236|440:223,2,70,0|4|0,1:0|3:3|1:0,0:0:0:0:
281,327,127870,6,0,P|304:352|317:384,1,70,4|0,0:3|1:0,0:0:0:0:
222,262,128245,2,0,P|247:238|279:225,1,70,4|0,3:3|1:0,0:0:0:0:
342,100,128620,1,4,3:3:0:0:
272,102,128807,1,0,1:0:0:0:
272,102,128901,2,0,P|248:76|235:44,1,70,0|0,3:0|3:0,0:0:0:0:
238,9,129182,6,0,P|204:0|169:6,1,70,0|4,1:0|0:3,0:0:0:0:
107,38,129557,1,0,1:0:0:0:
161,167,129932,2,0,L|144:235,1,70,2|6,1:3|3:3,0:0:0:0:
119,258,130213,1,2,3:0:0:0:
119,258,130307,2,0,P|137:287|165:307,2,70,0|6|0,0:0|3:3|1:0,0:0:0:0:
32,328,130870,5,0,1:0:0:0:
32,328,130963,1,0,1:0:0:0:
32,328,131057,2,0,L|18:272,1,35,0|0,1:0|1:0,0:0:0:0:
4,264,131245,2,0,L|17:208,3,35,8|8|8|8,3:0|3:0|3:0|3:0,0:0:0:0:
41,211,131620,1,0,1:0:0:0:
41,211,131713,1,0,1:0:0:0:
41,211,131807,1,0,1:0:0:0:
41,211,131901,1,0,1:0:0:0:
41,211,131995,2,0,L|109:194,1,70,0|0,1:0|1:0,0:0:0:0:
34,52,132370,6,0,P|88:47|219:149,1,224,4|0,1:0|1:0,0:0:0:0:
207,235,133307,1,0,3:0:0:0:
248,274,133495,2,0,P|285:263|309:245,1,56,0|0,3:0|1:0,0:0:0:0:
365,153,133870,6,0,P|421:197|477:218,2,112,4|0|0,3:0|0:0|1:0,0:0:0:0:
407,23,134901,2,0,L|452:30,1,28,0|0,1:0|3:0,0:0:0:0:
475,66,135182,6,0,P|448:124|251:173,1,280,0|0,1:0|3:0,0:0:0:0:
204,103,136307,1,0,3:0:0:0:
224,52,136495,2,0,P|257:32|288:28,1,56,0|0,3:0|1:0,0:0:0:0:
357,0,136870,6,0,P|347:70|356:130,1,112,4|0,3:0|0:0,0:0:0:0:
486,223,137620,1,0,1:0:0:0:
366,336,137995,1,4,0:3:0:0:
393,384,138182,6,0,P|262:346|208:221,1,280,0|0,1:0|3:0,0:0:0:0:
109,278,139307,1,0,3:0:0:0:
104,334,139495,2,0,P|111:360|126:384,1,56,0|0,3:0|1:0,0:0:0:0:
34,299,139870,6,0,P|78:242|99:186,2,112,4|4|0,0:3|0:3|3:0,0:0:0:0:
4,174,140901,2,0,L|-3:129,1,28,0|0,3:0|3:0,0:0:0:0:
27,97,141182,6,0,P|108:118|158:194,1,168,0|4,1:0|0:3,0:0:0:0:
220,148,141932,2,0,L|295:132,1,56,2|0,3:0|3:0,0:0:0:0:
413,0,142495,1,0,1:0:0:0:
413,0,142588,1,0,1:0:0:0:
413,0,142682,1,0,1:0:0:0:
413,0,142776,1,0,1:0:0:0:
413,0,142870,6,0,P|357:4|314:22,1,84,4|0,3:0|0:0,0:0:0:0:
317,38,143245,2,0,L|310:83,3,28,0|0|0|0,1:0|1:0|1:0|1:0,0:0:0:0:
309,93,143620,1,4,3:0:0:0:
242,128,143807,1,4,3:0:0:0:
190,78,143995,1,0,1:0:0:0:
190,78,144088,1,0,1:0:0:0:
190,78,144182,1,0,1:0:0:0:
190,78,144276,1,0,1:0:0:0:
190,78,144370,6,0,P|234:33|356:18,1,167.999994873047,4|4,3:2|0:3,0:0:0:0:
423,36,144932,1,8,1:3:0:0:
423,36,145026,1,8,3:0:0:0:
423,36,145120,1,12,3:3:0:0:
484,93,145307,1,0,1:0:0:0:
410,133,145495,1,4,3:3:0:0:
397,215,145682,1,0,1:0:0:0:
332,162,145870,6,0,P|282:145|216:154,1,83.9999974365235,4|0,0:3|1:0,0:0:0:0:
167,288,146245,2,0,P|214:264|254:211,1,83.9999974365235,4|0,0:3|1:0,0:0:0:0:
395,271,146620,1,4,0:3:0:0:
331,324,146807,1,0,1:0:0:0:
331,324,146901,1,0,3:0:0:0:
393,384,147088,1,0,0:0:0:0:
393,384,147182,6,0,P|355:364|314:358,1,83.9999974365235,0|4,1:0|3:3,0:0:0:0:
232,379,147557,1,0,1:0:0:0:
253,297,147745,2,0,L|246:234,4,41.9999987182618,4|0|0|0|6,3:3|3:0|1:0|3:0|3:3,0:0:0:0:
169,297,148307,1,0,1:0:0:0:
106,353,148495,1,6,3:3:0:0:
88,271,148682,1,0,1:0:0:0:
153,218,148870,6,0,P|170:168|161:102,1,83.9999974365235,4|0,0:3|1:0,0:0:0:0:
69,0,149245,2,0,P|34:39|-27:64,1,83.9999974365235,4|0,0:3|1:0,0:0:0:0:
165,33,149620,1,4,3:3:0:0:
165,33,149713,1,0,3:0:0:0:
165,33,149807,1,0,1:0:0:0:
165,33,149901,1,0,3:0:0:0:
165,33,149995,2,0,L|280:45,1,83.9999974365235,4|0,3:3|1:0,0:0:0:0:
114,99,150370,6,0,L|126:214,2,83.9999974365235,4|0|4,0:3|1:0|3:3,0:0:0:0:
45,140,150932,1,8,1:3:0:0:
45,140,151026,1,8,3:0:0:0:
45,140,151120,1,12,3:3:0:0:
9,215,151307,1,0,1:0:0:0:
47,289,151495,1,4,3:3:0:0:
4,359,151682,1,0,1:0:0:0:
86,384,151870,6,0,P|137:373|190:332,1,83.9999974365235,4|0,3:3|1:0,0:0:0:0:
256,264,152245,1,4,3:3:0:0:
256,264,152338,1,0,3:0:0:0:
256,264,152432,1,0,1:0:0:0:
334,294,152620,1,4,0:3:0:0:
341,377,152807,2,0,P|289:366|236:325,1,83.9999974365235,0|4,1:0|0:3,0:0:0:0:
411,333,153182,6,0,P|440:289|448:223,1,83.9999974365235,0|4,1:0|0:3,0:0:0:0:
426,178,153557,1,0,1:0:0:0:
504,148,153745,2,0,L|441:141,4,41.9999987182618,4|0|2|2|4,3:3|3:0|1:3|3:0|0:3,0:0:0:0:
485,229,154307,2,0,L|497:344,1,83.9999974365235,0|6,1:0|3:0,0:0:0:0:
369,352,154682,1,0,1:0:0:0:
369,352,154776,1,0,3:0:0:0:
369,352,154870,6,0,P|346:316|313:290,1,83.9999974365235,4|0,0:3|1:0,0:0:0:0:
263,222,155245,2,0,L|378:209,1,83.9999974365235,4|0,3:3|1:0,0:0:0:0:
278,87,155620,1,0,1:0:0:0:
278,87,155713,1,0,1:0:0:0:
278,87,155807,1,0,1:0:0:0:
278,87,155901,1,0,1:0:0:0:
278,87,155995,2,0,L|162:74,1,83.9999974365235,0|0,1:0|1:0,0:0:0:0:
128,129,156370,5,4,3:2:0:0:
158,206,156557,1,0,1:0:0:0:
134,287,156745,2,0,P|98:310|72:343,1,83.9999974365235,4|0,0:3|1:0,0:0:0:0:
81,383,157026,1,0,3:0:0:0:
81,383,157120,1,4,3:3:0:0:
164,383,157307,1,0,1:0:0:0:
223,323,157495,1,4,0:3:0:0:
314,331,157682,1,0,1:0:0:0:
314,331,157776,1,0,3:0:0:0:
314,331,157870,6,0,L|321:394,2,41.9999987182618,4|0|0,1:3|3:0|1:0,0:0:0:0:
339,298,158151,1,0,3:0:0:0:
339,298,158245,2,0,L|346:235,2,41.9999987182618,4|0|0,1:3|3:0|1:0,0:0:0:0:
312,272,158526,1,0,3:0:0:0:
312,272,158620,2,0,L|249:265,3,41.9999987182618,4|0|0|0,1:3|3:0|1:0|3:0,0:0:0:0:
247,303,158995,2,0,L|184:310,3,41.9999987182618,4|0|0|0,1:3|3:0|1:0|3:0,0:0:0:0:
195,266,159370,5,0,1:0:0:0:
101,182,159651,1,0,1:0:0:0:
3,101,159932,1,0,1:0:0:0:
3,101,160120,2,0,L|-4:164,3,41.9999987182618,4|0|0|0,1:3|3:0|1:0|3:0,0:0:0:0:
16,180,160495,2,0,L|55:130,3,41.9999987182618,4|0|0|0,1:3|3:0|1:0|3:0,0:0:0:0:
77,124,160870,6,0,L|70:61,1,41.9999987182618,2|0,1:3|3:0,0:0:0:0:
114,69,161057,1,0,3:0:0:0:
114,69,161151,2,0,L|107:6,1,41.9999987182618,2|0,3:3|3:0,0:0:0:0:
144,3,161338,1,0,3:0:0:0:
144,3,161432,1,2,1:3:0:0:
211,53,161620,2,0,L|274:60,2,41.9999987182618,0|0|0,1:0|1:0|1:0,0:0:0:0:
232,89,161901,1,0,1:0:0:0:
166,197,162182,1,0,1:0:0:0:
166,197,162276,1,0,3:0:0:0:
166,197,162370,6,0,P|234:243|265:320,1,167.999994873047,4|4,0:3|0:3,0:0:0:0:
336,383,162932,1,8,1:3:0:0:
336,383,163026,1,8,3:0:0:0:
336,383,163120,1,12,3:3:0:0:
409,342,163307,1,0,1:0:0:0:
416,258,163495,1,4,0:3:0:0:
490,220,163682,1,0,1:0:0:0:
497,136,163870,6,0,P|433:151|252:97,1,251.999992309571,4|0,0:3|1:0,0:0:0:0:
206,35,164620,1,4,0:3:0:0:
289,4,164807,1,2,1:3:0:0:
289,4,164901,1,2,3:0:0:0:
289,4,164995,2,0,P|328:38|353:100,1,83.9999974365235,4|2,0:3|1:3,0:0:0:0:
242,215,165370,6,0,P|219:250|186:276,1,83.9999974365235,4|0,0:3|1:0,0:0:0:0:
109,242,165745,2,0,L|172:235,3,41.9999987182618,4|0|0|0,0:3|3:0|1:0|3:0,0:0:0:0:
169,199,166120,1,4,1:3:0:0:
169,199,166213,1,0,1:0:0:0:
169,199,166307,2,0,L|106:192,1,41.9999987182618,0|0,1:0|1:0,0:0:0:0:
85,187,166495,2,0,L|78:250,3,41.9999987182618,4|0|0|0,3:3|0:0|0:0|0:0,0:0:0:0:
75,270,166870,5,4,0:3:0:0:
4,315,167057,1,4,3:3:0:0:
108,363,167245,2,0,L|171:356,3,41.9999987182618,0|0|0|0,1:0|1:0|1:0|1:0,0:0:0:0:
193,342,167620,1,0,1:0:0:0:
193,342,167713,1,0,1:0:0:0:
193,342,167807,1,0,1:0:0:0:
193,342,167901,1,0,1:0:0:0:
193,342,167995,2,0,P|205:300|230:267,1,83.9999974365235,0|0,1:0|1:0,0:0:0:0:
271,253,168276,1,0,1:0:0:0:
271,253,168370,6,0,P|249:182|60:71,1,293.999991027832,4|8,0:1|1:3,0:0:0:0:
28,89,169026,1,8,3:0:0:0:
28,89,169120,1,12,3:0:0:0:
68,0,169307,1,2,1:2:0:0:
147,57,169495,1,4,3:3:0:0:
233,12,169682,1,2,1:2:0:0:
308,74,169870,6,0,P|302:135|266:186,1,97.9999970092774,4|0,3:0|1:0,0:0:0:0:
125,213,170245,2,0,P|160:162|217:136,1,97.9999970092774,4|0,3:0|1:0,0:0:0:0:
301,270,170620,1,4,3:0:0:0:
389,224,170807,1,0,1:0:0:0:
389,224,170901,1,0,3:0:0:0:
363,320,171088,1,0,3:0:0:0:
363,320,171182,6,0,P|413:378|518:325,1,195.999994018555,0|0,1:0|3:0,0:0:0:0:
505,240,171745,2,0,L|485:164,1,48.9999985046387,4|0,3:0|3:0,0:0:0:0:
512,148,171932,2,0,L|492:72,2,48.9999985046387,0|0|4,3:0|3:0|3:0,0:0:0:0:
426,122,172307,1,2,1:2:0:0:
373,38,172495,1,4,3:3:0:0:
277,18,172682,1,2,1:2:0:0:
183,49,172870,6,0,P|121:43|70:7,1,97.9999970092774,4|0,3:0|1:0,0:0:0:0:
212,179,173245,2,0,P|238:234|232:297,1,97.9999970092774,4|0,3:0|1:0,0:0:0:0:
115,377,173620,1,0,1:0:0:0:
115,377,173713,1,0,1:0:0:0:
115,377,173807,1,0,1:0:0:0:
115,377,173901,2,0,P|120:315|156:264,1,97.9999970092774,0|0,1:0|0:0,0:0:0:0:
101,251,174182,6,0,P|12:198|182:95,1,391.99998803711,0|8,1:0|1:3,0:0:0:0:
181,132,175026,1,8,3:0:0:0:
181,132,175120,1,8,3:0:0:0:
258,72,175307,1,2,1:2:0:0:
253,170,175495,1,4,3:0:0:0:
325,104,175682,1,2,1:2:0:0:
325,202,175870,6,0,P|290:271|176:246,1,195.999994018555,4|4,3:0|3:0,0:0:0:0:
153,228,176338,1,0,3:0:0:0:
153,228,176432,1,0,1:0:0:0:
57,252,176620,1,4,3:0:0:0:
14,340,176807,2,0,P|57:360|106:362,1,97.9999970092774,0|4,1:0|3:0,0:0:0:0:
206,283,177182,6,0,P|226:326|228:375,1,97.9999970092774,0|4,1:0|3:0,0:0:0:0:
326,374,177557,1,0,0:0:0:0:
372,287,177745,2,0,L|448:267,1,48.9999985046387,4|0,3:0|3:0,0:0:0:0:
464,294,177932,2,0,L|540:274,2,48.9999985046387,0|0|0,1:0|3:0|0:0,0:0:0:0:
485,198,178307,2,0,L|513:91,1,97.9999970092774,0|6,3:0|3:0,0:0:0:0:
340,103,178682,1,0,1:0:0:0:
340,103,178776,1,0,1:0:0:0:
340,103,178870,6,0,P|263:108|362:37,1,293.999991027832,4|0,3:0|1:0,0:0:0:0:
505,34,179620,1,2,1:2:0:0:
505,34,179713,1,0,1:0:0:0:
505,34,179807,1,2,1:2:0:0:
505,34,179901,1,0,1:0:0:0:
505,34,179995,2,0,L|409:89,1,97.9999970092774,0|2,1:0|1:2,0:0:0:0:
260,0,180370,5,4,0:1:0:0:
186,63,180557,1,0,1:0:0:0:
93,31,180745,2,0,P|45:35|2:57,1,97.9999970092774,4|0,3:0|1:0,0:0:0:0:
5,111,181026,1,0,3:0:0:0:
5,111,181120,1,4,3:0:0:0:
98,138,181307,1,0,1:0:0:0:
131,230,181495,1,4,3:0:0:0:
46,202,181682,1,0,1:0:0:0:
46,202,181776,1,0,3:0:0:0:
46,202,181870,6,0,L|-15:215,2,48.9999985046387,4|0|0,3:0|3:0|1:0,0:0:0:0:
63,252,182151,1,0,3:0:0:0:
63,252,182245,2,0,L|29:304,2,48.9999985046387,4|0|0,3:0|3:0|1:0,0:0:0:0:
113,271,182526,1,0,3:0:0:0:
113,271,182620,2,0,L|126:332,3,48.9999985046387,4|0|0|0,3:0|3:0|1:0|3:0,0:0:0:0:
158,353,182995,2,0,L|171:291,3,48.9999985046387,4|0|0|0,3:0|3:0|1:0|3:0,0:0:0:0:
149,259,183370,5,0,1:0:0:0:
262,352,183651,1,0,1:0:0:0:
379,264,183932,1,0,1:0:0:0:
379,264,184120,2,0,L|317:251,3,48.9999985046387,4|0|0|0,3:0|3:0|1:0|3:0,0:0:0:0:
303,213,184495,2,0,L|241:226,3,48.9999985046387,4|0|0|0,3:0|3:0|1:0|3:0,0:0:0:0:
213,197,184870,6,0,L|226:135,1,48.9999985046387,2|0,3:0|3:0,0:0:0:0:
232,100,185057,1,0,1:0:0:0:
232,100,185151,2,0,L|293:113,1,48.9999985046387,2|0,3:0|3:0,0:0:0:0:
327,123,185338,1,0,3:0:0:0:
327,123,185432,1,2,3:0:0:0:
349,27,185620,2,0,L|396:17,2,48.9999985046387,0|0|0,1:0|1:0|1:0,0:0:0:0:
300,19,185901,1,0,1:0:0:0:
422,117,186182,1,0,1:0:0:0:
422,117,186276,1,0,3:0:0:0:
422,117,186370,6,0,P|367:249|239:316,1,293.999991027832,4|8,3:0|1:3,0:0:0:0:
203,289,187026,1,8,3:0:0:0:
203,289,187120,1,12,3:0:0:0:
107,273,187307,1,2,1:2:0:0:
91,368,187495,1,4,3:0:0:0:
187,384,187682,1,2,1:2:0:0:
279,351,187870,6,0,P|334:217|290:79,1,293.999991027832,4|0,3:0|1:0,0:0:0:0:
197,49,188620,1,4,3:0:0:0:
194,154,188807,1,2,1:2:0:0:
194,154,188901,1,0,3:0:0:0:
194,154,188995,2,0,P|153:211|108:220,1,97.9999970092774,4|2,3:0|1:2,0:0:0:0:
0,85,189370,5,4,3:0:0:0:
256,192,189463,12,2,192370,0:0:0:0:
4,369,202870,5,4,0:3:0:0:
4,369,203245,1,4,0:3:0:0:
4,369,203620,2,0,L|53:383,3,35,8|8|8|8,3:0|3:0|3:0|3:0,0:0:0:0:
56,349,203995,2,0,L|80:393,3,35,0|0|0|0,1:0|1:0|1:0|1:0,0:0:0:0:
114,374,204370,6,0,P|144:303|9:188,1,251.999992309571,4|0,3:1|1:0,0:0:0:0:
41,186,205120,1,4,3:0:0:0:
0,113,205307,2,0,L|68:93,2,41.9999987182618,0|0|4,1:0|0:0|3:0,0:0:0:0:
13,29,205682,1,0,1:0:0:0:
128,2,205870,6,0,P|132:63|105:104,1,83.9999974365235,4|0,0:3|1:0,0:0:0:0:
232,23,206245,2,0,P|278:63|288:111,1,83.9999974365235,4|0,0:3|1:0,0:0:0:0:
231,147,206620,1,4,0:3:0:0:
241,234,206807,1,0,1:0:0:0:
241,234,206901,2,0,P|206:213|164:209,1,83.9999974365235,8|0,3:0|3:0,0:0:0:0:
140,174,207182,6,0,P|110:245|299:346,1,335.999989746094,0|0,1:0|1:0,0:0:0:0:
289,352,208120,1,4,3:0:0:0:
374,342,208307,2,0,L|354:410,2,41.9999987182618,0|0|4,1:0|0:0|3:0,0:0:0:0:
453,371,208682,1,0,1:0:0:0:
512,269,208870,6,0,P|492:211|507:164,1,83.9999974365235,4|0,0:3|1:0,0:0:0:0:
410,267,209245,2,0,P|355:239|333:196,1,83.9999974365235,4|0,0:3|1:0,0:0:0:0:
329,139,209620,1,4,0:3:0:0:
373,69,209807,1,0,1:0:0:0:
373,69,209901,2,0,P|408:91|449:94,1,83.9999974365235,8|8,3:0|3:0,0:0:0:0:
489,80,210182,1,0,1:0:0:0:
399,2,210370,6,0,P|370:73|193:59,1,251.999992309571,4|8,3:0|1:3,0:0:0:0:
188,49,211026,1,8,3:0:0:0:
188,49,211120,1,12,3:0:0:0:
115,7,211307,2,0,L|47:27,2,41.9999987182618,0|0|4,1:0|0:0|3:0,0:0:0:0:
96,89,211682,1,0,1:0:0:0:
84,207,211870,6,0,P|42:208|4:190,1,83.9999974365235,4|0,0:3|1:0,0:0:0:0:
167,246,212245,2,0,P|147:282|113:306,1,83.9999974365235,4|0,0:3|1:0,0:0:0:0:
31,288,212620,1,4,0:3:0:0:
0,368,212807,1,0,1:0:0:0:
0,368,212901,2,0,P|41:366|79:384,1,83.9999974365235,8|0,3:0|3:0,0:0:0:0:
120,378,213182,6,0,P|109:301|318:253,1,335.999989746094,0|0,1:0|1:0,0:0:0:0:
310,243,214120,1,4,3:0:0:0:
283,322,214307,2,0,L|303:390,2,41.9999987182618,0|0|4,1:0|0:0|3:0,0:0:0:0:
204,292,214682,1,0,1:0:0:0:
264,191,214870,6,0,P|324:204|385:188,2,125.999996154785,4|4|4,1:2|1:2|1:2,0:0:0:0:
263,117,215620,1,0,1:0:0:0:
263,117,215713,1,0,1:0:0:0:
263,117,215807,1,0,1:0:0:0:
263,117,215901,1,0,1:0:0:0:
263,117,215995,2,0,L|180:136,1,83.9999974365235,0|0,1:0|1:0,0:0:0:0:
363,32,216370,6,0,P|399:122|397:219,2,195.999994018555,4|0|4,3:1|0:0|3:0,0:0:0:0:
459,17,217307,1,2,1:2:0:0:
459,17,217401,1,0,3:0:0:0:
459,17,217495,1,4,3:0:0:0:
503,103,217682,2,0,P|434:100|396:66,1,97.9999970092774,2|4,1:2|3:0,0:0:0:0:
495,240,218057,6,0,P|492:309|458:347,1,97.9999970092774,2|4,1:0|3:0,0:0:0:0:
337,379,218432,1,2,1:0:0:0:
379,290,218620,1,6,3:0:0:0:
379,290,218713,1,2,3:0:0:0:
281,300,218901,2,0,P|240:326|219:370,1,97.9999970092774,2|0,3:0|0:0,0:0:0:0:
170,374,219182,6,0,P|266:385|359:358,2,195.999994018555,2|0|0,1:2|1:0|1:0,0:0:0:0:
190,277,220120,1,4,3:0:0:0:
105,315,220307,1,2,1:2:0:0:
105,315,220401,1,0,3:0:0:0:
105,315,220495,1,4,3:0:0:0:
131,220,220682,1,2,1:2:0:0:
229,218,220870,6,0,P|275:167|278:116,1,97.9999970092774,6|0,3:2|1:0,0:0:0:0:
232,0,221245,2,0,P|185:50|182:101,1,97.9999970092774,4|0,3:0|1:0,0:0:0:0:
113,149,221620,1,6,3:2:0:0:
24,118,221807,1,0,1:0:0:0:
24,118,221901,2,0,P|89:97|117:54,1,97.9999970092774,8|8,3:0|3:0,0:0:0:0:
122,30,222182,1,0,1:0:0:0:
0,9,222370,6,0,P|57:86|66:157,1,146.999995513916,4|0,3:1|0:0,0:0:0:0:
29,167,222745,2,0,L|15:275,1,97.9999970092774,0|0,0:0|1:0,0:0:0:0:
12,313,223026,1,0,0:0:0:0:
12,313,223120,1,4,1:0:0:0:
93,383,223307,1,2,1:2:0:0:
93,383,223401,1,0,3:0:0:0:
93,383,223495,1,4,3:0:0:0:
132,293,223682,2,0,P|82:245|31:243,1,97.9999970092774,2|4,1:2|3:0,0:0:0:0:
187,146,224057,6,0,P|190:214|224:252,1,97.9999970092774,2|4,1:0|3:0,0:0:0:0:
345,346,224432,1,2,1:0:0:0:
251,376,224620,1,2,1:3:0:0:
251,376,224713,1,2,3:0:0:0:
281,282,224901,2,0,P|342:250|392:260,1,97.9999970092774,2|0,3:0|0:0,0:0:0:0:
411,277,225182,6,0,P|469:199|492:105,2,195.999994018555,2|0|0,1:2|1:0|1:0,0:0:0:0:
392,180,226120,1,4,3:0:0:0:
301,189,226307,1,2,1:2:0:0:
301,189,226401,1,0,3:0:0:0:
301,189,226495,1,4,3:0:0:0:
241,111,226682,1,2,1:2:0:0:
267,16,226870,5,6,1:0:0:0:
380,109,227151,1,6,1:2:0:0:
510,31,227432,1,6,1:2:0:0:
426,52,227620,1,6,1:0:0:0:
426,52,227713,1,0,1:0:0:0:
426,52,227807,1,0,1:0:0:0:
426,52,227901,1,0,1:0:0:0:
426,52,227995,2,0,P|446:117|489:145,1,97.9999970092774,0|4,1:0|1:2,0:0:0:0:
299,11,228370,6,2,P|246:66|-2:47,1,335.999989746094,6|4,3:1|0:3,0:0:0:0:
11,153,229307,2,0,L|-9:224,2,41.9999987182618,0|0|4,1:0|0:0|3:0,0:0:0:0:
90,124,229682,1,0,1:0:0:0:
194,180,229870,6,0,P|206:235|189:292,1,83.9999974365235,4|0,0:3|1:0,0:0:0:0:
226,95,230245,2,0,P|256:46|309:18,1,83.9999974365235,4|0,0:3|1:0,0:0:0:0:
361,22,230620,1,4,0:3:0:0:
429,70,230807,1,0,1:0:0:0:
429,70,230901,2,0,P|397:97|377:133,1,83.9999974365235,8|8,3:0|3:0,0:0:0:0:
345,161,231182,6,0,P|403:220|427:300,2,167.999994873047,0|0|0,1:0|1:0|1:0,0:0:0:0:
345,161,232120,1,4,0:3:0:0:
262,177,232307,2,0,L|242:106,2,41.9999987182618,0|0|4,1:0|0:0|0:3,0:0:0:0:
316,241,232682,1,0,1:0:0:0:
271,350,232870,6,0,P|321:376|381:374,1,83.9999974365235,4|0,0:3|1:0,0:0:0:0:
241,282,233245,2,0,P|183:284|133:315,1,83.9999974365235,4|0,0:3|1:0,0:0:0:0:
108,361,233620,1,4,0:3:0:0:
33,322,233807,1,0,1:0:0:0:
33,322,233901,2,0,P|20:266|37:209,1,83.9999974365235,8|8,3:0|3:0,0:0:0:0:
42,202,234182,1,0,1:0:0:0:
0,91,234370,6,0,P|77:140|238:169,1,251.999992309571,4|0,0:3|1:0,0:0:0:0:
278,167,235026,1,0,3:0:0:0:
278,167,235120,1,4,0:3:0:0:
290,84,235307,2,0,L|361:64,2,41.9999987182618,0|0|4,1:0|3:0|3:0,0:0:0:0:
222,34,235682,2,0,P|167:50|126:94,1,83.9999974365235,0|4,1:0|0:3,0:0:0:0:
123,242,236057,6,0,P|68:225|27:181,1,83.9999974365235,0|4,1:0|0:3,0:0:0:0:
206,197,236432,1,0,1:0:0:0:
214,280,236620,1,4,0:3:0:0:
214,280,236713,1,0,3:0:0:0:
292,249,236901,2,0,P|346:265|387:309,1,83.9999974365235,0|0,3:0|0:0,0:0:0:0:
385,319,237182,1,0,1:0:0:0:
501,296,237370,6,0,L|521:225,4,41.9999987182618,0|0|0|0|4,1:0|0:0|0:0|0:0|3:0,0:0:0:0:
435,243,237932,2,0,L|364:263,2,41.9999987182618,0|0|4,1:0|3:0|3:0,0:0:0:0:
487,177,238307,2,0,L|467:106,1,41.9999987182618,0|0,1:0|0:0,0:0:0:0:
472,112,238495,1,4,3:0:0:0:
472,112,238588,1,4,3:0:0:0:
472,112,238682,1,0,1:0:0:0:
472,112,238776,1,0,1:0:0:0:
472,112,238870,6,0,P|402:127|335:214,1,167.999994873047,4|4,1:2|1:2,0:0:0:0:
406,351,239620,1,4,1:2:0:0:
284,317,239901,1,0,1:2:0:0:
227,204,240182,1,0,1:2:0:0:
278,155,240370,5,6,1:2:0:0:
160,298,240651,1,6,1:2:0:0:
294,229,240932,1,6,1:2:0:0:
294,229,241870,6,0,P|246:170|74:62,1,280,4|4,3:0|3:0,0:0:0:0:
