osu file format v14

[General]
AudioFilename: audio.mp3
AudioLeadIn: 0
PreviewTime: 84276
Countdown: 0
SampleSet: Soft
StackLeniency: 0.9
Mode: 0
LetterboxInBreaks: 0
WidescreenStoryboard: 0

[Editor]
Bookmarks: 12370,24370,48370,60370,72370,84370,96370,108370,132370,144370,156370,168370,180370,192370,204370,216370,228370,240370,245245
DistanceSpacing: 0.8
BeatDivisor: 16
GridSize: 16
TimelineZoom: 2.4

[Metadata]
Title:G Free
TitleUnicode:G Free
Artist:ZUN
ArtistUnicode:ZUN
Creator:Halfslashed
Version:Extra Stage
Source:東方Project
Tags:touhou celestial wizardry ~ magical astronomy 大空魔術 ~ maribel hearn renko usami team shanghai alice illusionary band video game instrumental c70 マエリベリー・ハーン 宇佐見 蓮子 owc2022ffm3 luscent
BeatmapID:3880952
BeatmapSetID:1884924

[Difficulty]
HPDrainRate:5
CircleSize:5
OverallDifficulty:8
ApproachRate:8
SliderMultiplier:1.8
SliderTickRate:1

[Events]
//Background and Video events
0,0,"maribel renko bg 3.png",0,0
//Break Periods
2,84570,89620
2,192570,197620
//Storyboard Layer 0 (Background)
//Storyboard Layer 1 (Fail)
//Storyboard Layer 2 (Pass)
//Storyboard Layer 3 (Foreground)
//Storyboard Layer 4 (Overlay)
//Storyboard Sound Samples

[TimingPoints]
370,375,4,2,0,40,1,0
12370,-83.3333333333333,4,2,0,80,0,0
24370,-100,4,2,0,50,0,0
48370,-125,4,2,0,40,0,0
60370,-83.3333333333333,4,2,0,60,0,0
84370,-100,4,2,0,40,0,0
96370,-83.3333333333333,4,2,0,80,0,0
108370,-100,4,2,0,50,0,0
132370,-125,4,2,0,40,0,0
144370,-83.3333333333333,4,2,0,60,0,0
168370,-71.4285714285714,4,2,0,80,0,1
192370,-100,4,2,0,50,0,0
204370,-83.3333333333333,4,2,0,80,0,0
216370,-71.4285714285714,4,2,0,85,0,1
228370,-83.3333333333333,4,2,0,70,0,0
228376,-83.3333333333333,4,1,0,15,0,0
228932,-83.3333333333333,4,2,0,70,0,0
237370,-83.3333333333333,4,3,0,70,0,0
237932,-83.3333333333333,4,2,0,70,0,0
240370,-100,4,2,0,70,0,0
241870,-100,4,2,0,50,0,0
243370,-200,4,2,0,50,0,0

[Colours]
Combo1 : 255,234,149
Combo2 : 86,4,198
Combo3 : 252,20,119
Combo4 : 11,151,255

[HitObjects]
17,378,10870,5,4,0:3:0:0:
17,378,11245,1,4,0:3:0:0:
64,130,11620,1,8,3:0:0:0:
71,95,11713,1,8,3:0:0:0:
58,61,11807,1,8,3:0:0:0:
28,41,11901,1,8,3:0:0:0:
32,15,11995,1,0,1:0:0:0:
32,15,12088,1,0,1:0:0:0:
32,15,12182,1,0,1:0:0:0:
32,15,12276,1,0,1:0:0:0:
32,15,12370,5,4,3:1:0:0:
3,47,12463,1,0,3:0:0:0:
0,90,12557,1,0,1:0:0:0:
13,131,12651,1,0,3:0:0:0:
45,159,12745,1,4,3:0:0:0:
85,173,12838,1,0,3:0:0:0:
127,167,12932,1,0,1:0:0:0:
165,147,13026,1,0,3:0:0:0:
208,147,13120,1,4,3:0:0:0:
145,46,13307,1,0,1:0:0:0:
306,5,13495,1,4,3:0:0:0:
327,42,13588,1,0,3:0:0:0:
369,54,13682,1,0,1:0:0:0:
285,197,13870,6,0,P|268:255|267:351,1,107.999996704102,4|0,0:3|1:0,0:0:0:0:
506,101,14245,2,0,P|491:42|444:-41,1,107.999996704102,4|0,0:3|1:0,0:0:0:0:
377,214,14620,1,4,0:3:0:0:
511,326,14807,1,0,1:0:0:0:
486,346,14901,1,8,3:0:0:0:
391,360,15088,1,0,3:0:0:0:
375,297,15182,5,0,1:0:0:0:
412,291,15276,1,0,3:0:0:0:
443,270,15370,1,4,3:0:0:0:
453,233,15463,1,0,3:0:0:0:
447,195,15557,1,0,1:0:0:0:
422,165,15651,1,0,3:0:0:0:
384,161,15745,1,4,3:0:0:0:
350,176,15838,1,0,3:0:0:0:
328,206,15932,1,0,1:0:0:0:
292,219,16026,1,0,3:0:0:0:
255,208,16120,2,0,L|213:156,1,53.9999983520508,4|0,3:0|0:0,0:0:0:0:
228,128,16307,1,0,1:0:0:0:
183,248,16495,1,4,3:0:0:0:
204,285,16588,1,0,3:0:0:0:
245,295,16682,1,0,1:0:0:0:
105,384,16870,6,0,P|47:367|-49:366,1,107.999996704102,4|0,0:3|1:0,0:0:0:0:
0,98,17245,2,0,P|41:141|124:190,1,107.999996704102,4|0,0:3|1:0,0:0:0:0:
239,19,17620,1,4,0:3:0:0:
416,64,17807,1,0,1:0:0:0:
432,105,17901,1,8,3:0:0:0:
317,175,18088,1,8,3:0:0:0:
325,149,18182,1,0,1:0:0:0:
119,73,18370,5,4,3:0:0:0:
101,112,18463,1,0,3:0:0:0:
108,154,18557,1,0,1:0:0:0:
137,185,18651,1,0,3:0:0:0:
148,226,18745,1,4,3:0:0:0:
138,267,18838,1,0,3:0:0:0:
101,290,18932,1,8,1:3:0:0:
155,288,19026,1,8,3:0:0:0:
102,274,19120,1,12,3:0:0:0:
0,171,19307,1,0,1:0:0:0:
22,357,19495,1,4,3:0:0:0:
64,348,19588,1,0,3:0:0:0:
104,363,19682,1,0,1:0:0:0:
345,384,19870,6,0,P|403:369|487:322,1,107.999996704102,4|0,0:3|1:0,0:0:0:0:
512,85,20245,2,0,P|453:99|369:146,1,107.999996704102,4|0,0:3|1:0,0:0:0:0:
260,339,20620,1,4,0:3:0:0:
342,190,20807,1,0,1:0:0:0:
359,224,20901,1,8,3:0:0:0:
462,239,21088,1,0,3:0:0:0:
512,198,21182,5,0,1:0:0:0:
474,205,21276,1,0,3:0:0:0:
436,205,21370,1,4,3:0:0:0:
400,194,21463,1,0,3:0:0:0:
370,170,21557,1,0,1:0:0:0:
353,135,21651,1,0,3:0:0:0:
346,97,21745,1,4,3:0:0:0:
322,68,21838,1,0,3:0:0:0:
286,55,21932,1,0,1:0:0:0:
248,59,22026,1,0,3:0:0:0:
214,76,22120,2,0,L|194:126,1,53.9999983520508,4|0,3:0|0:0,0:0:0:0:
203,163,22307,1,0,1:0:0:0:
94,97,22495,1,4,3:0:0:0:
63,66,22588,1,0,3:0:0:0:
61,23,22682,1,0,1:0:0:0:
324,129,22870,5,4,1:2:0:0:
0,209,23151,1,4,1:2:0:0:
203,298,23432,1,4,1:2:0:0:
304,0,23620,5,0,1:0:0:0:
366,16,23713,1,0,1:0:0:0:
368,86,23807,1,0,1:0:0:0:
430,94,23901,1,0,1:0:0:0:
368,86,23995,1,0,1:0:0:0:
368,86,24182,1,0,1:0:0:0:
512,10,24370,6,0,P|477:49|466:116,1,90,4|0,0:1|1:0,0:0:0:0:
510,253,24745,1,4,3:3:0:0:
495,269,24838,1,0,3:0:0:0:
479,285,24932,1,0,1:0:0:0:
464,301,25026,1,0,3:0:0:0:
449,317,25120,2,0,P|414:277|403:210,1,90,4|0,3:3|1:0,0:0:0:0:
346,86,25495,1,4,3:3:0:0:
325,76,25588,1,0,3:0:0:0:
304,65,25682,1,0,1:0:0:0:
283,55,25776,1,0,3:0:0:0:
264,43,25870,6,0,P|223:61|178:63,1,90,4|0,3:3|1:0,0:0:0:0:
0,0,26245,1,4,0:3:0:0:
54,78,26432,1,0,1:0:0:0:
230,149,26620,1,4,0:3:0:0:
59,201,26807,1,0,1:0:0:0:
79,171,26901,1,0,3:0:0:0:
0,270,27088,1,0,3:0:0:0:
14,288,27182,6,0,P|42:253|-22:124,1,180,0|0,1:0|1:0,0:0:0:0:
5,135,27745,1,4,0:3:0:0:
102,325,27932,1,2,1:3:0:0:
221,288,28120,1,6,0:3:0:0:
211,331,28213,1,2,3:0:0:0:
318,226,28494,1,6,0:3:0:0:
318,226,28682,1,0,1:0:0:0:
295,384,28870,6,0,P|327:353|369:337,1,90,4|0,0:3|1:0,0:0:0:0:
512,307,29245,1,4,0:3:0:0:
512,307,29432,1,0,1:0:0:0:
452,58,29620,1,4,0:3:0:0:
491,120,29807,1,0,1:0:0:0:
405,0,29995,1,4,0:3:0:0:
253,14,30182,1,0,1:0:0:0:
158,156,30370,6,0,P|95:96|110:11,1,180,4|4,0:3|0:3,0:0:0:0:
155,0,30838,1,0,3:0:0:0:
155,0,30932,1,0,1:0:0:0:
165,44,31026,1,0,3:0:0:0:
192,8,31120,1,4,3:3:0:0:
0,123,31307,1,0,1:0:0:0:
44,276,31495,1,4,3:3:0:0:
31,310,31588,1,0,3:0:0:0:
19,344,31682,1,0,1:0:0:0:
61,165,31870,6,0,P|103:181|136:212,1,90,4|0,0:3|1:0,0:0:0:0:
274,381,32245,1,4,0:3:0:0:
187,371,32432,1,0,1:0:0:0:
340,350,32620,1,4,0:3:0:0:
377,233,32807,1,0,1:0:0:0:
402,242,32901,1,0,3:0:0:0:
475,315,33088,1,0,3:0:0:0:
506,282,33182,6,0,P|498:326|508:369,1,90,0|4,1:0|0:3,0:0:0:0:
508,369,33557,1,0,1:0:0:0:
508,369,33745,1,4,3:3:0:0:
477,369,33838,1,0,3:0:0:0:
453,347,33932,1,0,1:0:0:0:
439,318,34026,1,0,3:0:0:0:
409,306,34120,2,0,L|394:357,1,45,4|0,3:3|0:0,0:0:0:0:
388,384,34307,1,0,1:0:0:0:
266,313,34495,1,4,3:3:0:0:
250,281,34588,1,0,3:0:0:0:
252,244,34682,1,0,1:0:0:0:
500,32,34870,5,0,1:0:0:0:
337,237,35151,1,0,1:0:0:0:
435,0,35432,1,0,1:0:0:0:
121,116,35620,1,0,1:0:0:0:
78,101,35713,1,0,1:0:0:0:
35,84,35807,1,0,1:0:0:0:
1,71,35901,1,0,1:0:0:0:
1,71,35995,1,4,0:3:0:0:
121,116,36182,1,0,1:0:0:0:
235,0,36370,6,0,P|235:44|254:85,1,90,4|0,0:1|1:0,0:0:0:0:
444,97,36745,1,4,3:3:0:0:
476,81,36838,1,0,3:0:0:0:
512,87,36932,1,0,1:0:0:0:
487,55,37026,1,0,3:0:0:0:
487,55,37120,1,4,3:0:0:0:
266,152,37307,1,0,1:0:0:0:
226,145,37401,1,0,3:0:0:0:
203,178,37495,1,4,3:3:0:0:
103,17,37682,1,0,1:0:0:0:
0,174,37870,6,0,P|31:206|46:247,1,90,4|0,0:3|1:0,0:0:0:0:
211,382,38245,1,4,3:3:0:0:
199,349,38338,1,0,3:0:0:0:
190,314,38432,1,0,1:0:0:0:
213,286,38526,1,0,3:0:0:0:
234,257,38620,1,4,3:3:0:0:
119,330,38807,1,0,1:0:0:0:
94,318,38901,1,0,3:0:0:0:
274,350,39088,1,0,3:0:0:0:
303,384,39182,6,0,P|335:352|376:337,1,90,0|4,1:0|0:3,0:0:0:0:
510,267,39557,1,0,1:0:0:0:
510,267,39745,1,4,3:3:0:0:
477,254,39838,1,0,3:0:0:0:
506,232,39932,1,2,1:3:0:0:
436,167,40120,1,6,3:3:0:0:
423,191,40213,1,2,3:0:0:0:
311,267,40401,1,0,3:0:0:0:
338,283,40495,1,6,3:3:0:0:
301,115,40682,1,0,1:0:0:0:
292,80,40776,1,0,3:0:0:0:
306,46,40870,6,0,P|273:14|232:0,1,90,4|0,3:3|1:0,0:0:0:0:
0,93,41245,1,4,0:3:0:0:
40,183,41432,1,0,1:0:0:0:
279,207,41620,2,0,P|274:251|252:290,1,90,4|0,0:3|1:0,0:0:0:0:
175,323,41901,1,0,3:0:0:0:
205,333,41995,1,4,3:3:0:0:
15,384,42182,1,0,1:0:0:0:
0,351,42276,1,0,0:0:0:0:
0,315,42370,6,0,P|26:278|64:255,1,90,4|0,3:3|1:0,0:0:0:0:
215,154,42745,1,4,3:3:0:0:
182,138,42838,1,0,3:0:0:0:
165,106,42932,1,8,1:3:0:0:
145,156,43026,1,8,3:0:0:0:
185,120,43120,1,12,3:3:0:0:
313,5,43307,1,0,1:0:0:0:
341,28,43401,1,0,3:0:0:0:
377,28,43495,1,4,3:3:0:0:
507,11,43682,1,0,1:0:0:0:
335,162,43870,6,0,P|316:202|315:247,1,90,4|0,0:3|1:0,0:0:0:0:
512,384,44245,1,4,3:3:0:0:
485,360,44338,1,0,3:0:0:0:
461,333,44432,1,0,1:0:0:0:
469,298,44526,1,0,3:0:0:0:
477,262,44620,1,4,3:3:0:0:
494,129,44807,1,0,1:0:0:0:
472,145,44901,1,0,3:0:0:0:
395,331,45088,1,0,3:0:0:0:
354,304,45182,6,0,P|327:340|289:363,1,90,0|4,1:0|0:3,0:0:0:0:
124,384,45557,1,0,1:0:0:0:
124,384,45745,1,4,3:3:0:0:
84,364,45838,1,0,3:0:0:0:
124,340,45932,1,2,1:3:0:0:
4,263,46120,1,6,3:3:0:0:
11,289,46213,1,2,3:0:0:0:
135,188,46401,1,0,3:0:0:0:
106,176,46495,1,6,3:3:0:0:
35,27,46682,1,0,1:0:0:0:
66,8,46776,1,0,3:0:0:0:
101,18,46870,5,0,1:0:0:0:
83,59,46963,1,0,1:0:0:0:
66,101,47057,1,0,1:0:0:0:
50,143,47151,1,0,1:0:0:0:
8,160,47245,1,8,3:0:0:0:
16,139,47338,1,8,3:0:0:0:
25,118,47432,1,8,3:0:0:0:
34,97,47526,1,8,3:0:0:0:
44,75,47620,5,0,1:0:0:0:
95,91,47713,1,0,1:0:0:0:
146,108,47807,1,0,1:0:0:0:
197,125,47901,1,0,1:0:0:0:
163,89,47995,1,0,1:0:0:0:
374,172,48182,1,0,1:0:0:0:
134,49,48370,6,0,P|149:14|250:3,1,144,4|0,1:0|0:0,0:0:0:0:
345,146,48932,2,0,L|360:68,1,72,2|0,3:0|1:0,0:0:0:0:
505,7,49307,1,0,3:0:0:0:
505,7,49401,1,0,3:0:0:0:
505,7,49495,1,0,3:0:0:0:
481,177,49682,1,0,1:0:0:0:
414,213,49870,2,0,P|443:275|512:284,1,144,4|0,3:0|0:0,0:0:0:0:
27,367,50620,1,0,1:0:0:0:
191,381,50901,1,0,1:0:0:0:
161,356,50995,1,0,3:0:0:0:
161,356,51182,6,0,P|164:322|184:282,1,72,0|4,1:0|0:3,0:0:0:0:
289,268,51745,1,4,0:3:0:0:
149,145,51932,1,2,3:0:0:0:
4,20,52120,1,0,3:0:0:0:
25,88,52307,1,0,3:0:0:0:
25,88,52401,1,0,3:0:0:0:
25,88,52495,1,0,3:0:0:0:
163,74,52682,1,0,1:0:0:0:
268,0,52870,2,0,P|307:56|280:120,1,144,4|0,3:0|0:0,0:0:0:0:
11,227,53620,1,0,1:0:0:0:
2,299,53807,1,0,1:0:0:0:
2,299,53901,1,0,1:0:0:0:
2,299,53995,1,4,0:3:0:0:
172,219,54182,6,0,P|145:199|120:162,1,72,0|4,1:0|0:3,0:0:0:0:
146,327,54745,1,4,0:3:0:0:
332,314,54932,2,0,L|317:392,1,72,2|0,3:0|3:0,0:0:0:0:
503,332,55307,1,0,3:0:0:0:
503,332,55401,1,0,3:0:0:0:
503,332,55495,1,0,3:0:0:0:
423,164,55682,1,0,1:0:0:0:
491,122,55870,2,0,P|438:78|448:9,1,144,4|4,0:3|0:3,0:0:0:0:
0,51,56620,1,0,3:0:0:0:
62,239,56807,1,0,3:0:0:0:
62,239,56901,1,0,3:0:0:0:
62,239,56995,1,0,3:0:0:0:
62,239,57182,6,0,P|58:272|38:312,1,72,0|4,1:0|0:3,0:0:0:0:
207,372,57745,1,4,0:3:0:0:
234,220,57933,1,2,3:0:0:0:
262,66,58120,1,0,3:0:0:0:
345,126,58307,1,0,3:0:0:0:
345,126,58401,1,0,3:0:0:0:
345,126,58495,1,0,1:0:0:0:
306,129,58588,1,0,1:0:0:0:
266,133,58682,1,0,1:0:0:0:
227,135,58776,1,0,1:0:0:0:
187,138,58870,6,0,L|180:90,3,36,4|0|0|0,3:0|0:0|0:0|0:0,0:0:0:0:
73,0,59245,1,0,1:0:0:0:
89,44,59338,1,0,1:0:0:0:
79,90,59432,1,0,1:0:0:0:
47,125,59526,1,0,1:0:0:0:
0,131,59620,1,4,3:0:0:0:
122,152,59807,1,4,3:0:0:0:
0,131,59995,5,0,1:0:0:0:
2,195,60088,1,0,1:0:0:0:
66,191,60182,1,0,1:0:0:0:
107,241,60276,1,0,1:0:0:0:
63,287,60370,6,0,P|31:308|-9:370,1,107.999996704102,4|0,3:2|1:0,0:0:0:0:
250,384,60745,1,4,0:3:0:0:
256,358,60838,1,0,3:0:0:0:
250,331,60932,1,8,1:3:0:0:
202,306,61026,1,8,3:0:0:0:
252,284,61120,1,12,3:3:0:0:
339,384,61307,1,0,1:0:0:0:
434,127,61495,1,4,3:3:0:0:
472,165,61588,1,0,3:0:0:0:
512,201,61682,1,0,1:0:0:0:
460,216,61776,1,0,3:0:0:0:
407,230,61870,6,0,P|381:201|358:131,1,107.999996704102,4|0,0:3|1:0,0:0:0:0:
210,0,62245,2,0,P|197:36|148:91,1,107.999996704102,4|0,0:3|1:0,0:0:0:0:
28,197,62620,1,4,0:3:0:0:
0,35,62807,1,0,1:0:0:0:
26,0,62901,2,0,P|52:46|58:100,1,107.999996704102,0|0,3:0|0:0,0:0:0:0:
8,157,63182,5,0,1:0:0:0:
60,171,63276,1,0,3:0:0:0:
111,188,63370,2,0,L|228:143,1,107.999996704102,4|0,3:3|1:0,0:0:0:0:
343,5,63745,1,4,3:3:0:0:
360,32,63838,1,0,3:0:0:0:
388,16,63932,1,0,1:0:0:0:
400,46,64026,1,0,3:0:0:0:
426,27,64120,2,0,L|479:45,1,53.9999983520508,6|0,3:3|0:0,0:0:0:0:
511,18,64307,1,0,1:0:0:0:
438,205,64495,1,6,3:3:0:0:
398,190,64588,1,0,3:0:0:0:
357,176,64682,1,0,1:0:0:0:
321,201,64776,1,0,3:0:0:0:
289,230,64870,5,4,0:3:0:0:
377,253,65057,1,0,1:0:0:0:
512,384,65245,2,0,P|458:377|411:351,1,107.999996704102,4|0,0:3|1:0,0:0:0:0:
239,186,65620,1,4,3:3:0:0:
223,237,65713,1,0,3:0:0:0:
214,293,65807,1,0,1:0:0:0:
196,342,65901,1,0,3:0:0:0:
214,293,65995,1,4,3:3:0:0:
126,85,66182,1,0,1:0:0:0:
135,0,66370,6,0,P|81:6|34:32,1,107.999996704102,4|0,0:3|1:0,0:0:0:0:
0,200,66745,1,4,3:3:0:0:
26,198,66838,1,0,3:0:0:0:
49,182,66932,1,8,1:3:0:0:
57,129,67026,1,8,3:0:0:0:
96,166,67120,1,12,3:3:0:0:
1,298,67307,1,0,1:0:0:0:
184,384,67495,1,4,3:3:0:0:
220,372,67588,1,0,3:0:0:0:
257,362,67682,1,0,1:0:0:0:
223,345,67776,1,0,3:0:0:0:
189,328,67870,6,0,P|167:278|167:225,1,107.999996704102,4|0,3:3|1:0,0:0:0:0:
262,2,68245,1,4,3:3:0:0:
236,49,68338,1,0,3:0:0:0:
278,82,68432,1,0,1:0:0:0:
135,0,68620,1,4,0:3:0:0:
0,117,68807,2,0,P|31:160|78:187,1,107.999996704102,0|4,1:0|0:3,0:0:0:0:
273,148,69182,1,0,1:0:0:0:
314,161,69276,1,0,3:0:0:0:
354,177,69370,6,0,L|373:300,1,107.999996704102,4|0,0:3|1:0,0:0:0:0:
512,356,69745,1,4,3:3:0:0:
487,366,69838,1,0,3:0:0:0:
462,376,69932,1,2,1:3:0:0:
436,384,70026,2,0,L|454:331,1,53.9999983520508,2|4,3:0|0:3,0:0:0:0:
447,301,70213,1,2,3:0:0:0:
435,271,70307,1,0,1:0:0:0:
452,174,70495,2,0,L|435:122,1,53.9999983520508,6|0,3:0|0:0,0:0:0:0:
444,91,70682,1,0,1:0:0:0:
500,53,70776,1,0,3:0:0:0:
440,24,70870,6,0,P|386:17|339:-8,1,107.999996704102,4|0,0:3|1:0,0:0:0:0:
136,162,71245,1,4,3:3:0:0:
163,157,71338,1,0,3:0:0:0:
190,152,71432,1,0,1:0:0:0:
217,147,71526,1,0,3:0:0:0:
243,142,71620,5,0,1:0:0:0:
291,185,71713,1,0,1:0:0:0:
251,236,71807,1,0,1:0:0:0:
209,285,71901,1,0,1:0:0:0:
256,342,71995,1,0,1:0:0:0:
256,342,72182,1,0,1:0:0:0:
256,342,72370,5,4,3:2:0:0:
509,253,72557,1,0,1:0:0:0:
387,297,72745,1,4,0:3:0:0:
100,384,72932,1,0,1:0:0:0:
140,347,73026,1,0,3:0:0:0:
86,341,73120,1,4,3:3:0:0:
44,172,73307,1,0,1:0:0:0:
0,0,73495,1,4,0:3:0:0:
44,172,73682,1,0,1:0:0:0:
50,193,73776,1,0,3:0:0:0:
57,213,73870,5,4,1:3:0:0:
51,247,73963,1,0,3:0:0:0:
40,283,74057,1,0,1:0:0:0:
27,324,74151,1,0,3:0:0:0:
10,367,74245,1,4,1:3:0:0:
27,324,74338,1,0,3:0:0:0:
40,283,74432,1,0,1:0:0:0:
51,247,74526,1,0,3:0:0:0:
57,213,74620,1,4,1:3:0:0:
79,228,74713,1,0,3:0:0:0:
97,208,74807,1,0,1:0:0:0:
127,228,74901,1,0,3:0:0:0:
142,204,74995,1,4,1:3:0:0:
142,204,75088,1,0,3:0:0:0:
127,228,75182,1,0,1:0:0:0:
127,228,75276,1,0,3:0:0:0:
112,172,75370,5,0,1:0:0:0:
0,25,75651,1,0,1:0:0:0:
192,0,75932,1,0,1:0:0:0:
192,0,76120,1,4,1:3:0:0:
171,24,76213,1,0,3:0:0:0:
148,47,76307,1,0,1:0:0:0:
201,59,76401,1,0,3:0:0:0:
253,72,76495,1,4,1:3:0:0:
279,131,76588,1,0,3:0:0:0:
307,190,76682,1,0,1:0:0:0:
359,151,76776,1,0,3:0:0:0:
388,210,76870,5,2,1:3:0:0:
374,262,76963,1,0,3:0:0:0:
364,304,77057,1,0,3:0:0:0:
395,314,77151,5,2,3:3:0:0:
409,262,77244,1,0,3:0:0:0:
419,220,77338,1,0,3:0:0:0:
481,238,77432,5,2,1:3:0:0:
263,44,77620,5,0,1:0:0:0:
326,32,77713,1,0,1:0:0:0:
390,21,77807,1,0,1:0:0:0:
454,10,77901,2,0,L|536:-6,1,53.9999983520508,0|0,1:0|0:0,0:0:0:0:
454,10,78182,1,0,1:0:0:0:
390,21,78276,1,0,3:0:0:0:
429,73,78370,6,0,P|462:115|507:143,1,107.999996704102,4|0,0:3|1:0,0:0:0:0:
511,361,78745,1,4,0:3:0:0:
492,342,78838,1,0,3:0:0:0:
465,339,78932,1,8,1:3:0:0:
415,360,79026,1,8,3:0:0:0:
426,310,79120,1,12,3:3:0:0:
426,310,79307,1,0,1:0:0:0:
267,262,79495,1,4,0:3:0:0:
330,0,79682,1,0,1:0:0:0:
252,0,79870,6,0,P|198:7|151:32,1,107.999996704102,4|0,0:3|1:0,0:0:0:0:
13,217,80245,1,4,0:3:0:0:
43,205,80338,1,0,3:0:0:0:
19,184,80432,1,0,1:0:0:0:
49,172,80526,1,0,3:0:0:0:
28,147,80620,1,4,0:3:0:0:
2,41,80807,1,2,1:3:0:0:
39,21,80901,1,2,3:0:0:0:
79,3,80995,1,4,0:3:0:0:
2,41,81182,1,2,1:3:0:0:
163,170,81370,6,0,P|195:126|210:76,1,107.999996704102,4|0,0:3|1:0,0:0:0:0:
285,240,81745,1,4,0:3:0:0:
285,240,81838,1,0,3:0:0:0:
285,240,81932,1,0,1:0:0:0:
285,240,82026,1,0,3:0:0:0:
285,240,82120,1,4,1:3:0:0:
232,248,82213,1,0,1:0:0:0:
179,259,82307,1,0,1:0:0:0:
126,269,82401,1,0,1:0:0:0:
73,280,82495,2,0,L|66:335,3,53.9999983520508,4|0|0|0,3:3|0:0|0:0|0:0,0:0:0:0:
65,369,82870,5,4,0:3:0:0:
65,369,82963,1,4,0:3:0:0:
65,369,83057,1,4,3:3:0:0:
31,342,83151,1,4,3:3:0:0:
2,310,83245,1,0,1:0:0:0:
56,317,83338,1,0,1:0:0:0:
109,325,83432,1,0,1:0:0:0:
162,335,83526,1,0,1:0:0:0:
189,382,83620,5,0,1:0:0:0:
197,318,83713,1,0,1:0:0:0:
206,253,83807,1,0,1:0:0:0:
213,189,83901,1,0,1:0:0:0:
267,152,83995,1,0,1:0:0:0:
273,215,84088,1,0,1:0:0:0:
283,280,84182,1,0,1:0:0:0:
289,344,84276,1,0,1:0:0:0:
285,311,84370,5,2,0:0:0:0:
492,374,90370,5,4,0:3:0:0:
366,351,91120,1,4,0:3:0:0:
235,324,91870,1,4,0:3:0:0:
68,367,92620,1,4,0:3:0:0:
99,96,93182,5,4,0:3:0:0:
202,121,94120,1,4,0:3:0:0:
0,192,94870,5,4,0:3:0:0:
0,192,95245,1,4,0:3:0:0:
288,150,95620,1,8,3:0:0:0:
321,137,95713,1,8,3:0:0:0:
341,107,95807,1,8,3:0:0:0:
345,71,95901,1,8,3:0:0:0:
383,58,95995,1,0,1:0:0:0:
383,58,96088,1,0,1:0:0:0:
383,58,96182,1,0,1:0:0:0:
383,58,96276,1,0,1:0:0:0:
383,58,96370,5,4,3:1:0:0:
340,58,96463,1,0,3:0:0:0:
315,93,96557,1,0,1:0:0:0:
310,136,96651,1,0,3:0:0:0:
331,173,96745,1,4,3:0:0:0:
371,187,96838,1,0,3:0:0:0:
401,218,96932,1,0,1:0:0:0:
401,261,97026,1,0,3:0:0:0:
373,294,97120,1,4,3:0:0:0:
501,295,97307,1,0,1:0:0:0:
330,376,97495,1,4,3:0:0:0:
293,354,97588,1,0,3:0:0:0:
249,359,97682,1,0,1:0:0:0:
61,275,97870,6,0,P|82:225|119:186,1,107.999996704102,4|0,0:3|1:0,0:0:0:0:
95,0,98245,2,0,P|51:31|0:47,1,107.999996704102,4|0,0:3|1:0,0:0:0:0:
263,29,98620,1,4,0:3:0:0:
103,94,98807,1,0,1:0:0:0:
124,119,98901,1,8,3:0:0:0:
79,208,99088,1,0,3:0:0:0:
34,255,99182,5,0,1:0:0:0:
63,278,99276,1,0,3:0:0:0:
100,280,99370,1,4,3:0:0:0:
134,264,99463,1,0,3:0:0:0:
171,266,99557,1,0,1:0:0:0:
201,287,99651,1,0,3:0:0:0:
210,323,99745,1,4,3:0:0:0:
197,358,99838,1,0,3:0:0:0:
162,373,99932,1,0,1:0:0:0:
127,357,100026,1,0,3:0:0:0:
89,359,100120,2,0,L|33:380,1,53.9999983520508,4|0,3:0|0:0,0:0:0:0:
4,361,100307,1,0,1:0:0:0:
0,230,100495,1,4,3:0:0:0:
34,255,100588,1,0,3:0:0:0:
39,297,100682,1,0,1:0:0:0:
270,256,100870,6,0,P|311:222|339:176,1,107.999996704102,4|0,0:3|1:0,0:0:0:0:
193,0,101245,2,0,P|173:50|172:103,1,107.999996704102,4|0,0:3|1:0,0:0:0:0:
222,324,101620,1,4,0:3:0:0:
407,216,101807,1,0,1:0:0:0:
437,247,101901,1,8,3:0:0:0:
338,358,102088,1,8,3:0:0:0:
343,384,102182,1,0,1:0:0:0:
503,285,102370,5,4,3:0:0:0:
512,243,102463,1,0,3:0:0:0:
504,200,102557,1,0,1:0:0:0:
477,165,102651,1,0,3:0:0:0:
436,150,102745,1,4,3:0:0:0:
393,150,102838,1,0,3:0:0:0:
354,169,102932,1,8,1:3:0:0:
365,115,103026,1,8,3:0:0:0:
379,167,103120,1,12,3:0:0:0:
509,75,103307,1,0,1:0:0:0:
320,0,103495,1,4,3:0:0:0:
308,41,103588,1,0,3:0:0:0:
270,63,103682,1,0,1:0:0:0:
303,271,103870,6,0,P|261:237|233:191,1,107.999996704102,4|0,0:3|1:0,0:0:0:0:
109,0,104245,2,0,P|128:50|129:103,1,107.999996704102,4|0,0:3|1:0,0:0:0:0:
6,272,104620,1,4,0:3:0:0:
158,240,104807,1,0,1:0:0:0:
194,253,104901,1,8,3:0:0:0:
249,343,105088,1,0,3:0:0:0:
306,375,105182,5,0,1:0:0:0:
323,342,105276,1,0,3:0:0:0:
355,323,105370,1,4,3:0:0:0:
392,318,105463,1,0,3:0:0:0:
428,327,105557,1,0,1:0:0:0:
457,351,105651,1,0,3:0:0:0:
493,342,105745,1,4,3:0:0:0:
512,310,105838,1,0,3:0:0:0:
505,273,105932,1,0,1:0:0:0:
468,250,106026,1,0,3:0:0:0:
425,258,106120,2,0,L|400:189,1,53.9999983520508,4|0,3:0|0:0,0:0:0:0:
392,166,106307,1,0,1:0:0:0:
266,278,106494,1,4,3:0:0:0:
301,253,106588,1,0,3:0:0:0:
300,209,106682,1,0,1:0:0:0:
6,247,106870,5,4,1:2:0:0:
239,338,107151,1,4,1:2:0:0:
57,383,107432,1,4,1:2:0:0:
1,148,107620,5,0,1:0:0:0:
41,96,107713,1,0,1:0:0:0:
5,53,107807,1,0,1:0:0:0:
44,0,107901,1,0,1:0:0:0:
5,53,107995,1,0,1:0:0:0:
5,53,108182,1,0,1:0:0:0:
191,66,108370,6,0,P|249:39|293:-1,1,90,4|0,0:1|1:0,0:0:0:0:
506,113,108745,1,4,3:3:0:0:
484,117,108838,1,0,3:0:0:0:
462,121,108932,1,0,1:0:0:0:
440,126,109026,1,0,3:0:0:0:
418,131,109120,2,0,P|381:183|363:240,1,90,4|0,3:3|1:0,0:0:0:0:
257,384,109495,1,4,3:3:0:0:
251,363,109588,1,0,3:0:0:0:
243,342,109682,1,0,1:0:0:0:
235,321,109776,1,0,3:0:0:0:
229,299,109870,6,0,P|200:333|164:360,1,90,4|0,3:3|1:0,0:0:0:0:
0,290,110245,1,4,0:3:0:0:
27,198,110432,1,0,1:0:0:0:
1,19,110620,1,4,0:3:0:0:
137,130,110807,1,0,1:0:0:0:
126,95,110901,1,0,3:0:0:0:
249,104,111088,1,0,3:0:0:0:
267,90,111182,6,0,P|229:50|80:41,1,180,0|0,1:0|1:0,0:0:0:0:
110,28,111745,1,4,0:3:0:0:
221,211,111932,1,2,1:3:0:0:
74,267,112120,1,6,0:3:0:0:
118,275,112213,1,2,3:0:0:0:
11,165,112495,1,6,0:3:0:0:
11,165,112682,1,0,1:0:0:0:
0,384,112870,6,0,P|42:368|86:363,1,90,4|0,0:3|1:0,0:0:0:0:
219,280,113245,1,4,0:3:0:0:
219,280,113432,1,0,1:0:0:0:
429,384,113620,1,4,0:3:0:0:
356,381,113807,1,0,1:0:0:0:
475,335,113995,1,4,0:3:0:0:
512,173,114182,1,0,1:0:0:0:
467,8,114370,6,0,P|454:61|329:143,1,180,4|4,0:3|0:3,0:0:0:0:
324,124,114838,1,0,3:0:0:0:
324,124,114932,1,0,1:0:0:0:
337,81,115026,1,0,3:0:0:0:
293,92,115120,1,4,3:3:0:0:
512,129,115307,1,0,1:0:0:0:
341,216,115495,1,4,3:3:0:0:
308,229,115588,1,0,3:0:0:0:
275,243,115682,1,0,1:0:0:0:
470,234,115870,6,0,P|495:270|512:312,1,90,4|0,0:3|1:0,0:0:0:0:
243,135,116245,1,4,0:3:0:0:
275,45,116432,1,0,1:0:0:0:
156,167,116620,1,4,0:3:0:0:
220,281,116807,1,0,1:0:0:0:
229,307,116901,1,0,3:0:0:0:
172,384,117088,1,0,3:0:0:0:
162,342,117182,6,0,P|118:334|77:316,1,90,0|4,1:0|0:3,0:0:0:0:
77,316,117557,1,0,1:0:0:0:
76,316,117745,1,4,3:3:0:0:
79,347,117838,1,0,3:0:0:0:
56,369,117932,1,0,1:0:0:0:
25,361,118026,1,0,3:0:0:0:
9,333,118120,2,0,L|26:279,1,45,4|0,3:3|0:0,0:0:0:0:
10,256,118307,1,0,1:0:0:0:
57,77,118495,1,4,3:3:0:0:
34,103,118589,1,0,3:0:0:0:
0,113,118682,1,0,1:0:0:0:
140,3,118870,5,0,1:0:0:0:
452,60,119151,1,0,1:0:0:0:
146,73,119432,1,0,1:0:0:0:
389,284,119620,1,0,1:0:0:0:
422,308,119713,1,0,1:0:0:0:
458,336,119807,1,0,1:0:0:0:
495,363,119901,1,0,1:0:0:0:
495,363,119995,1,4,0:3:0:0:
389,284,120182,1,0,1:0:0:0:
258,364,120370,6,0,P|216:378|171:384,1,90,4|0,0:1|1:0,0:0:0:0:
45,256,120745,1,4,3:3:0:0:
58,222,120838,1,0,3:0:0:0:
91,208,120932,1,0,1:0:0:0:
51,198,121026,1,0,3:0:0:0:
51,198,121120,1,4,3:0:0:0:
203,243,121307,1,0,1:0:0:0:
240,241,121401,1,0,3:0:0:0:
266,216,121495,1,4,3:3:0:0:
163,51,121682,1,0,1:0:0:0:
359,0,121870,6,0,P|384:35|400:77,1,90,4|0,0:3|1:0,0:0:0:0:
358,277,122245,1,4,3:3:0:0:
322,286,122338,1,0,3:0:0:0:
289,298,122432,1,0,1:0:0:0:
278,332,122526,1,0,3:0:0:0:
269,367,122620,1,4,3:3:0:0:
447,300,122807,1,0,1:0:0:0:
472,311,122901,1,0,3:0:0:0:
512,176,123088,1,0,3:0:0:0:
494,134,123182,6,0,P|458:159|416:175,1,90,0|4,1:0|0:3,0:0:0:0:
244,98,123557,1,0,1:0:0:0:
244,98,123745,1,4,3:3:0:0:
217,75,123838,1,0,3:0:0:0:
251,63,123932,1,2,1:3:0:0:
156,12,124120,1,6,3:3:0:0:
131,22,124213,1,2,3:0:0:0:
4,54,124401,1,0,3:0:0:0:
15,24,124495,1,6,3:3:0:0:
0,213,124682,1,0,1:0:0:0:
34,224,124776,1,0,3:0:0:0:
67,209,124870,6,0,P|102:183|144:167,1,90,4|0,3:3|1:0,0:0:0:0:
308,254,125245,1,4,0:3:0:0:
277,344,125432,1,0,1:0:0:0:
41,384,125620,2,0,P|58:342|66:298,1,90,4|0,0:3|1:0,0:0:0:0:
34,224,125901,1,0,3:0:0:0:
40,243,125995,1,4,3:3:0:0:
89,108,126182,1,0,1:0:0:0:
124,104,126276,1,0,3:0:0:0:
164,126,126370,6,0,P|205:140|250:146,1,90,4|0,3:3|1:0,0:0:0:0:
472,123,126745,1,4,3:3:0:0:
482,157,126838,1,0,3:0:0:0:
461,186,126932,1,8,1:3:0:0:
512,169,127026,1,8,3:0:0:0:
458,172,127120,1,12,3:3:0:0:
305,242,127307,1,0,1:0:0:0:
316,277,127401,1,0,0:0:0:0:
348,294,127495,1,4,3:3:0:0:
484,305,127682,1,0,1:0:0:0:
272,384,127870,6,0,P|246:348|230:306,1,90,4|0,0:3|1:0,0:0:0:0:
333,161,128245,1,4,3:3:0:0:
341,125,128338,1,0,3:0:0:0:
347,90,128432,1,0,1:0:0:0:
324,64,128526,1,0,3:0:0:0:
298,38,128620,1,4,3:3:0:0:
428,2,128807,1,0,1:0:0:0:
420,28,128901,1,0,3:0:0:0:
231,39,129088,1,0,3:0:0:0:
196,11,129182,6,0,P|154:28|110:36,1,90,0|4,1:0|0:3,0:0:0:0:
6,198,129557,1,0,1:0:0:0:
6,198,129745,1,4,3:3:0:0:
39,185,129838,1,0,0:0:0:0:
11,163,129932,1,2,1:3:0:0:
119,102,130120,1,6,3:3:0:0:
144,111,130213,1,2,3:0:0:0:
201,250,130401,1,0,3:0:0:0:
172,263,130495,1,6,3:3:0:0:
263,139,130682,1,0,1:0:0:0:
286,167,130776,1,0,3:0:0:0:
277,202,130870,5,0,1:0:0:0:
233,194,130963,1,0,1:0:0:0:
189,185,131057,1,0,1:0:0:0:
145,174,131151,1,0,1:0:0:0:
109,201,131245,1,8,3:0:0:0:
131,206,131338,1,8,3:0:0:0:
153,211,131432,1,8,3:0:0:0:
175,216,131526,1,8,3:0:0:0:
197,221,131620,5,0,1:0:0:0:
207,273,131713,1,0,1:0:0:0:
219,326,131807,1,0,1:0:0:0:
232,379,131901,1,0,1:0:0:0:
257,331,131995,1,0,1:0:0:0:
512,384,132182,1,0,1:0:0:0:
279,285,132370,6,0,P|345:243|415:266,1,144,4|0,1:0|0:0,0:0:0:0:
512,105,132932,2,0,L|485:7,1,72,2|0,3:0|1:0,0:0:0:0:
340,5,133307,1,0,3:0:0:0:
340,5,133401,1,0,3:0:0:0:
340,5,133495,1,0,3:0:0:0:
408,146,133682,1,0,1:0:0:0:
213,133,133870,2,0,P|142:96|128:25,1,144,4|0,3:0|0:0,0:0:0:0:
125,380,134620,1,0,1:0:0:0:
0,275,134901,1,0,1:0:0:0:
31,257,134995,1,0,3:0:0:0:
31,257,135182,6,0,P|40:287|36:342,1,72,0|4,1:0|0:3,0:0:0:0:
0,168,135745,1,4,0:3:0:0:
169,243,135932,1,2,3:0:0:0:
344,320,136120,1,0,3:0:0:0:
278,352,136307,1,0,3:0:0:0:
278,352,136401,1,0,3:0:0:0:
278,352,136495,1,0,3:0:0:0:
356,252,136682,1,0,1:0:0:0:
512,287,136870,2,0,P|447:315|425:381,1,144,4|0,3:0|0:0,0:0:0:0:
173,75,137620,1,0,1:0:0:0:
221,25,137807,1,0,1:0:0:0:
221,25,137901,1,0,1:0:0:0:
221,25,137995,1,4,0:3:0:0:
417,2,138182,6,0,P|447:21|482:28,1,72,0|4,1:0|0:3,0:0:0:0:
340,56,138745,1,4,0:3:0:0:
508,150,138932,2,0,L|488:219,1,72,2|0,3:0|3:0,0:0:0:0:
297,241,139307,1,0,3:0:0:0:
297,241,139401,1,0,3:0:0:0:
297,241,139495,1,0,3:0:0:0:
177,85,139682,1,0,1:0:0:0:
239,38,139870,2,0,P|169:45|116:-1,1,144,4|4,0:3|0:3,0:0:0:0:
5,324,140620,1,0,3:0:0:0:
199,362,140807,1,0,3:0:0:0:
199,362,140901,1,0,3:0:0:0:
199,362,140995,1,0,3:0:0:0:
199,362,141182,6,0,P|233:354|264:334,1,72,0|4,1:0|0:3,0:0:0:0:
366,264,141745,1,4,0:3:0:0:
194,246,141932,1,2,3:0:0:0:
31,229,142120,1,0,3:0:0:0:
1,144,142307,1,0,3:0:0:0:
1,144,142401,1,0,3:0:0:0:
1,144,142495,1,0,1:0:0:0:
40,149,142588,1,0,1:0:0:0:
79,154,142682,1,0,1:0:0:0:
118,162,142776,1,0,1:0:0:0:
157,167,142870,6,0,L|170:111,3,36,4|0|0|0,3:0|0:0|0:0|0:0,0:0:0:0:
145,89,143245,1,0,1:0:0:0:
185,65,143338,1,0,1:0:0:0:
231,72,143432,1,0,1:0:0:0:
264,106,143526,1,0,1:0:0:0:
268,153,143620,1,4,3:0:0:0:
351,55,143807,1,4,3:0:0:0:
268,153,143995,5,0,1:0:0:0:
305,206,144088,1,0,1:0:0:0:
355,165,144182,1,0,1:0:0:0:
402,210,144276,1,0,1:0:0:0:
371,267,144370,6,0,P|360:323|386:388,1,107.999996704102,4|0,3:2|1:0,0:0:0:0:
512,171,144745,1,4,0:3:0:0:
484,170,144838,1,0,3:0:0:0:
461,155,144932,1,8,1:3:0:0:
488,109,145026,1,8,3:0:0:0:
434,110,145120,1,12,3:3:0:0:
375,0,145307,1,0,1:0:0:0:
194,115,145495,1,4,3:3:0:0:
144,134,145588,1,0,3:0:0:0:
94,155,145682,1,0,1:0:0:0:
103,102,145776,1,0,3:0:0:0:
115,49,145870,6,0,P|71:11|2:1,1,107.999996704102,4|0,0:3|1:0,0:0:0:0:
43,200,146245,2,0,P|86:237|155:247,1,107.999996704102,4|0,0:3|1:0,0:0:0:0:
321,258,146620,1,4,0:3:0:0:
210,381,146807,1,0,1:0:0:0:
183,347,146901,2,0,P|129:346|81:370,1,107.999996704102,0|0,3:0|0:0,0:0:0:0:
12,384,147182,5,0,1:0:0:0:
22,331,147276,1,0,3:0:0:0:
33,278,147370,2,0,L|13:170,1,107.999996704102,4|0,3:3|1:0,0:0:0:0:
218,6,147745,1,4,3:3:0:0:
187,16,147838,1,0,3:0:0:0:
212,37,147932,1,0,1:0:0:0:
180,48,148026,1,0,3:0:0:0:
207,66,148120,2,0,L|196:123,1,53.9999983520508,6|0,3:3|0:0,0:0:0:0:
230,147,148307,1,0,1:0:0:0:
384,276,148495,1,6,3:3:0:0:
367,236,148588,1,0,3:0:0:0:
353,195,148682,1,0,1:0:0:0:
383,164,148776,1,0,3:0:0:0:
417,136,148870,5,4,0:3:0:0:
491,206,149057,1,0,1:0:0:0:
337,378,149245,2,0,P|320:327|282:289,1,107.999996704102,4|0,0:3|1:0,0:0:0:0:
262,47,149620,1,4,3:3:0:0:
315,56,149713,1,0,3:0:0:0:
368,66,149807,1,0,1:0:0:0:
421,72,149901,1,0,3:0:0:0:
368,66,149995,1,4,3:3:0:0:
191,212,150182,1,0,1:0:0:0:
213,296,150370,6,0,P|196:346|158:384,1,107.999996704102,4|0,0:3|1:0,0:0:0:0:
6,319,150745,1,4,3:3:0:0:
11,292,150838,1,0,3:0:0:0:
28,271,150932,1,8,1:3:0:0:
81,264,151026,1,8,3:0:0:0:
47,222,151120,1,12,3:3:0:0:
0,112,151307,1,0,1:0:0:0:
245,49,151495,1,4,3:3:0:0:
280,35,151588,1,0,3:0:0:0:
315,21,151682,1,0,1:0:0:0:
279,8,151776,1,0,3:0:0:0:
242,0,151870,6,0,P|191:16|153:54,1,107.999996704102,4|0,3:3|1:0,0:0:0:0:
351,142,152245,1,4,3:3:0:0:
321,187,152338,1,0,3:0:0:0:
357,227,152432,1,0,1:0:0:0:
252,384,152620,1,4,0:3:0:0:
413,338,152807,2,0,P|466:340|512:368,1,107.999996704102,0|4,1:0|0:3,0:0:0:0:
275,280,153182,1,0,1:0:0:0:
234,265,153276,1,0,3:0:0:0:
194,248,153370,6,0,L|174:140,1,107.999996704102,4|0,0:3|1:0,0:0:0:0:
382,0,153745,1,4,3:3:0:0:
375,26,153838,1,0,3:0:0:0:
368,52,153932,1,2,1:3:0:0:
360,78,154026,2,0,L|435:91,1,53.9999983520508,2|4,3:0|0:3,0:0:0:0:
443,73,154213,1,2,3:0:0:0:
475,79,154307,1,0,1:0:0:0:
495,197,154495,2,0,L|420:210,1,53.9999983520508,6|4,3:0|0:3,0:0:0:0:
411,198,154682,1,0,1:0:0:0:
348,220,154776,1,0,3:0:0:0:
400,261,154870,6,0,P|423:308|421:362,1,107.999996704102,4|0,0:3|1:0,0:0:0:0:
217,203,155245,1,4,3:3:0:0:
223,177,155338,1,0,3:0:0:0:
230,151,155432,1,0,1:0:0:0:
237,125,155526,1,0,3:0:0:0:
242,98,155620,5,0,1:0:0:0:
188,133,155713,1,0,1:0:0:0:
128,110,155807,1,0,1:0:0:0:
69,84,155901,1,0,1:0:0:0:
22,129,155995,1,0,1:0:0:0:
22,129,156182,1,0,1:0:0:0:
22,129,156370,5,4,3:2:0:0:
62,384,156557,1,0,1:0:0:0:
40,248,156745,1,4,0:3:0:0:
0,0,156932,1,0,1:0:0:0:
9,53,157026,1,0,3:0:0:0:
51,19,157120,1,4,3:3:0:0:
236,31,157307,1,0,1:0:0:0:
428,44,157495,1,4,0:3:0:0:
236,31,157682,1,0,1:0:0:0:
211,26,157776,1,0,3:0:0:0:
189,22,157870,5,4,1:3:0:0:
164,42,157963,1,0,3:0:0:0:
131,60,158057,1,0,1:0:0:0:
94,81,158151,1,0,3:0:0:0:
48,103,158245,1,4,1:3:0:0:
94,81,158338,1,0,3:0:0:0:
131,58,158432,1,0,1:0:0:0:
166,41,158526,1,0,3:0:0:0:
189,22,158620,1,4,1:3:0:0:
214,33,158713,1,0,3:0:0:0:
202,57,158807,1,0,1:0:0:0:
234,71,158901,1,0,3:0:0:0:
218,94,158995,1,4,1:3:0:0:
218,94,159088,1,0,3:0:0:0:
234,71,159182,1,0,1:0:0:0:
234,71,159276,1,0,3:0:0:0:
244,124,159370,5,0,1:0:0:0:
408,132,159651,1,0,1:0:0:0:
264,226,159932,1,0,1:0:0:0:
264,226,160120,1,4,1:3:0:0:
246,206,160213,1,0,3:0:0:0:
229,185,160307,1,0,1:0:0:0:
218,238,160401,1,0,3:0:0:0:
209,292,160495,1,4,1:3:0:0:
266,323,160588,1,0,3:0:0:0:
325,352,160682,1,0,1:0:0:0:
359,298,160776,1,0,3:0:0:0:
420,323,160870,5,2,1:3:0:0:
440,276,160963,1,0,3:0:0:0:
457,235,161057,1,0,3:0:0:0:
487,248,161151,5,2,3:3:0:0:
465,297,161244,1,0,3:0:0:0:
447,337,161338,1,0,3:0:0:0:
505,367,161432,5,2,1:3:0:0:
237,384,161620,5,0,1:0:0:0:
174,369,161713,1,0,1:0:0:0:
115,355,161807,1,0,1:0:0:0:
52,339,161901,2,0,L|-11:320,1,53.9999983520508,0|0,1:0|0:0,0:0:0:0:
52,339,162182,1,0,1:0:0:0:
115,355,162275,1,0,3:0:0:0:
92,291,162370,6,0,P|54:252|4:235,1,107.999996704102,4|0,0:3|1:0,0:0:0:0:
0,75,162745,1,4,0:3:0:0:
25,83,162838,1,0,3:0:0:0:
51,79,162932,1,8,1:3:0:0:
99,54,163026,1,8,3:0:0:0:
93,111,163120,1,12,3:3:0:0:
93,111,163307,1,0,1:0:0:0:
144,257,163495,1,4,0:3:0:0:
403,224,163682,1,0,1:0:0:0:
464,295,163870,6,0,P|500:255|513:202,1,107.999996704102,4|0,0:3|1:0,0:0:0:0:
336,93,164245,1,4,0:3:0:0:
321,122,164338,1,0,3:0:0:0:
296,102,164432,1,0,1:0:0:0:
285,133,164526,1,0,3:0:0:0:
260,113,164620,1,4,0:3:0:0:
198,37,164807,1,2,1:3:0:0:
156,27,164901,1,2,3:0:0:0:
115,14,164995,1,4,0:3:0:0:
198,37,165182,1,2,1:3:0:0:
19,112,165370,6,0,P|72:112|119:87,1,107.999996704102,4|0,0:3|1:0,0:0:0:0:
262,9,165745,1,4,0:3:0:0:
262,9,165838,1,0,3:0:0:0:
262,9,165932,1,0,1:0:0:0:
262,9,166026,1,0,3:0:0:0:
262,9,166120,1,4,1:3:0:0:
313,27,166213,1,0,1:0:0:0:
364,45,166307,1,0,1:0:0:0:
414,65,166401,1,0,1:0:0:0:
464,86,166495,2,0,L|449:22,3,53.9999983520508,4|0|0|0,3:3|0:0|0:0|0:0,0:0:0:0:
484,12,166870,5,4,0:3:0:0:
484,12,166963,1,4,0:3:0:0:
484,12,167057,1,4,3:3:0:0:
493,55,167151,1,4,3:3:0:0:
502,97,167245,1,0,1:0:0:0:
450,109,167338,1,0,1:0:0:0:
397,119,167432,1,0,1:0:0:0:
344,131,167526,1,0,1:0:0:0:
281,145,167620,5,0,1:0:0:0:
302,84,167713,1,0,1:0:0:0:
328,24,167807,1,0,1:0:0:0:
267,0,167901,1,0,1:0:0:0:
242,60,167995,2,0,L|178:75,1,53.9999983520508,0|0,1:0|0:0,0:0:0:0:
126,88,168182,1,0,1:0:0:0:
103,149,168276,1,0,1:0:0:0:
44,123,168370,5,4,0:1:0:0:
71,109,168463,1,0,3:0:0:0:
102,109,168557,1,0,1:0:0:0:
132,118,168651,1,0,3:0:0:0:
150,143,168745,1,4,3:0:0:0:
154,173,168838,1,0,3:0:0:0:
142,204,168932,1,8,1:3:0:0:
103,149,169026,1,8,3:0:0:0:
142,204,169120,1,12,3:0:0:0:
22,309,169307,5,2,1:2:0:0:
208,384,169495,1,4,3:3:0:0:
413,273,169682,1,2,1:2:0:0:
371,214,169870,6,0,P|290:171|245:176,1,125.999996154785,4|0,3:0|1:0,0:0:0:0:
400,0,170245,2,0,P|480:42|525:37,1,125.999996154785,4|0,3:0|1:0,0:0:0:0:
512,296,170620,1,4,3:0:0:0:
316,373,170807,1,0,1:0:0:0:
343,346,170901,1,0,3:0:0:0:
465,384,171088,1,0,3:0:0:0:
402,378,171182,5,0,1:0:0:0:
416,343,171276,1,0,3:0:0:0:
407,306,171370,1,4,3:0:0:0:
390,272,171463,1,0,3:0:0:0:
361,246,171557,1,0,3:0:0:0:
324,236,171651,1,0,3:0:0:0:
286,239,171745,1,4,3:0:0:0:
252,255,171838,1,0,3:0:0:0:
234,288,171932,1,0,3:0:0:0:
236,325,172026,1,0,3:0:0:0:
258,356,172120,2,0,L|189:343,1,62.9999980773926,4|0,3:0|0:0,0:0:0:0:
169,371,172307,5,2,1:2:0:0:
12,260,172495,1,4,3:3:0:0:
170,55,172682,1,2,1:2:0:0:
118,9,172870,6,0,P|26:12|-9:38,1,125.999996154785,4|0,3:0|1:0,0:0:0:0:
167,235,173245,2,0,P|209:154|204:109,1,125.999996154785,4|0,3:0|1:0,0:0:0:0:
392,0,173620,1,0,1:0:0:0:
421,56,173713,1,0,1:0:0:0:
453,119,173807,1,0,1:0:0:0:
480,175,173901,1,0,1:0:0:0:
453,119,173995,1,4,3:0:0:0:
453,119,174182,5,0,1:0:0:0:
422,126,174276,1,0,3:0:0:0:
407,153,174370,1,0,3:0:0:0:
408,184,174463,1,0,3:0:0:0:
421,212,174557,1,0,1:0:0:0:
445,231,174651,1,0,3:0:0:0:
475,237,174745,1,0,3:0:0:0:
498,258,174838,1,0,3:0:0:0:
496,289,174932,1,8,1:3:0:0:
435,306,175026,1,8,3:0:0:0:
496,289,175120,1,8,3:0:0:0:
503,85,175307,5,2,1:2:0:0:
339,125,175495,1,4,3:0:0:0:
162,0,175682,1,2,1:2:0:0:
97,29,175870,6,0,P|56:76|46:136,1,125.999996154785,4|0,3:0|1:0,0:0:0:0:
105,322,176245,1,4,3:0:0:0:
112,384,176338,1,0,3:0:0:0:
54,358,176432,1,0,1:0:0:0:
1,192,176620,1,4,3:0:0:0:
209,174,176807,2,0,P|245:224|250:286,1,125.999996154785,0|4,1:0|3:0,0:0:0:0:
33,384,177182,5,0,1:0:0:0:
22,360,177276,1,0,3:0:0:0:
25,334,177370,2,0,P|39:301|75:274,3,62.9999980773926,4|0|0|0,3:0|0:0|0:0|0:0,0:0:0:0:
92,301,177745,1,4,3:0:0:0:
116,303,177838,1,0,3:0:0:0:
140,298,177932,1,0,1:0:0:0:
162,286,178026,2,0,L|175:217,1,62.9999980773926,0|0,3:0|0:0,0:0:0:0:
152,192,178213,1,2,3:0:0:0:
115,198,178307,1,0,3:0:0:0:
95,99,178495,2,0,L|154:120,1,62.9999980773926,6|0,3:0|0:0,0:0:0:0:
190,107,178682,1,0,1:0:0:0:
249,130,178776,1,0,1:0:0:0:
280,74,178870,5,4,3:0:0:0:
247,55,178963,1,0,3:0:0:0:
247,17,179057,1,0,1:0:0:0:
280,0,179151,1,0,3:0:0:0:
314,16,179245,1,4,3:0:0:0:
337,44,179338,1,0,3:0:0:0:
373,55,179432,1,0,1:0:0:0:
411,50,179526,1,0,3:0:0:0:
442,29,179620,5,2,1:2:0:0:
467,87,179713,1,0,1:0:0:0:
410,115,179807,1,2,1:2:0:0:
355,144,179901,1,0,1:0:0:0:
396,205,179995,1,0,1:0:0:0:
396,205,180182,1,2,1:2:0:0:
396,205,180370,5,4,0:1:0:0:
116,304,180557,1,0,1:0:0:0:
264,249,180745,1,4,3:0:0:0:
511,153,180932,1,0,1:0:0:0:
452,176,181026,1,0,3:0:0:0:
501,216,181120,1,4,3:0:0:0:
309,151,181307,1,0,1:0:0:0:
115,78,181495,1,4,3:0:0:0:
309,151,181682,1,0,1:0:0:0:
329,158,181776,1,0,3:0:0:0:
352,168,181870,5,4,3:0:0:0:
375,198,181963,1,0,3:0:0:0:
388,240,182057,1,0,1:0:0:0:
379,290,182151,1,0,3:0:0:0:
339,331,182245,1,4,3:0:0:0:
379,290,182338,1,0,3:0:0:0:
388,240,182432,1,0,1:0:0:0:
375,198,182526,1,0,3:0:0:0:
352,168,182620,1,4,3:0:0:0:
328,188,182713,1,0,3:0:0:0:
304,168,182807,1,0,1:0:0:0:
286,193,182901,1,0,3:0:0:0:
260,173,182995,1,4,3:0:0:0:
260,173,183088,1,0,3:0:0:0:
286,193,183182,1,0,1:0:0:0:
286,193,183276,1,0,3:0:0:0:
285,130,183370,5,0,1:0:0:0:
54,205,183651,1,0,1:0:0:0:
178,1,183932,1,0,1:0:0:0:
178,1,184120,1,4,3:0:0:0:
191,49,184213,1,0,3:0:0:0:
161,89,184307,1,0,1:0:0:0:
117,114,184401,1,0,3:0:0:0:
102,162,184495,1,4,3:0:0:0:
121,221,184588,1,0,3:0:0:0:
180,241,184682,1,0,1:0:0:0:
217,291,184776,1,0,3:0:0:0:
199,351,184870,5,2,3:0:0:0:
185,302,184963,1,0,3:0:0:0:
173,265,185057,1,0,1:0:0:0:
143,260,185151,5,2,3:0:0:0:
157,309,185244,1,0,3:0:0:0:
169,346,185338,1,0,3:0:0:0:
96,326,185432,5,2,3:0:0:0:
324,363,185620,1,0,1:0:0:0:
360,311,185713,1,0,1:0:0:0:
425,298,185807,1,0,1:0:0:0:
483,327,185901,2,0,P|511:368|511:390,1,62.9999980773926,0|0,1:0|0:0,0:0:0:0:
483,327,186182,1,0,1:0:0:0:
425,298,186276,1,0,3:0:0:0:
478,262,186370,5,4,3:0:0:0:
480,224,186463,1,0,3:0:0:0:
465,189,186557,1,0,1:0:0:0:
431,170,186651,1,0,3:0:0:0:
393,172,186745,1,4,3:0:0:0:
367,199,186838,1,0,3:0:0:0:
329,203,186932,1,8,1:3:0:0:
340,136,187026,1,8,3:0:0:0:
329,203,187120,1,12,3:0:0:0:
329,203,187307,5,2,1:2:0:0:
268,45,187495,1,4,3:0:0:0:
1,128,187682,1,2,1:2:0:0:
22,195,187870,5,4,3:0:0:0:
53,198,187963,1,0,3:0:0:0:
79,181,188057,1,0,1:0:0:0:
92,152,188151,1,0,3:0:0:0:
85,121,188245,1,4,3:0:0:0:
63,98,188338,1,0,3:0:0:0:
51,68,188432,1,0,1:0:0:0:
55,36,188526,1,0,3:0:0:0:
77,13,188620,1,4,3:0:0:0:
211,0,188807,1,2,1:2:0:0:
252,44,188901,1,0,3:0:0:0:
306,12,188995,1,4,3:0:0:0:
211,0,189182,1,2,1:2:0:0:
40,135,189370,6,0,P|4:185|-1:247,1,125.999996154785,4|0,3:0|1:0,0:0:0:0:
212,377,189745,1,4,3:0:0:0:
212,377,189838,1,0,3:0:0:0:
212,377,189932,1,0,1:0:0:0:
212,377,190026,1,0,3:0:0:0:
212,377,190120,1,4,3:0:0:0:
188,332,190214,1,0,3:0:0:0:
169,285,190307,1,0,1:0:0:0:
152,237,190401,1,0,3:0:0:0:
134,189,190495,2,0,L|147:127,3,62.9999980773926,4|0|0|0,3:0|0:0|0:0|0:0,0:0:0:0:
155,84,190870,5,4,3:0:0:0:
155,84,190963,1,4,3:0:0:0:
155,84,191057,1,4,3:0:0:0:
185,106,191151,1,4,3:0:0:0:
212,132,191245,1,0,1:0:0:0:
259,117,191338,1,0,1:0:0:0:
307,102,191432,1,0,1:0:0:0:
355,87,191526,1,0,1:0:0:0:
403,73,191620,5,0,1:0:0:0:
431,128,191713,1,0,1:0:0:0:
455,186,191807,1,0,1:0:0:0:
479,244,191901,1,0,1:0:0:0:
501,303,191995,1,0,1:0:0:0:
445,331,192088,1,0,1:0:0:0:
388,359,192182,1,0,1:0:0:0:
330,384,192276,1,0,1:0:0:0:
358,370,192370,5,2,0:0:0:0:
74,384,198370,5,4,0:3:0:0:
109,256,199120,1,4,0:3:0:0:
147,122,199870,1,4,0:3:0:0:
40,0,200620,1,4,0:3:0:0:
323,0,201182,5,4,0:3:0:0:
257,85,202120,1,4,0:3:0:0:
480,35,202870,5,4,0:3:0:0:
480,35,203245,1,4,0:3:0:0:
504,251,203620,1,8,3:0:0:0:
492,285,203713,1,8,3:0:0:0:
460,303,203807,1,8,3:0:0:0:
446,336,203901,1,8,3:0:0:0:
467,384,203995,1,0,1:0:0:0:
467,384,204088,1,0,1:0:0:0:
467,384,204182,1,0,1:0:0:0:
467,384,204276,1,0,1:0:0:0:
467,384,204370,5,4,3:1:0:0:
486,345,204463,1,0,3:0:0:0:
481,301,204557,1,0,1:0:0:0:
443,279,204651,1,0,3:0:0:0:
400,289,204745,1,4,3:0:0:0:
376,324,204838,1,0,3:0:0:0:
336,340,204932,1,0,1:0:0:0:
295,325,205026,1,0,3:0:0:0:
276,285,205120,1,4,3:0:0:0:
194,384,205307,1,0,1:0:0:0:
81,273,205495,1,4,3:0:0:0:
123,265,205588,1,0,3:0:0:0:
151,232,205682,1,0,1:0:0:0:
27,104,205870,6,0,P|-2:24|10:-34,1,107.999996704102,4|0,0:3|1:0,0:0:0:0:
242,73,206245,2,0,P|227:156|187:201,1,107.999996704102,4|0,0:3|1:0,0:0:0:0:
0,232,206620,1,4,0:3:0:0:
149,322,206807,1,0,1:0:0:0:
139,359,206901,1,8,3:0:0:0:
44,375,207088,1,0,3:0:0:0:
4,323,207182,5,0,1:0:0:0:
38,307,207276,1,0,3:0:0:0:
63,278,207370,1,4,3:0:0:0:
71,241,207463,1,0,3:0:0:0:
65,203,207557,1,0,1:0:0:0:
46,169,207651,1,0,3:0:0:0:
16,145,207745,1,4,3:0:0:0:
13,107,207838,1,0,3:0:0:0:
28,72,207932,1,0,1:0:0:0:
61,55,208026,1,0,3:0:0:0:
98,52,208120,2,0,L|151:83,1,53.9999983520508,4|0,3:0|0:0,0:0:0:0:
181,70,208307,1,0,1:0:0:0:
301,0,208495,1,4,3:0:0:0:
311,41,208588,1,0,3:0:0:0:
292,80,208682,1,0,1:0:0:0:
438,223,208870,6,0,P|503:168|521:111,1,107.999996704102,4|0,0:3|1:0,0:0:0:0:
249,145,209245,2,0,P|220:225|232:283,1,107.999996704102,4|0,0:3|1:0,0:0:0:0:
348,384,209620,1,4,0:3:0:0:
505,263,209807,1,0,1:0:0:0:
465,246,209901,1,8,3:0:0:0:
340,284,210088,1,8,3:0:0:0:
353,307,210182,1,0,1:0:0:0:
435,178,210370,5,4,3:0:0:0:
422,136,210463,1,0,3:0:0:0:
387,110,210557,1,0,1:0:0:0:
344,115,210651,1,0,3:0:0:0:
305,95,210745,1,4,3:0:0:0:
296,53,210838,1,0,3:0:0:0:
318,16,210932,1,8,1:3:0:0:
264,22,211026,1,8,3:0:0:0:
313,0,211120,1,12,3:0:0:0:
416,92,211307,1,0,1:0:0:0:
259,150,211495,1,4,3:0:0:0:
233,115,211588,1,0,3:0:0:0:
190,105,211682,1,0,1:0:0:0:
392,27,211870,6,0,P|475:12|520:-28,1,107.999996704102,4|0,0:3|1:0,0:0:0:0:
412,198,212245,2,0,P|329:213|284:253,1,107.999996704102,4|0,0:3|1:0,0:0:0:0:
202,384,212620,1,4,0:3:0:0:
91,279,212807,1,0,1:0:0:0:
108,245,212901,1,8,3:0:0:0:
66,161,213088,1,0,3:0:0:0:
0,171,213182,5,0,1:0:0:0:
0,127,213276,1,0,3:0:0:0:
22,89,213370,1,4,3:0:0:0:
62,75,213463,1,0,3:0:0:0:
103,85,213557,1,0,1:0:0:0:
133,115,213651,1,0,3:0:0:0:
175,123,213745,1,4,3:0:0:0:
216,113,213838,1,0,3:0:0:0:
250,86,213932,1,0,1:0:0:0:
257,43,214026,1,0,3:0:0:0:
243,1,214120,2,0,L|183:17,1,53.9999983520508,4|0,3:0|0:0,0:0:0:0:
148,23,214307,1,0,1:0:0:0:
116,191,214495,1,4,3:0:0:0:
155,208,214588,1,0,3:0:0:0:
171,247,214682,1,0,1:0:0:0:
0,382,214870,5,4,1:2:0:0:
278,275,215151,1,4,1:2:0:0:
32,218,215432,1,4,1:2:0:0:
324,384,215620,5,0,1:0:0:0:
347,324,215713,1,0,1:0:0:0:
416,346,215807,1,0,1:0:0:0:
439,284,215901,1,0,1:0:0:0:
416,346,215995,1,0,1:0:0:0:
416,346,216182,1,0,1:0:0:0:
469,206,216370,6,0,B|433:94|308:163|304:165|300:167|179:218|160:62,1,377.999988464356,4|0,3:1|1:0,0:0:0:0:
164,83,217026,1,0,3:0:0:0:
164,83,217120,1,4,3:0:0:0:
333,0,217307,1,2,1:2:0:0:
391,15,217401,1,0,3:0:0:0:
452,36,217494,1,4,3:0:0:0:
512,57,217588,1,0,3:0:0:0:
492,119,217682,1,2,1:2:0:0:
333,0,217870,5,4,3:0:0:0:
116,128,218057,2,0,P|70:41|74:-17,1,125.999996154785,2|4,1:0|3:0,0:0:0:0:
6,337,218432,1,2,1:0:0:0:
185,383,218620,1,6,3:0:0:0:
171,321,218713,2,0,L|92:336,1,62.9999980773926,2|0,3:0|0:0,0:0:0:0:
95,267,218901,1,2,3:0:0:0:
95,267,218995,1,6,3:0:0:0:
431,185,219182,6,0,P|342:180|327:342,1,251.999992309571,2|0,1:2|1:0,0:0:0:0:
200,111,219745,1,0,3:0:0:0:
209,74,219838,1,0,3:0:0:0:
200,111,219932,1,0,1:0:0:0:
107,229,220120,2,0,L|45:216,1,62.9999980773926,4|0,3:0|0:0,0:0:0:0:
0,137,220307,1,2,1:2:0:0:
62,150,220400,1,0,3:0:0:0:
77,88,220494,1,4,3:0:0:0:
90,26,220588,1,0,3:0:0:0:
28,13,220682,1,2,1:2:0:0:
239,0,220870,6,0,P|284:86|280:145,1,125.999996154785,6|0,3:2|1:0,0:0:0:0:
432,384,221245,2,0,P|483:301|537:275,1,125.999996154785,4|0,3:0|1:0,0:0:0:0:
411,18,221620,1,6,3:2:0:0:
310,147,221807,1,0,1:0:0:0:
249,165,221901,1,8,3:0:0:0:
131,64,222089,1,8,3:0:0:0:
175,70,222182,1,0,1:0:0:0:
229,225,222370,6,0,P|229:323|10:298,1,377.999988464356,4|0,3:1|1:0,0:0:0:0:
74,336,223026,1,0,0:0:0:0:
22,372,223119,1,4,1:0:0:0:
291,384,223307,1,2,1:2:0:0:
349,369,223401,1,0,3:0:0:0:
410,348,223494,1,4,3:0:0:0:
470,327,223588,1,0,3:0:0:0:
450,265,223682,1,2,1:2:0:0:
291,384,223870,5,4,3:0:0:0:
357,169,224057,2,0,P|397:121|454:95,1,125.999996154785,2|4,1:0|3:0,0:0:0:0:
80,170,224432,1,2,1:0:0:0:
268,226,224620,1,2,1:3:0:0:
208,208,224713,2,0,L|220:146,1,62.9999980773926,2|0,3:0|0:0,3:0:0:0:
232,83,224901,1,2,3:0:0:0:
232,83,224995,1,2,1:3:0:0:
446,0,225182,6,0,P|424:62|507:245,1,251.999992309571,2|0,1:2|1:0,0:0:0:0:
228,331,225745,1,4,3:0:0:0:
194,346,225838,1,0,3:0:0:0:
228,331,225932,1,0,1:0:0:0:
334,215,226120,2,0,L|321:276,1,62.9999980773926,4|0,3:0|3:0,3:0:0:0:
370,356,226307,1,2,1:2:0:0:
383,294,226401,1,0,3:0:0:0:
445,307,226495,1,4,3:0:0:0:
507,322,226589,1,0,3:0:0:0:
494,384,226682,1,2,1:2:0:0:
481,161,226870,5,6,1:0:0:0:
155,32,227151,1,6,1:2:0:0:
495,2,227432,1,6,1:2:0:0:
209,135,227620,5,6,1:0:0:0:
173,194,227713,1,0,1:0:0:0:
110,173,227807,1,0,1:0:0:0:
87,236,227901,1,0,1:0:0:0:
110,173,227995,1,0,1:0:0:0:
110,173,228182,1,4,1:2:0:0:
153,376,228370,6,2,P|45:300|168:293,1,323.999990112305,6|0,3:1|1:0,0:1:0:0:
161,283,229120,1,4,0:3:0:0:
278,363,229307,1,0,1:0:0:0:
371,222,229495,1,4,3:0:0:0:
407,245,229588,1,0,3:0:0:0:
450,240,229682,1,0,1:0:0:0:
497,49,229870,6,0,P|450:89|441:157,1,107.999996704102,4|0,0:3|1:0,0:0:0:0:
267,291,230245,2,0,P|271:229|230:174,1,107.999996704102,4|0,0:3|1:0,0:0:0:0:
81,80,230620,1,4,0:3:0:0:
223,0,230807,1,0,1:0:0:0:
260,9,230901,1,8,3:0:0:0:
187,78,231088,1,8,3:0:0:0:
146,27,231182,6,0,P|98:3|45:9,1,107.999996704102,0|4,1:0|0:3,0:0:0:0:
10,248,231557,1,0,1:0:0:0:
10,248,231744,1,4,3:0:0:0:
52,258,231838,1,0,3:0:0:0:
38,216,231932,2,0,L|10:96,1,107.999996704102,0|4,1:0|0:3,0:0:0:0:
4,68,232213,1,0,3:0:0:0:
4,68,232307,1,0,1:0:0:0:
142,136,232495,1,4,0:3:0:0:
128,176,232588,1,0,3:0:0:0:
144,216,232682,1,0,1:0:0:0:
96,382,232870,6,0,P|42:378|0:347,1,107.999996704102,4|0,0:3|1:0,0:0:0:0:
260,326,233245,2,0,P|313:329|356:360,1,107.999996704102,4|0,0:3|1:0,0:0:0:0:
509,188,233620,1,4,0:3:0:0:
361,245,233807,1,0,1:0:0:0:
326,231,233901,1,8,3:0:0:0:
456,264,234088,1,8,3:0:0:0:
463,290,234182,1,0,1:0:0:0:
509,376,234370,6,0,P|421:350|476:148,1,323.999990112305,4|0,0:3|1:0,0:0:0:0:
380,157,235026,1,0,3:0:0:0:
415,212,235120,1,4,0:3:0:0:
511,88,235307,1,0,1:0:0:0:
511,88,235401,1,0,3:0:0:0:
511,88,235495,1,4,3:0:0:0:
471,76,235588,1,0,3:0:0:0:
435,66,235681,1,0,1:0:0:0:
241,121,235870,5,4,0:3:0:0:
241,121,236057,2,0,P|196:91|175:42,1,107.999996704102,0|4,1:0|0:3,0:0:0:0:
444,157,236432,1,0,1:0:0:0:
255,238,236620,1,4,0:3:0:0:
271,272,236713,1,0,3:0:0:0:
221,357,236901,1,0,3:0:0:0:
221,357,236995,1,4,0:3:0:0:
184,188,237182,1,0,1:0:0:0:
236,133,237370,6,0,L|246:182,7,26.9999991760254,0|0|0|0|0|0|0|0,1:0|0:0|0:0|0:0|0:0|0:0|0:0|0:0,0:0:0:0:
245,172,237745,1,4,3:0:0:0:
270,26,237932,1,0,1:0:0:0:
224,57,238026,1,0,3:0:0:0:
179,48,238120,1,4,3:0:0:0:
179,48,238213,1,0,3:0:0:0:
179,48,238307,2,0,L|119:31,1,53.9999983520508,0|0,1:0|0:0,0:0:0:0:
84,0,238495,1,4,3:0:0:0:
54,30,238588,1,4,3:0:0:0:
25,63,238682,1,0,1:0:0:0:
44,114,238776,1,0,1:0:0:0:
68,163,238870,5,4,1:2:0:0:
471,97,239245,1,4,1:2:0:0:
168,274,239620,5,4,1:2:0:0:
205,336,239901,1,0,1:2:0:0:
158,384,240182,1,0,1:2:0:0:
510,376,240370,5,6,1:2:0:0:
450,0,240651,1,6,1:2:0:0:
1,2,240932,1,6,1:2:0:0:
1,2,241495,1,2,0:0:0:0:
359,58,241870,6,0,L|369:17,18,22.5,4|0|0|0|0|0|0|0|0|0|0|0|0|0|0|0|0|0|0,3:0|0:0|0:0|0:0|0:0|0:0|0:0|0:0|0:0|0:0|0:0|0:0|0:0|0:0|0:0|0:0|0:0|0:0|0:0,0:0:0:0:
386,3,242807,2,0,L|422:50,1,45,4|4,3:0|3:0,0:0:0:0:
444,64,242995,1,4,3:0:0:0:
444,64,243182,1,4,3:0:0:0:
444,64,243370,2,0,B|517:153|424:245|420:247|415:249|327:285|376:384,1,360,4|0,3:0|0:0,0:0:0:0:
375,382,245104,1,4,3:0:0:0:
375,382,245151,1,4,3:0:0:0:
375,382,245198,1,4,3:0:0:0:
