osu file format v14

[General]
AudioFilename: audio.mp3
AudioLeadIn: 0
PreviewTime: 19893
Countdown: 0
SampleSet: Drum
StackLeniency: 0.7
Mode: 0
LetterboxInBreaks: 0
WidescreenStoryboard: 1

[Editor]
Bookmarks: 7690,19997,32305,44613,56920,69228,81536,87690,93843,106151,118448,130731,143026,155317
DistanceSpacing: 1
BeatDivisor: 4
GridSize: 16
TimelineZoom: 1.2

[Metadata]
Title:Extend Ash ~ Houraijin
TitleUnicode:エクステンドアッシュ ~ 蓬莱人
Artist:ZUN
ArtistUnicode:ZUN
Creator:nik
Version:LwL's Normal
Source:東方永夜抄 ~ Imperishable Night.
Tags:東方project touhou project eiyashou video game instrumental hourai victim 藤原 妹紅 fujiwara no mokou 上白沢 慧音 kamishirasawa keine team shanghai alice 2hu th8 nikolomara lwl consumerofbean failureatosu consumeroflean kondou-shinichi kondou shinichi fdc finnish duo cup qualifiers ql quals dt2 double time 2
BeatmapID:3773832
BeatmapSetID:1799071

[Difficulty]
HPDrainRate:3
CircleSize:3
OverallDifficulty:4
ApproachRate:5.3
SliderMultiplier:1
SliderTickRate:1

[Events]
//Background and Video events
0,0,"8e8f09a22d7ada32326e9b46570c21ef.jpg",0,0
//Break Periods
2,87882,92681
//Storyboard Layer 0 (Background)
//Storyboard Layer 1 (Fail)
//Storyboard Layer 2 (Pass)
//Storyboard Layer 3 (Foreground)
//Storyboard Layer 4 (Overlay)
//Storyboard Sound Samples

[TimingPoints]
1539,384.615384615385,4,2,1,55,1,0
1539,-90.9090909090909,4,2,1,55,0,0
6154,382.165605095541,4,2,1,55,1,0
7682,384.615384615385,4,3,1,75,1,0
7682,-90.9090909090909,4,3,1,75,0,0
19989,-90.9090909090909,4,2,1,65,0,0
32297,-76.9230769230769,4,2,1,65,0,1
44605,-90.9090909090909,4,3,1,75,0,0
56912,-90.9090909090909,4,2,1,65,0,0
69220,-76.9230769230769,4,2,1,65,0,1
81528,-117.647058823529,4,2,1,65,0,0
93835,-90.9090909090909,4,3,1,75,0,0
106143,-100,4,2,1,50,0,0
116912,382.165605095541,4,2,1,50,1,0
118440,384.615384615385,4,2,1,65,1,0
118440,-90.9090909090909,4,2,1,65,0,0
130747,-100,4,2,1,60,0,0
142286,382.165605095541,4,2,1,60,1,0
143050,384.615384615385,4,2,1,80,1,0
143050,-90.9090909090909,4,2,1,80,0,0

[Colours]
Combo1 : 255,9,9
Combo2 : 232,69,0
Combo3 : 255,142,17

[HitObjects]
168,123,7682,6,0,P|228:116|285:126,1,110.000003356934,0|0,1:0|1:0,0:0:0:0:
334,217,8451,2,0,P|388:224|442:217,1,110.000003356934,0|0,1:0|1:2,0:0:0:0:
484,181,9028,1,8,0:2:0:0:
508,131,9220,6,0,P|487:80|454:36,1,110.000003356934,0|0,1:0|1:0,0:0:0:0:
344,21,9989,1,0,1:0:0:0:
386,123,10374,1,0,1:2:0:0:
314,206,10758,6,0,L|197:203,1,110.000003356934,0|0,1:0|1:0,0:0:0:0:
167,99,11528,2,0,L|50:102,1,110.000003356934,0|0,1:0|1:2,0:0:0:0:
22,145,12105,1,8,0:2:0:0:
1,197,12297,6,0,P|-6:252|0:307,1,110.000003356934,0|0,1:0|1:0,0:0:0:0:
100,349,13066,1,0,1:0:0:0:
207,327,13451,1,0,1:2:0:0:
244,223,13835,6,0,P|251:163|241:106,1,110.000003356934,0|0,1:0|1:0,0:0:0:0:
150,54,14605,2,0,P|193:21|243:0,1,110.000003356934,0|0,1:0|1:2,0:0:0:0:
298,9,15182,1,8,0:2:0:0:
339,45,15374,6,0,P|345:100|339:153,1,110.000003356934,0|0,1:0|1:0,0:0:0:0:
246,213,16143,1,0,1:0:0:0:
261,321,16528,1,0,1:2:0:0:
371,317,16912,6,0,L|488:314,1,110.000003356934,0|0,1:0|1:0,0:0:0:0:
512,209,17682,2,0,L|395:212,1,110.000003356934,0|0,1:0|1:2,0:0:0:0:
349,197,18258,1,8,0:2:0:0:
310,158,18451,5,0,1:0:0:0:
269,56,18835,1,0,1:0:0:0:
215,57,19028,1,8,0:2:0:0:
137,133,19412,1,2,0:0:0:0:
83,134,19605,1,2,0:0:0:0:
36,233,19989,6,0,B|38:323,1,55.0000016784668,2|2,1:1|0:1,0:0:0:0:
53,340,20374,2,0,B|103:353|103:353|210:342,1,110.000003356934,8|2,0:0|1:0,0:0:0:0:
207,317,20951,1,2,1:1:0:0:
188,208,21335,6,0,B|193:54,1,110.000003356934,2|2,0:1|0:1,0:0:0:0:
232,61,21912,2,0,B|282:48|282:48|389:59,1,110.000003356934,8|2,0:0|0:0,0:0:0:0:
380,91,22489,1,2,1:1:0:0:
333,190,22874,5,2,0:1:0:0:
333,190,23066,2,0,B|329:281,1,55.0000016784668,2|2,1:0|0:1,0:0:0:0:
300,291,23451,2,0,B|209:295,2,55.0000016784668,8|2|2,0:0|0:1|1:0,0:0:0:0:
325,339,24028,1,2,1:1:0:0:
442,323,24412,5,2,0:0:0:0:
442,323,24605,2,0,B|436:281|436:281|414:244,1,55.0000016784668,2|2,1:0|0:1,0:0:0:0:
380,245,24989,2,0,B|346:218|346:218|325:181,1,55.0000016784668,8|2,0:0|0:1,0:0:0:0:
321,155,25374,1,2,1:0:0:0:
281,116,25566,1,2,0:1:0:0:
226,107,25758,1,8,0:0:0:0:
136,170,26143,6,0,B|138:260,1,55.0000016784668,2|2,1:0|0:1,0:0:0:0:
135,280,26528,2,0,B|85:293|85:293|-22:282,1,110.000003356934,8|2,0:0|1:0,0:0:0:0:
0,240,27105,1,2,1:1:0:0:
48,141,27489,6,2,B|92:125|124:157|124:157|156:189|200:173,1,165.000005035401,2|8,0:1|0:0,0:1:0:0:
220,122,28258,2,2,P|286:173|167:272,1,275.000008392334,2|2,0:1|0:0,0:1:0:0:
144,238,29412,1,2,0:1:0:0:
90,224,29605,2,0,B|0:226,1,55.0000016784668,8|2,0:0|0:1,0:0:0:0:
6,272,29989,2,2,B|6:355|6:355|25:387,1,110.000003356934,2|10,1:0|0:0,0:1:0:0:
129,379,30758,5,2,1:0:0:0:
199,294,31143,1,10,0:0:0:0:
253,295,31335,1,2,0:0:0:0:
331,371,31720,1,2,0:0:0:0:
385,372,31912,2,0,L|454:369,1,55.0000016784668,8|2,0:0|0:0,0:0:0:0:
489,327,32297,6,0,L|491:218,1,64.9999970245363,2|10,1:1|0:2,0:0:0:0:
490,197,32682,1,0,1:0:0:0:
434,165,32874,1,10,0:2:0:0:
434,100,33066,2,0,B|408:80|408:80|354:75,1,64.9999970245363,0|2,1:2|3:2,0:0:0:0:
299,182,33643,6,0,L|152:185,1,129.999994049073,10|10,0:2|0:2,0:0:0:0:
130,131,34220,1,0,1:0:0:0:
168,79,34412,1,10,0:2:0:0:
130,26,34605,2,0,B|156:6|156:6|209:3,1,64.9999970245363,0|2,1:2|3:2,0:0:0:0:
317,16,35182,5,10,0:2:0:0:
317,16,35374,2,0,L|319:139,1,64.9999970245363,2|10,1:0|0:2,0:0:0:0:
281,133,35758,1,0,1:0:0:0:
276,197,35951,1,10,0:2:0:0:
305,255,36143,2,0,P|342:281|372:295,1,64.9999970245363,0|2,1:2|3:2,0:0:0:0:
446,192,36720,5,10,0:0:0:0:
446,192,36912,2,0,L|347:191,1,64.9999970245363,2|10,1:0|0:2,0:0:0:0:
328,152,37297,2,0,L|241:200,1,64.9999970245363,0|10,1:0|0:2,0:0:0:0:
251,245,37682,1,0,1:2:0:0:
186,243,37874,1,2,3:2:0:0:
129,274,38066,1,0,1:2:0:0:
23,349,38451,6,0,L|21:240,1,64.9999970245363,2|10,1:0|0:2,0:0:0:0:
22,219,38835,1,0,1:0:0:0:
78,187,39028,1,10,0:2:0:0:
78,122,39220,2,0,B|104:102|104:102|158:97,1,64.9999970245363,0|2,1:2|3:2,0:0:0:0:
202,210,39797,6,2,B|243:190|269:140|269:140|326:144|358:108,1,194.999991073609,10|0,0:2|1:0,0:1:0:0:
378,48,40566,2,0,P|453:84|361:256,1,324.999985122681,8|2,0:2|1:2,0:0:0:0:
324,213,41720,1,10,0:2:0:0:
261,195,41912,1,0,1:0:0:0:
196,202,42105,2,0,P|98:188|35:119,1,194.999991073609,10|0,0:2|1:2,0:0:0:0:
109,12,43066,6,2,B|269:4|362:54|362:54|355:173|461:136|440:282,1,454.999979171754,2|10,1:0|0:0,0:1:0:0:
412,271,44605,2,0,P|225:246|31:297,1,385.000011749268,0|8,1:0|0:2,0:0:0:0:
39,349,46143,6,0,L|181:356,1,110.000003356934,0|0,1:0|1:0,0:0:0:0:
258,345,46912,2,0,L|367:339,1,110.000003356934,0|0,1:0|1:2,0:0:0:0:
438,255,47682,5,0,1:0:0:0:
376,163,48066,1,0,1:0:0:0:
415,60,48451,2,0,P|358:41|287:38,1,110.000003356934,0|0,1:0|1:2,0:0:0:0:
253,40,49028,1,8,0:2:0:0:
201,57,49220,5,0,1:0:0:0:
240,159,49605,1,0,1:0:0:0:
239,213,49797,1,8,0:2:0:0:
163,291,50182,1,0,0:0:0:0:
162,345,50374,1,0,1:2:0:0:
51,340,50758,5,0,1:0:0:0:
2,242,51143,1,0,1:0:0:0:
38,138,51528,2,0,P|91:133|186:151,1,110.000003356934,0|0,1:0|1:2,0:0:0:0:
186,177,52105,1,8,0:2:0:0:
223,217,52297,6,0,P|276:222|371:204,1,110.000003356934,0|0,1:0|1:0,0:0:0:0:
360,106,53066,1,0,1:0:0:0:
296,16,53451,1,0,1:2:0:0:
186,17,53835,6,0,L|183:157,1,110.000003356934,0|0,1:0|1:0,0:0:0:0:
82,170,54605,2,0,L|85:310,1,110.000003356934,0|0,1:0|1:2,0:0:0:0:
118,322,55182,1,8,0:2:0:0:
168,344,55374,5,2,0:0:0:0:
263,289,55758,1,2,0:0:0:0:
317,290,55951,1,2,0:0:0:0:
395,366,56335,1,2,0:0:0:0:
449,367,56528,1,2,0:0:0:0:
510,275,56912,6,0,L|508:194,1,55.0000016784668,2|2,1:1|0:1,0:0:0:0:
495,171,57297,2,0,B|445:158|445:158|338:169,1,110.000003356934,8|2,0:0|1:0,0:0:0:0:
336,184,57874,1,2,1:1:0:0:
227,196,58258,6,0,L|223:59,1,110.000003356934,2|2,0:1|0:1,0:0:0:0:
244,34,58835,2,0,B|294:21|294:21|401:32,1,110.000003356934,8|2,0:0|0:0,0:0:0:0:
401,51,59412,1,2,1:1:0:0:
344,145,59797,5,2,0:1:0:0:
344,145,59989,2,0,B|348:236,1,55.0000016784668,2|2,1:0|0:1,0:0:0:0:
377,246,60374,2,0,B|468:250,2,55.0000016784668,8|2|2,0:0|0:1|1:0,0:0:0:0:
352,294,60951,1,2,1:1:0:0:
252,341,61335,5,2,0:0:0:0:
252,341,61528,2,0,B|224:325|224:325|202:287,1,55.0000016784668,2|2,1:0|0:1,0:0:0:0:
185,257,61912,2,0,B|165:245|165:245|133:245,1,55.0000016784668,8|2,0:0|0:1,0:0:0:0:
78,255,62297,1,2,1:0:0:0:
26,236,62489,1,2,0:1:0:0:
1,187,62682,1,8,0:0:0:0:
33,81,63066,6,0,L|119:78,1,55.0000016784668,2|2,1:0|0:1,0:0:0:0:
126,118,63451,2,0,B|176:131|176:131|283:120,1,110.000003356934,8|2,0:0|1:0,0:0:0:0:
277,91,64028,1,2,1:1:0:0:
383,63,64412,6,2,B|418:93|407:136|407:136|395:180|431:210,1,165.000005035401,2|8,0:1|0:0,0:1:0:0:
484,226,65182,2,2,P|440:323|292:257,1,275.000008392334,2|2,1:1|0:0,0:1:0:0:
295,229,66335,1,2,0:1:0:0:
270,179,66528,2,0,L|200:176,1,55.0000016784668,8|2,0:0|0:1,0:0:0:0:
180,218,66912,2,2,B|179:306|179:306|153:353,1,110.000003356934,2|10,1:0|0:0,0:1:0:0:
60,345,67682,5,2,1:0:0:0:
3,251,68066,1,10,0:0:0:0:
4,197,68258,1,2,0:0:0:0:
80,119,68643,1,2,0:0:0:0:
81,65,68835,2,0,L|82:4,1,55.0000016784668,8|2,0:0|0:0,0:0:0:0:
146,1,69220,6,0,L|255:-1,1,64.9999970245363,2|10,1:1|0:2,0:0:0:0:
276,0,69605,1,0,1:0:0:0:
308,56,69797,1,10,0:2:0:0:
373,56,69989,2,0,B|393:82|393:82|398:136,1,64.9999970245363,0|0,1:2|3:2,0:0:0:0:
405,248,70566,6,0,L|255:250,1,129.999994049073,10|10,0:2|0:2,0:0:0:0:
225,291,71143,1,0,1:0:0:0:
160,292,71335,1,10,0:2:0:0:
121,344,71528,2,0,B|83:349|83:349|38:343,1,64.9999970245363,0|0,1:2|3:2,0:0:0:0:
12,223,72105,5,10,0:2:0:0:
12,223,72297,2,0,L|96:227,1,64.9999970245363,2|10,1:0|0:2,0:0:0:0:
141,227,72682,1,0,1:0:0:0:
200,200,72874,1,10,0:2:0:0:
242,151,73066,2,0,P|253:119|253:74,1,64.9999970245363,0|0,1:2|3:2,0:0:0:0:
139,39,73643,5,10,0:0:0:0:
139,39,73835,2,0,L|133:131,1,64.9999970245363,2|10,1:0|0:2,0:0:0:0:
81,141,74220,2,0,L|121:223,1,64.9999970245363,0|10,1:0|0:2,0:0:0:0:
89,261,74605,1,0,1:2:0:0:
101,324,74797,1,0,3:2:0:0:
148,368,74989,1,0,1:2:0:0:
262,306,75374,6,0,L|371:308,1,64.9999970245363,2|10,1:0|0:2,0:0:0:0:
392,307,75758,1,0,1:0:0:0:
424,251,75951,1,10,0:2:0:0:
489,251,76143,2,0,B|509:225|509:225|514:171,1,64.9999970245363,0|0,1:2|3:2,0:0:0:0:
441,83,76720,6,2,B|400:103|374:153|374:153|317:149|286:183,1,194.999991073609,10|0,0:2|1:0,0:1:0:0:
281,248,77489,2,0,P|206:252|164:48,1,324.999985122681,10|2,0:2|1:2,0:0:0:0:
216,82,78643,1,10,0:2:0:0:
280,91,78835,1,0,1:0:0:0:
337,60,79028,2,0,P|428:73|503:147,1,194.999991073609,10|0,0:2|1:2,0:0:0:0:
451,262,79989,6,2,B|316:175|210:171|210:171|157:278|84:193|29:330,1,454.999979171754,2|10,1:0|0:0,0:1:0:0:
64,343,81528,1,6,1:2:0:0:
256,192,81720,12,2,87682,0:0:0:0:
105,214,93835,5,2,1:2:0:0:
197,153,94220,1,2,1:2:0:0:
304,180,94605,1,2,1:2:0:0:
396,119,94989,2,0,L|466:122,1,55.0000016784668,2|2,1:2|0:2,0:0:0:0:
489,161,95374,5,2,1:2:0:0:
509,266,95758,1,2,1:2:0:0:
451,356,96143,1,2,1:2:0:0:
346,381,96528,2,0,L|343:277,1,55.0000016784668,2|2,1:2|0:2,0:0:0:0:
341,271,96912,5,2,1:2:0:0:
264,191,97297,1,2,1:2:0:0:
307,90,97682,1,2,1:2:0:0:
230,10,98066,2,0,L|141:12,1,55.0000016784668,2|2,1:2|0:2,0:0:0:0:
119,12,98451,5,2,1:2:0:0:
50,97,98835,2,0,L|49:162,1,55.0000016784668,2|2,1:2|0:2,0:0:0:0:
127,229,99412,2,0,L|126:294,1,55.0000016784668,2|2,0:2|1:2,0:0:0:0:
24,321,99989,5,2,1:2:0:0:
0,214,100374,1,2,1:2:0:0:
7,105,100758,1,2,1:2:0:0:
70,16,101143,2,0,L|159:18,1,55.0000016784668,2|2,1:2|0:2,0:0:0:0:
181,18,101528,5,2,1:2:0:0:
242,110,101912,1,2,1:2:0:0:
215,217,102297,1,2,1:2:0:0:
276,309,102682,2,0,L|336:310,1,55.0000016784668,2|2,1:2|0:2,0:0:0:0:
383,294,103066,5,2,1:2:0:0:
461,219,103451,1,2,1:2:0:0:
489,114,103835,1,2,1:2:0:0:
456,10,104220,2,0,L|383:12,1,55.0000016784668,2|2,1:2|0:2,0:0:0:0:
347,13,104605,5,2,0:0:0:0:
273,94,104989,1,2,0:0:0:0:
274,148,105182,1,2,0:0:0:0:
350,226,105566,1,2,0:2:0:0:
351,280,105758,2,0,P|349:321|338:347,1,55.0000016784668,2|2,0:2|0:2,0:0:0:0:
295,345,106143,6,0,B|194:350|194:350|93:335,1,200,2|2,1:2|1:2,0:0:0:0:
61,241,107297,1,8,0:0:0:0:
97,147,107682,2,0,B|194:132|194:132|295:137,1,200,2|0,1:2|0:0,0:0:0:0:
391,164,108835,1,8,0:0:0:0:
320,234,109220,6,0,L|323:386,2,150,2|2|8,1:2|0:0|0:0,0:0:0:0:
383,156,110758,2,0,L|386:56,1,100,2|8,1:2|0:0,0:0:0:0:
349,21,111335,1,2,0:0:0:0:
299,13,111528,2,0,L|179:19,1,100,2|8,1:2|0:0,0:0:0:0:
113,70,112297,6,0,B|108:171|108:171|123:272,1,200,2|2,1:2|1:2,0:0:0:0:
175,353,113451,1,8,0:0:0:0:
270,378,113835,2,0,B|372:382|372:382|470:364,1,200,2|0,1:2|0:0,0:0:0:0:
505,272,114989,1,8,0:0:0:0:
409,241,115374,6,0,L|309:238,1,100,2|8,1:2|0:0,0:0:0:0:
273,202,115951,2,0,L|173:204,1,100,2|2,0:0|0:0,0:0:0:0:
123,214,116528,1,8,0:0:0:0:
39,157,116912,2,0,L|36:57,1,100,2|8,1:2|0:0,0:0:0:0:
66,17,117485,1,2,0:0:0:0:
114,5,117676,2,0,L|184:8,2,50,10|2|8,1:2|0:0|0:0,0:0:0:0:
127,109,118440,6,0,P|119:169|125:223,1,110.000003356934,2|2,0:2|0:2,0:0:0:0:
219,162,119209,2,0,P|279:154|333:160,1,110.000003356934,2|2,0:2|0:2,0:0:0:0:
381,255,119978,2,0,P|321:263|267:257,1,110.000003356934,2|2,0:2|0:2,0:0:0:0:
161,257,120747,2,0,P|153:317|159:371,1,110.000003356934,2|2,0:2|0:2,0:0:0:0:
268,363,121516,6,0,P|328:355|382:361,1,110.000003356934,2|2,0:2|0:2,0:0:0:0:
428,378,122093,2,0,P|473:336|493:277,1,110.000003356934,8|0,0:0|0:0,0:0:0:0:
498,233,122670,1,2,0:2:0:0:
480,122,123055,2,0,P|440:75|340:40,1,165.000005035401,2|8,0:2|0:0,0:0:0:0:
303,76,123824,2,0,P|310:130|306:185,1,110.000003356934,2|2,0:2|0:2,0:0:0:0:
208,134,124593,6,0,P|153:127|99:131,1,110.000003356934,2|2,0:2|0:2,0:0:0:0:
58,233,125363,2,0,P|113:240|167:236,1,110.000003356934,2|2,0:2|0:2,0:0:0:0:
269,217,126132,2,0,P|262:272|266:326,1,110.000003356934,2|2,0:2|0:2,0:0:0:0:
368,367,126901,2,0,P|375:312|371:258,1,110.000003356934,2|2,0:2|0:2,0:0:0:0:
356,150,127670,6,0,P|351:95|358:40,1,110.000003356934,2|2,0:2|0:2,0:0:0:0:
403,10,128247,2,0,P|452:46|484:93,1,110.000003356934,8|0,0:0|0:0,0:0:0:0:
496,139,128824,1,2,0:2:0:0:
481,248,129209,2,0,P|417:257|356:247,1,110.000003356934,2|2,0:2|0:2,0:0:0:0:
322,227,129786,1,8,0:0:0:0:
292,180,129978,2,0,P|295:116|280:57,1,110.000003356934,10|8,0:0|0:0,0:0:0:0:
191,35,130747,6,0,P|108:55|16:143,1,200,2|2,0:0|0:0,0:0:0:0:
87,319,132286,2,0,P|170:299|262:211,1,200,2|2,0:0|0:0,0:0:0:0:
411,101,133824,6,0,B|416:195|416:195|412:262,2,150,2|2|2,0:1|0:1|0:1,0:0:0:0:
333,34,135363,2,0,B|239:30|239:30|172:33,1,150,2|2,0:1|0:0,0:0:0:0:
163,79,136132,1,2,0:1:0:0:
34,232,136901,6,0,P|132:249|230:234,1,200,2|2,0:0|0:0,0:0:0:0:
256,35,138439,2,0,P|354:20|452:37,1,200,2|2,0:0|0:0,0:0:0:0:
367,218,139978,6,0,B|372:257|372:257|357:320|357:320|366:379,2,150,2|2|2,0:1|0:1|0:1,0:0:0:0:
312,134,141516,2,0,B|273:104|273:104|218:104|218:104|180:130,1,150,2|2,0:1|0:0,0:0:0:0:
156,174,142286,1,2,0:1:0:0:
10,0,143050,6,0,P|8:46|11:68,1,55.0000016784668,2|8,0:2|0:0,0:0:0:0:
27,106,143434,1,2,0:2:0:0:
113,38,143819,2,0,P|167:32|245:46,1,110.000003356934,2|2,0:2|0:2,0:0:0:0:
296,125,144588,2,0,P|263:133|221:129,1,55.0000016784668,2|8,0:2|0:0,0:0:0:0:
187,124,144973,1,2,0:2:0:0:
91,186,145357,2,0,P|85:240|99:318,1,110.000003356934,2|2,0:2|0:2,0:0:0:0:
192,249,146126,6,0,L|319:245,1,110.000003356934,2|2,0:2|0:2,0:0:0:0:
343,208,146703,2,0,L|339:98,1,110.000003356934,8|0,0:0|0:0,0:0:0:0:
312,49,147280,2,0,L|245:51,1,55.0000016784668,2|8,0:2|0:0,0:0:0:0:
226,96,147665,2,0,L|94:91,1,110.000003356934,2|2,0:2|0:2,0:0:0:0:
63,75,148242,1,8,0:0:0:0:
33,121,148434,2,0,L|38:253,1,110.000003356934,2|2,0:2|0:2,0:0:0:0:
145,209,149203,6,0,P|149:248|140:280,1,55.0000016784668,2|8,0:2|0:0,0:0:0:0:
131,316,149588,1,2,0:2:0:0:
226,369,149973,2,0,P|290:378|358:359,1,110.000003356934,2|2,0:2|0:2,0:0:0:0:
375,267,150742,2,0,P|378:223|372:194,1,55.0000016784668,2|8,0:2|0:0,0:0:0:0:
364,158,151126,1,2,0:2:0:0:
258,189,151511,2,0,P|249:125|268:57,1,110.000003356934,2|2,0:2|0:2,0:0:0:0:
341,9,152280,6,0,B|418:6|418:6|472:16,1,110.000003356934,2|2,0:2|0:2,0:0:0:0:
448,67,152857,2,0,B|445:144|445:144|455:198,1,110.000003356934,8|0,0:0|0:0,0:0:0:0:
494,209,153434,2,0,B|498:249|498:249|491:273,1,55.0000016784668,2|8,0:2|0:0,0:0:0:0:
449,296,153819,2,0,B|371:291|371:291|332:299,1,110.000003356934,8|8,0:0|0:0,0:0:0:0:
297,332,154396,1,10,0:0:0:0:
257,369,154588,2,0,B|209:340|209:340|157:355|157:355|104:337|104:337|78:288,1,220.000006713867,10|14,0:0|0:0,0:0:0:0:
