osu file format v14

[General]
AudioFilename: Eternal Spring Dream.mp3
AudioLeadIn: 0
PreviewTime: 21427
Countdown: 1
SampleSet: Soft
StackLeniency: 0.7
Mode: 0
LetterboxInBreaks: 1
WidescreenStoryboard: 1

[Editor]
DistanceSpacing: 1
BeatDivisor: 1
GridSize: 32
TimelineZoom: 1.600005

[Metadata]
Title:Eternal Spring Dream
TitleUnicode:永遠の春夢
Artist:ZUN
ArtistUnicode:ZUN
Creator:ijiemoKirotaS
Version:Easy
Source:東方紺珠伝 ~ Legacy of Lunatic Kingdom
Tags:lolk touhou project toho doremy sweet doremi suito ドレミー・スイート th15 stage 3 boss Team Shanghai Alice kanjuden ultramarine orb tale Reitaisai12 demo comic market 88 comiket88 ドレミー・スイート 上海アリス幻樂団 秘封ナイトメアダイアリー 秘封ナイトメアダイアリ hifuu Secret Sealing Nightmare Diary ~ Violet Detector vd th16.5
BeatmapID:827558
BeatmapSetID:323620

[Difficulty]
HPDrainRate:2
CircleSize:3
OverallDifficulty:2
ApproachRate:2
SliderMultiplier:0.700000005960464
SliderTickRate:1

[Events]
//Background and Video events
0,0,"bg.png",0,0
//Break Periods
//Storyboard Layer 0 (Background)
//Storyboard Layer 1 (Fail)
//Storyboard Layer 2 (Pass)
//Storyboard Layer 3 (Foreground)
//Storyboard Sound Samples

[TimingPoints]
645,335.195530726257,4,2,0,100,1,0
6008,-100,4,2,0,75,0,0
8689,-100,4,2,0,100,0,0
11371,-100,4,2,0,100,0,1
22097,-100,4,2,0,100,0,0
43550,-100,4,2,0,100,0,0
54276,-100,4,2,0,100,0,1
65002,-100,4,2,0,100,0,0
86455,-100,4,2,0,100,0,0
97181,-100,4,2,0,100,0,1
107907,-100,4,2,0,100,0,0
139415,-100,4,2,0,100,0,0
140086,-100,4,2,0,100,0,1
150812,-100,4,2,0,100,0,0

[Colours]
Combo1 : 140,236,255
Combo2 : 0,0,255
Combo3 : 165,58,222
Combo4 : 254,99,250
Combo5 : 255,89,94
Combo6 : 255,255,128

[HitObjects]
140,107,645,6,0,P|146:210|221:280,1,210.000001788139,0|2,1:0|1:0,0:0:0:0:
291,280,1985,2,0,P|366:210|372:108,1,210.000001788139,0|2,1:0|1:0,0:0:0:0:
324,56,3326,5,0,1:0:0:0:
184,56,3996,1,0,0:0:0:0:
188,196,4667,1,0,1:0:0:0:
328,196,5337,1,0,0:0:0:0:
452,256,6008,6,0,B|384:280|328:320|328:320|256:320,1,210.000001788139,0|2,1:0|1:0,0:0:0:0:
188,316,7348,2,0,B|151:249|104:204|104:204|104:124,1,210.000001788139,0|2,1:0|1:0,0:0:0:0:
156,88,8689,5,0,1:0:0:0:
296,88,9360,1,0,0:0:0:0:
408,172,10030,1,0,1:0:0:0:
208,104,11371,6,0,P|160:192|208:280,1,210.000001788139,0|2,1:0|1:0,0:0:0:0:
303,280,12712,2,0,P|351:192|303:103,1,210.000001788139,0|2,1:0|1:0,0:0:0:0:
240,156,14052,5,0,1:0:0:0:
141,57,14723,1,0,0:0:0:0:
44,156,15393,1,0,1:0:0:0:
142,254,16063,1,0,0:0:0:0:
260,332,16734,6,0,P|351:330|388:232,1,210.000001788139,0|2,1:0|1:0,0:0:0:0:
388,160,18075,2,0,P|359:65|260:58,1,210.000001788139,0|2,1:0|1:0,0:0:0:0:
200,92,19415,5,0,1:0:0:0:
288,200,20086,2,0,P|304:264|256:312,2,140.000001192093,2|2|0,0:0|1:0|0:0,0:0:0:0:
200,92,22097,5,0,1:0:0:0:
340,108,22767,1,0,1:0:0:0:
368,244,23438,2,0,P|228:296|172:284,1,210.000001788139,0|2,1:0|1:0,0:0:0:0:
112,248,24779,5,0,1:0:0:0:
196,136,25449,1,0,1:0:0:0:
336,136,26119,2,2,P|363:73|424:44,1,140.000001192093,2|2,1:0|1:0,0:0:0:0:
425,184,27460,5,0,1:0:0:0:
425,324,28131,1,0,1:0:0:0:
285,324,28801,2,0,B|253:296|221:296|221:296|221:220,1,140.000001192093,2|2,1:0|1:0,0:0:0:0:
309,116,30142,5,0,1:0:0:0:
397,224,30812,1,0,1:0:0:0:
329,344,31482,2,0,B|367:342|400:353|400:353|442:300,1,140.000001192093,2|2,1:0|1:0,0:0:0:0:
300,243,32823,5,0,1:0:0:0:
160,243,33494,1,0,1:0:0:0:
164,103,34164,2,0,P|236:75|300:75,1,140.000001192093,0|0,1:0|1:0,0:0:0:0:
432,119,35505,5,0,1:0:0:0:
432,259,36175,1,0,1:0:0:0:
292,259,36846,2,0,B|232:251|268:163|204:147,1,140.000001192093,2|2,1:0|1:0,0:0:0:0:
128,43,38186,5,0,1:0:0:0:
268,43,38857,1,0,1:0:0:0:
408,43,39527,2,0,P|448:59|472:75,2,70.0000005960464,2|2|2,1:0|0:0|1:0,0:0:0:0:
268,43,40868,5,0,1:0:0:0:
268,183,41538,2,0,L|319:234,1,70.0000005960464,2|2,1:0|1:0,0:0:0:0:
256,192,42209,12,0,46231,1:0:0:0:
204,144,47572,5,0,1:0:0:0:
304,240,48242,1,0,0:0:0:0:
256,192,48913,12,0,50924,0:1:0:0:
116,52,54276,6,0,L|116:192,1,140.000001192093,0|0,1:1|0:1,0:0:0:0:
116,332,55617,1,0,1:1:0:0:
256,332,56287,1,0,0:1:0:0:
396,332,56957,6,0,L|396:192,1,140.000001192093,0|0,1:1|0:1,0:0:0:0:
256,192,58298,2,0,L|256:332,1,140.000001192093,0|0,1:1|0:1,0:0:0:0:
396,332,59639,5,0,1:1:0:0:
396,192,60309,1,0,0:1:0:0:
396,52,60980,2,0,L|256:52,1,140.000001192093,0|0,1:1|0:1,0:0:0:0:
256,192,62320,6,0,L|404:192,1,140.000001192093,0|0,1:1|0:1,0:0:0:0:
396,332,63661,1,2,1:1:0:0:
116,332,65002,5,2,1:0:0:0:
116,192,65672,1,0,1:0:0:0:
116,52,66343,2,0,L|256:52,1,140.000001192093,0|0,1:0|1:0,0:0:0:0:
356,148,67684,5,0,1:0:0:0:
428,268,68354,1,0,1:0:0:0:
288,268,69024,2,0,B|285:307|260:332|260:332|225:321|188:332,1,140.000001192093,2|2,1:0|1:0,0:0:0:0:
88,236,70365,5,0,1:0:0:0:
188,136,71036,1,0,1:0:0:0:
288,40,71706,2,0,P|356:56|400:108,1,140.000001192093,2|2,1:0|1:0,0:0:0:0:
400,248,73047,6,0,P|355:300|288:315,1,140.000001192093,0|0,1:0|1:0,0:0:0:0:
187,217,74388,2,0,P|190:145|235:97,1,140.000001192093,2|2,1:0|1:0,0:0:0:0:
374,108,75728,5,0,1:0:0:0:
282,212,76399,1,0,1:0:0:0:
337,340,77069,2,0,L|197:340,1,140.000001192093,0|0,1:0|1:0,0:0:0:0:
113,228,78410,5,0,1:0:0:0:
197,116,79080,1,0,1:0:0:0:
281,228,79751,2,0,P|309:292|369:332,1,140.000001192093,2|2,1:0|1:0,0:0:0:0:
469,240,81091,5,0,1:0:0:0:
469,100,81762,1,0,1:0:0:0:
329,100,82432,2,0,B|285:104|265:128|265:128|261:160|233:188,1,140.000001192093,2|2,1:0|1:0,0:0:0:0:
153,300,83773,5,0,1:0:0:0:
281,356,84443,1,2,1:0:0:0:
421,356,85114,2,0,B|453:335|469:304|469:304|449:236|469:164,1,210.000001788139,0|0,0:0|1:1,0:0:0:0:
464,56,86455,6,0,L|44:56,1,420.000003576278,0|0,1:1|0:1,0:0:0:0:
44,192,89136,6,0,P|252:208|464:192,1,420.000003576278,0|0,1:1|0:1,0:0:0:0:
460,332,91818,6,0,P|252:348|40:332,1,420.000003576278,0|0,1:1|0:1,0:0:0:0:
44,192,94499,6,0,P|176:232|308:192,2,280.000002384186,0|0|0,1:1|1:1|1:1,0:0:0:0:
44,52,97851,5,0,0:1:0:0:
184,52,98522,2,2,P|247:80|305:122,1,140.000001192093,0|0,1:1|0:1,0:0:0:0:
392,230,99862,6,0,P|272:310|140:334,2,280.000002384186,0|0|0,1:1|1:1|1:1,0:0:0:0:
471,114,103214,5,0,0:1:0:0:
344,56,103885,2,0,P|207:81|92:160,1,280.000002384186,0|0,1:1|1:1,0:0:0:0:
92,300,105896,5,0,0:1:0:0:
224,256,106566,2,0,P|220:188|196:120,1,140.000001192093,2|10,1:1|0:0,0:0:0:0:
60,148,107907,6,2,P|88:264|220:340,1,280.000002384186,2|2,1:0|1:0,0:0:0:0:
220,60,110589,2,2,P|368:84|436:188,1,280.000002384186,2|2,1:0|1:0,0:0:0:0:
196,328,113270,6,2,P|146:280|137:212,1,140.000001192093,0|2,1:0|1:0,0:0:0:0:
188,84,114611,2,2,P|250:49|315:59,1,140.000001192093,0|2,1:0|1:0,0:0:0:0:
428,140,115952,5,0,1:0:0:0:
428,280,116622,1,2,1:0:0:0:
288,280,117293,2,2,P|220:248|196:192,1,140.000001192093,2|0,1:0|0:0,0:0:0:0:
272,72,118633,6,0,B|339:50|339:50|408:88,2,140.000001192093,2|2|2,1:0|1:0|1:0,0:0:0:0:
48,240,121315,2,0,B|76:304|76:304|144:328,2,140.000001192093,2|2|2,1:0|1:0|1:0,0:0:0:0:
248,44,123996,6,0,B|317:32|317:32|386:42,1,140.000001192093,2|2,1:0|1:0,0:0:0:0:
445,169,125337,2,2,B|378:193|378:193|305:193,1,140.000001192093,2|2,1:0|0:0,0:0:0:0:
256,64,126678,6,0,B|203:110|203:110|172:184,2,140.000001192093,0|2|12,1:0|1:0|0:0,0:0:0:0:
384,64,129360,5,0,1:0:0:0:
256,64,130030,1,0,0:0:0:0:
128,64,130700,1,0,1:0:0:0:
128,320,132041,5,0,1:0:0:0:
256,320,132712,1,0,0:0:0:0:
384,320,133382,1,8,1:0:0:0:
384,64,134723,5,0,1:0:0:0:
384,192,135393,1,0,0:0:0:0:
256,192,136063,2,0,L|160:192,2,70.0000005960464,8|8|8,1:0|1:0|0:0,0:0:0:0:
384,192,137404,5,0,1:0:0:0:
384,64,138075,1,8,1:0:0:0:
256,64,138745,1,12,0:0:0:0:
128,64,140086,5,10,0:1:0:0:
128,192,140756,1,10,0:1:0:0:
128,320,141427,2,0,L|268:320,1,140.000001192093,10|14,0:1|0:1,0:0:0:0:
416,320,142767,5,10,0:1:0:0:
416,192,143438,1,10,0:1:0:0:
416,64,144108,2,8,L|308:64,1,105.00000089407,10|14,0:1|1:1,0:0:0:0:
128,64,145449,6,10,L|128:204,1,140.000001192093,10|10,0:1|0:1,0:0:0:0:
128,276,146455,1,10,0:1:0:0:
196,276,146790,2,10,B|235:267|268:276|268:276|288:252|320:232,1,140.000001192093,10|14,0:1|0:1,0:0:0:0:
388,212,147795,1,10,1:1:0:0:
460,208,148131,6,10,B|444:128|356:144,1,140.000001192093,10|10,1:1|1:1,0:0:0:0:
308,196,149136,1,14,1:1:0:0:
256,192,149471,12,4,153494,0:0:0:0:
64,64,154834,5,0,1:0:0:0:
64,203,155504,1,0,0:0:0:0:
204,203,156175,6,0,B|277:215|336:170|336:170|374:228,1,210.000001788139,0|8,1:0|1:0,0:0:0:0:
402,292,157516,6,0,B|332:316|266:282|266:282|238:346,1,210.000001788139,0|8,1:0|1:0,0:0:0:0:
170,333,158856,5,0,1:0:0:0:
170,192,159527,1,0,0:0:0:0:
309,192,160197,1,0,1:0:0:0:
416,64,161538,6,0,B|384:128|384:128|320:96|320:96|288:160,1,210.000001788139,0|8,1:0|1:0,0:0:0:0:
289,225,162879,2,0,B|225:246|225:246|202:178|202:178|135:200,1,210.000001788139,0|8,1:0|1:0,0:0:0:0:
68,222,164219,5,0,1:0:0:0:
164,323,164890,1,0,0:0:0:0:
303,323,165560,1,0,1:0:0:0:
303,183,166230,1,0,0:0:0:0:
162,184,166901,2,0,B|162:325|162:325|231:325,1,210.000001788139,0|8,1:0|1:0,0:0:0:0:
232,254,168242,2,0,B|232:113|232:113|163:113,1,210.000001788139,0|8,1:0|1:0,0:0:0:0:
92,116,169583,5,0,1:0:0:0:
92,255,170253,2,0,P|108:320|180:332,2,140.000001192093,2|2|0,0:0|1:0|0:0,0:0:0:0:
92,116,172265,5,0,1:0:0:0:
