osu file format v14

[General]
AudioFilename: audio.mp3
AudioLeadIn: 0
PreviewTime: 4142
Countdown: 0
SampleSet: Drum
StackLeniency: 0.7
Mode: 3
LetterboxInBreaks: 0
SpecialStyle: 0
WidescreenStoryboard: 0

[Editor]
DistanceSpacing: 0.8
BeatDivisor: 4
GridSize: 16
TimelineZoom: 2.5

[Metadata]
Title:Eiya no Mukui ~ Imperishable Night
TitleUnicode:永夜の報い ~ Imperishable Night
Artist:ZUN
ArtistUnicode:ZUN
Creator:jianfeng
Version:Lunatic
Source:東方永夜抄 ~ Imperishable Night.
Tags:th8 touhou eiyashou 東方Project Project IN team shanghai alice retribution for the eternal night hakurei reimu marisa kirisame 博麗 霊夢 霧雨 魔理沙 video game
BeatmapID:5301933
BeatmapSetID:2433161

[Difficulty]
HPDrainRate:8
CircleSize:4
OverallDifficulty:8
ApproachRate:5
SliderMultiplier:1.4
SliderTickRate:1

[Events]
//Background and Video events
0,0,"bg.jpg",0,0
//Break Periods
//Storyboard Layer 0 (Background)
//Storyboard Layer 1 (Fail)
//Storyboard Layer 2 (Pass)
//Storyboard Layer 3 (Foreground)
//Storyboard Layer 4 (Overlay)
//Storyboard Sound Samples

[TimingPoints]
17,375,4,3,1,20,1,0
4142,-100,4,3,1,20,0,1
37142,-100,4,3,1,20,0,0
91142,-100,4,3,1,20,0,1
124142,-100,4,3,1,20,0,0

[HitObjects]
64,192,17,5,0,0:0:0:0:
448,192,17,1,0,0:0:0:0:
192,192,204,1,0,0:0:0:0:
64,192,392,1,0,0:0:0:0:
448,192,579,1,0,0:0:0:0:
192,192,579,1,0,0:0:0:0:
64,192,767,1,0,0:0:0:0:
320,192,954,1,0,0:0:0:0:
64,192,1142,1,0,0:0:0:0:
192,192,1188,1,0,0:0:0:0:
320,192,1235,1,0,0:0:0:0:
448,192,1282,1,0,0:0:0:0:
64,192,1329,1,0,0:0:0:0:
448,192,1423,1,0,0:0:0:0:
320,192,1470,1,0,0:0:0:0:
192,192,1517,1,0,0:0:0:0:
320,192,1704,1,0,0:0:0:0:
64,192,1704,1,0,0:0:0:0:
192,192,1892,1,0,0:0:0:0:
448,192,1985,1,0,0:0:0:0:
192,192,2079,1,0,0:0:0:0:
64,192,2079,1,0,0:0:0:0:
320,192,2173,1,0,0:0:0:0:
448,192,2267,1,0,0:0:0:0:
192,192,2454,1,0,0:0:0:0:
64,192,2548,1,0,0:0:0:0:
320,192,2642,1,0,0:0:0:0:
448,192,2642,1,0,0:0:0:0:
192,192,2829,1,0,0:0:0:0:
64,192,2829,1,0,0:0:0:0:
448,192,2923,1,0,0:0:0:0:
320,192,3017,1,0,0:0:0:0:
192,192,3110,1,0,0:0:0:0:
64,192,3110,1,0,0:0:0:0:
448,192,3204,1,0,0:0:0:0:
320,192,3204,1,0,0:0:0:0:
192,192,3298,1,0,0:0:0:0:
64,192,3298,1,0,0:0:0:0:
320,192,3392,1,0,0:0:0:0:
448,192,3392,1,0,0:0:0:0:
192,192,3485,1,0,0:0:0:0:
320,192,3579,1,0,0:0:0:0:
64,192,3673,1,0,0:0:0:0:
192,192,3720,1,0,0:0:0:0:
320,192,3767,1,0,0:0:0:0:
448,192,3767,1,0,0:0:0:0:
64,192,3860,1,0,0:0:0:0:
192,192,3860,1,0,0:0:0:0:
320,192,3954,1,0,0:0:0:0:
448,192,3954,1,0,0:0:0:0:
192,192,4048,1,0,0:0:0:0:
64,192,4048,1,0,0:0:0:0:
64,192,4142,1,0,0:0:0:0:
448,192,4142,1,0,0:0:0:0:
448,192,4329,1,0,0:0:0:0:
192,192,4329,1,0,0:0:0:0:
320,192,4329,1,0,0:0:0:0:
64,192,4517,1,0,0:0:0:0:
320,192,4517,1,0,0:0:0:0:
64,192,4704,1,0,0:0:0:0:
192,192,4704,1,0,0:0:0:0:
320,192,4798,1,0,0:0:0:0:
64,192,4892,1,0,0:0:0:0:
192,192,4892,1,0,0:0:0:0:
320,192,4985,1,0,0:0:0:0:
64,192,5079,1,0,0:0:0:0:
192,192,5079,1,0,0:0:0:0:
448,192,5267,1,0,0:0:0:0:
320,192,5267,1,0,0:0:0:0:
64,192,5454,1,0,0:0:0:0:
192,192,5454,1,0,0:0:0:0:
448,192,5454,1,0,0:0:0:0:
64,192,5642,1,0,0:0:0:0:
320,192,5642,1,0,0:0:0:0:
192,192,5735,1,0,0:0:0:0:
448,192,5829,1,0,0:0:0:0:
320,192,5829,1,0,0:0:0:0:
64,192,5923,1,0,0:0:0:0:
320,192,6017,1,0,0:0:0:0:
448,192,6017,1,0,0:0:0:0:
192,192,6110,1,0,0:0:0:0:
64,192,6110,1,0,0:0:0:0:
320,192,6204,1,0,0:0:0:0:
448,192,6204,1,0,0:0:0:0:
448,192,6392,1,0,0:0:0:0:
64,192,6392,1,0,0:0:0:0:
192,192,6485,1,0,0:0:0:0:
64,192,6579,1,0,0:0:0:0:
320,192,6579,1,0,0:0:0:0:
448,192,6579,1,0,0:0:0:0:
192,192,6767,1,0,0:0:0:0:
320,192,6767,1,0,0:0:0:0:
64,192,6954,1,0,0:0:0:0:
448,192,6954,1,0,0:0:0:0:
192,192,6954,1,0,0:0:0:0:
64,192,7142,1,0,0:0:0:0:
192,192,7142,1,0,0:0:0:0:
64,192,7235,1,0,0:0:0:0:
320,192,7235,1,0,0:0:0:0:
320,192,7329,1,0,0:0:0:0:
448,192,7329,1,0,0:0:0:0:
448,192,7423,1,0,0:0:0:0:
192,192,7423,1,0,0:0:0:0:
192,192,7517,1,0,0:0:0:0:
64,192,7517,128,0,7704:0:0:0:0:
448,192,7610,1,0,0:0:0:0:
320,192,7704,1,0,0:0:0:0:
448,192,7892,128,0,8079:0:0:0:0:
192,192,7892,1,0,0:0:0:0:
320,192,7985,1,0,0:0:0:0:
64,192,8079,1,0,0:0:0:0:
192,192,8173,1,0,0:0:0:0:
448,192,8267,1,0,0:0:0:0:
320,192,8267,1,0,0:0:0:0:
64,192,8454,1,0,0:0:0:0:
320,192,8454,1,0,0:0:0:0:
448,192,8454,1,0,0:0:0:0:
64,192,8642,1,0,0:0:0:0:
192,192,8642,1,0,0:0:0:0:
448,192,8829,1,0,0:0:0:0:
320,192,8829,1,0,0:0:0:0:
192,192,8923,1,0,0:0:0:0:
448,192,9017,1,0,0:0:0:0:
320,192,9017,1,0,0:0:0:0:
192,192,9110,1,0,0:0:0:0:
448,192,9204,1,0,0:0:0:0:
64,192,9204,1,0,0:0:0:0:
64,192,9392,1,0,0:0:0:0:
192,192,9392,1,0,0:0:0:0:
448,192,9579,1,0,0:0:0:0:
320,192,9579,1,0,0:0:0:0:
192,192,9579,1,0,0:0:0:0:
448,192,9767,1,0,0:0:0:0:
64,192,9767,1,0,0:0:0:0:
320,192,9860,1,0,0:0:0:0:
64,192,9954,1,0,0:0:0:0:
192,192,9954,1,0,0:0:0:0:
448,192,10048,1,0,0:0:0:0:
192,192,10142,1,0,0:0:0:0:
64,192,10142,1,0,0:0:0:0:
320,192,10235,1,0,0:0:0:0:
448,192,10235,1,0,0:0:0:0:
192,192,10329,1,0,0:0:0:0:
64,192,10329,1,0,0:0:0:0:
192,192,10517,1,0,0:0:0:0:
320,192,10517,1,0,0:0:0:0:
448,192,10610,1,0,0:0:0:0:
320,192,10704,1,0,0:0:0:0:
192,192,10704,1,0,0:0:0:0:
64,192,10704,1,0,0:0:0:0:
64,192,10892,1,0,0:0:0:0:
192,192,10892,1,0,0:0:0:0:
448,192,11079,1,0,0:0:0:0:
64,192,11079,1,0,0:0:0:0:
320,192,11079,1,0,0:0:0:0:
448,192,11267,1,0,0:0:0:0:
320,192,11267,1,0,0:0:0:0:
448,192,11360,1,0,0:0:0:0:
192,192,11360,1,0,0:0:0:0:
192,192,11454,1,0,0:0:0:0:
64,192,11454,1,0,0:0:0:0:
64,192,11548,1,0,0:0:0:0:
320,192,11548,1,0,0:0:0:0:
320,192,11642,1,0,0:0:0:0:
448,192,11642,128,0,11829:0:0:0:0:
192,192,11735,1,0,0:0:0:0:
64,192,11829,1,0,0:0:0:0:
320,192,11923,1,0,0:0:0:0:
64,192,12017,128,0,12204:0:0:0:0:
448,192,12017,1,0,0:0:0:0:
192,192,12110,1,0,0:0:0:0:
448,192,12204,1,0,0:0:0:0:
320,192,12298,1,0,0:0:0:0:
192,192,12392,1,0,0:0:0:0:
64,192,12392,1,0,0:0:0:0:
64,192,12579,1,0,0:0:0:0:
320,192,12579,1,0,0:0:0:0:
192,192,12579,1,0,0:0:0:0:
448,192,12767,1,0,0:0:0:0:
64,192,12767,1,0,0:0:0:0:
448,192,12954,1,0,0:0:0:0:
320,192,12954,1,0,0:0:0:0:
192,192,13048,1,0,0:0:0:0:
448,192,13142,1,0,0:0:0:0:
320,192,13142,1,0,0:0:0:0:
192,192,13235,1,0,0:0:0:0:
448,192,13329,1,0,0:0:0:0:
320,192,13329,1,0,0:0:0:0:
64,192,13517,1,0,0:0:0:0:
192,192,13517,1,0,0:0:0:0:
448,192,13704,1,0,0:0:0:0:
320,192,13704,1,0,0:0:0:0:
64,192,13704,1,0,0:0:0:0:
448,192,13892,1,0,0:0:0:0:
192,192,13892,1,0,0:0:0:0:
320,192,13985,1,0,0:0:0:0:
64,192,14079,1,0,0:0:0:0:
192,192,14079,1,0,0:0:0:0:
448,192,14173,1,0,0:0:0:0:
192,192,14267,1,0,0:0:0:0:
64,192,14267,1,0,0:0:0:0:
320,192,14360,1,0,0:0:0:0:
448,192,14360,1,0,0:0:0:0:
192,192,14454,1,0,0:0:0:0:
64,192,14454,1,0,0:0:0:0:
64,192,14642,1,0,0:0:0:0:
448,192,14642,1,0,0:0:0:0:
320,192,14735,1,0,0:0:0:0:
448,192,14829,1,0,0:0:0:0:
192,192,14829,1,0,0:0:0:0:
64,192,14829,1,0,0:0:0:0:
320,192,15017,1,0,0:0:0:0:
192,192,15017,1,0,0:0:0:0:
448,192,15204,1,0,0:0:0:0:
64,192,15204,1,0,0:0:0:0:
320,192,15204,1,0,0:0:0:0:
448,192,15392,1,0,0:0:0:0:
320,192,15392,1,0,0:0:0:0:
448,192,15485,1,0,0:0:0:0:
192,192,15485,1,0,0:0:0:0:
192,192,15579,1,0,0:0:0:0:
64,192,15579,1,0,0:0:0:0:
64,192,15673,1,0,0:0:0:0:
320,192,15673,1,0,0:0:0:0:
320,192,15767,1,0,0:0:0:0:
448,192,15767,128,0,15954:0:0:0:0:
192,192,15860,1,0,0:0:0:0:
64,192,15954,1,0,0:0:0:0:
320,192,16048,1,0,0:0:0:0:
64,192,16142,128,0,16329:0:0:0:0:
192,192,16142,1,0,0:0:0:0:
448,192,16235,1,0,0:0:0:0:
320,192,16329,1,0,0:0:0:0:
192,192,16423,1,0,0:0:0:0:
64,192,16517,1,0,0:0:0:0:
320,192,16517,1,0,0:0:0:0:
448,192,16704,1,0,0:0:0:0:
192,192,16704,1,0,0:0:0:0:
64,192,16704,1,0,0:0:0:0:
448,192,16892,1,0,0:0:0:0:
320,192,16892,1,0,0:0:0:0:
64,192,17079,1,0,0:0:0:0:
192,192,17079,1,0,0:0:0:0:
320,192,17173,1,0,0:0:0:0:
64,192,17267,1,0,0:0:0:0:
192,192,17267,1,0,0:0:0:0:
320,192,17360,1,0,0:0:0:0:
64,192,17454,1,0,0:0:0:0:
448,192,17454,1,0,0:0:0:0:
448,192,17642,1,0,0:0:0:0:
320,192,17642,1,0,0:0:0:0:
64,192,17829,1,0,0:0:0:0:
192,192,17829,1,0,0:0:0:0:
320,192,17829,1,0,0:0:0:0:
64,192,18017,1,0,0:0:0:0:
448,192,18017,1,0,0:0:0:0:
192,192,18110,1,0,0:0:0:0:
448,192,18204,1,0,0:0:0:0:
320,192,18204,1,0,0:0:0:0:
64,192,18298,1,0,0:0:0:0:
320,192,18392,1,0,0:0:0:0:
448,192,18392,1,0,0:0:0:0:
192,192,18485,1,0,0:0:0:0:
64,192,18485,1,0,0:0:0:0:
320,192,18579,1,0,0:0:0:0:
448,192,18579,1,0,0:0:0:0:
320,192,18767,1,0,0:0:0:0:
192,192,18767,1,0,0:0:0:0:
64,192,18860,1,0,0:0:0:0:
192,192,18954,1,0,0:0:0:0:
320,192,18954,1,0,0:0:0:0:
448,192,18954,1,0,0:0:0:0:
448,192,19142,1,0,0:0:0:0:
320,192,19142,1,0,0:0:0:0:
64,192,19329,1,0,0:0:0:0:
448,192,19329,1,0,0:0:0:0:
192,192,19329,1,0,0:0:0:0:
64,192,19517,1,0,0:0:0:0:
192,192,19517,1,0,0:0:0:0:
64,192,19610,1,0,0:0:0:0:
320,192,19610,1,0,0:0:0:0:
320,192,19704,1,0,0:0:0:0:
448,192,19704,1,0,0:0:0:0:
448,192,19798,1,0,0:0:0:0:
192,192,19798,1,0,0:0:0:0:
192,192,19892,1,0,0:0:0:0:
64,192,19892,128,0,20079:0:0:0:0:
448,192,19985,1,0,0:0:0:0:
320,192,20079,1,0,0:0:0:0:
192,192,20173,1,0,0:0:0:0:
448,192,20267,128,0,20454:0:0:0:0:
64,192,20267,1,0,0:0:0:0:
320,192,20360,1,0,0:0:0:0:
64,192,20454,1,0,0:0:0:0:
64,192,20642,1,0,0:0:0:0:
192,192,20642,1,0,0:0:0:0:
448,192,20642,1,0,0:0:0:0:
192,192,20829,1,0,0:0:0:0:
320,192,20829,1,0,0:0:0:0:
64,192,21017,1,0,0:0:0:0:
448,192,21017,1,0,0:0:0:0:
192,192,21017,1,0,0:0:0:0:
448,192,21110,1,0,0:0:0:0:
64,192,21204,1,0,0:0:0:0:
320,192,21204,1,0,0:0:0:0:
192,192,21392,1,0,0:0:0:0:
64,192,21392,1,0,0:0:0:0:
448,192,21392,1,0,0:0:0:0:
320,192,21485,1,0,0:0:0:0:
192,192,21579,1,0,0:0:0:0:
448,192,21579,1,0,0:0:0:0:
64,192,21673,1,0,0:0:0:0:
320,192,21767,1,0,0:0:0:0:
448,192,21767,1,0,0:0:0:0:
64,192,21954,1,0,0:0:0:0:
192,192,21954,1,0,0:0:0:0:
64,192,22142,1,0,0:0:0:0:
320,192,22142,1,0,0:0:0:0:
448,192,22142,1,0,0:0:0:0:
192,192,22329,1,0,0:0:0:0:
448,192,22329,1,0,0:0:0:0:
64,192,22517,1,0,0:0:0:0:
320,192,22517,1,0,0:0:0:0:
192,192,22517,1,0,0:0:0:0:
64,192,22610,1,0,0:0:0:0:
448,192,22704,1,0,0:0:0:0:
320,192,22704,1,0,0:0:0:0:
64,192,22892,1,0,0:0:0:0:
320,192,22892,1,0,0:0:0:0:
448,192,22892,1,0,0:0:0:0:
192,192,23079,1,0,0:0:0:0:
64,192,23079,1,0,0:0:0:0:
192,192,23267,1,0,0:0:0:0:
448,192,23267,1,0,0:0:0:0:
320,192,23267,1,0,0:0:0:0:
448,192,23360,1,0,0:0:0:0:
320,192,23454,1,0,0:0:0:0:
64,192,23454,1,0,0:0:0:0:
64,192,23642,1,0,0:0:0:0:
448,192,23642,1,0,0:0:0:0:
320,192,23735,1,0,0:0:0:0:
192,192,23829,1,0,0:0:0:0:
64,192,23829,1,0,0:0:0:0:
448,192,23923,1,0,0:0:0:0:
320,192,24017,1,0,0:0:0:0:
64,192,24017,1,0,0:0:0:0:
192,192,24110,1,0,0:0:0:0:
448,192,24204,1,0,0:0:0:0:
320,192,24204,1,0,0:0:0:0:
192,192,24298,1,0,0:0:0:0:
64,192,24392,1,0,0:0:0:0:
448,192,24392,1,0,0:0:0:0:
320,192,24485,1,0,0:0:0:0:
192,192,24579,1,0,0:0:0:0:
64,192,24579,1,0,0:0:0:0:
448,192,24673,1,0,0:0:0:0:
320,192,24767,1,0,0:0:0:0:
64,192,24767,1,0,0:0:0:0:
192,192,24767,1,0,0:0:0:0:
320,192,24954,1,0,0:0:0:0:
448,192,24954,1,0,0:0:0:0:
192,192,25142,1,0,0:0:0:0:
64,192,25142,1,0,0:0:0:0:
448,192,25142,1,0,0:0:0:0:
64,192,25235,1,0,0:0:0:0:
448,192,25329,1,0,0:0:0:0:
320,192,25329,1,0,0:0:0:0:
320,192,25517,1,0,0:0:0:0:
192,192,25517,1,0,0:0:0:0:
64,192,25517,1,0,0:0:0:0:
64,192,25610,1,0,0:0:0:0:
320,192,25704,1,0,0:0:0:0:
448,192,25704,1,0,0:0:0:0:
192,192,25798,1,0,0:0:0:0:
448,192,25892,1,0,0:0:0:0:
64,192,25892,1,0,0:0:0:0:
448,192,26079,1,0,0:0:0:0:
320,192,26079,1,0,0:0:0:0:
320,192,26267,1,0,0:0:0:0:
192,192,26267,1,0,0:0:0:0:
64,192,26267,1,0,0:0:0:0:
192,192,26454,1,0,0:0:0:0:
320,192,26454,1,0,0:0:0:0:
448,192,26642,1,0,0:0:0:0:
192,192,26642,1,0,0:0:0:0:
64,192,26642,1,0,0:0:0:0:
448,192,26735,1,0,0:0:0:0:
64,192,26829,1,0,0:0:0:0:
320,192,26829,1,0,0:0:0:0:
448,192,27017,1,0,0:0:0:0:
320,192,27017,1,0,0:0:0:0:
64,192,27017,1,0,0:0:0:0:
192,192,27204,1,0,0:0:0:0:
320,192,27204,1,0,0:0:0:0:
448,192,27392,1,0,0:0:0:0:
64,192,27392,1,0,0:0:0:0:
192,192,27392,1,0,0:0:0:0:
448,192,27485,1,0,0:0:0:0:
192,192,27579,1,0,0:0:0:0:
320,192,27579,1,0,0:0:0:0:
448,192,27767,1,0,0:0:0:0:
64,192,27767,1,0,0:0:0:0:
192,192,27860,1,0,0:0:0:0:
320,192,27954,1,0,0:0:0:0:
448,192,27954,1,0,0:0:0:0:
64,192,28048,1,0,0:0:0:0:
192,192,28142,1,0,0:0:0:0:
448,192,28142,1,0,0:0:0:0:
320,192,28235,1,0,0:0:0:0:
64,192,28329,1,0,0:0:0:0:
192,192,28329,1,0,0:0:0:0:
320,192,28423,1,0,0:0:0:0:
448,192,28517,1,0,0:0:0:0:
64,192,28517,1,0,0:0:0:0:
192,192,28610,1,0,0:0:0:0:
320,192,28704,1,0,0:0:0:0:
448,192,28704,1,0,0:0:0:0:
64,192,28798,1,0,0:0:0:0:
192,192,28892,1,0,0:0:0:0:
320,192,28892,1,0,0:0:0:0:
448,192,28892,1,0,0:0:0:0:
320,192,29079,1,0,0:0:0:0:
192,192,29079,1,0,0:0:0:0:
448,192,29267,1,0,0:0:0:0:
64,192,29267,1,0,0:0:0:0:
320,192,29267,1,0,0:0:0:0:
64,192,29360,1,0,0:0:0:0:
448,192,29454,1,0,0:0:0:0:
192,192,29454,1,0,0:0:0:0:
320,192,29642,1,0,0:0:0:0:
448,192,29642,1,0,0:0:0:0:
64,192,29642,1,0,0:0:0:0:
192,192,29735,1,0,0:0:0:0:
320,192,29829,1,0,0:0:0:0:
64,192,29829,1,0,0:0:0:0:
448,192,29923,1,0,0:0:0:0:
192,192,30017,1,0,0:0:0:0:
64,192,30017,1,0,0:0:0:0:
448,192,30204,1,0,0:0:0:0:
320,192,30204,1,0,0:0:0:0:
448,192,30392,1,0,0:0:0:0:
192,192,30392,1,0,0:0:0:0:
64,192,30392,1,0,0:0:0:0:
320,192,30579,1,0,0:0:0:0:
64,192,30579,1,0,0:0:0:0:
448,192,30767,1,0,0:0:0:0:
192,192,30767,1,0,0:0:0:0:
320,192,30767,1,0,0:0:0:0:
448,192,30860,1,0,0:0:0:0:
64,192,30954,1,0,0:0:0:0:
192,192,30954,1,0,0:0:0:0:
448,192,31142,1,0,0:0:0:0:
192,192,31142,1,0,0:0:0:0:
64,192,31142,1,0,0:0:0:0:
320,192,31329,1,0,0:0:0:0:
448,192,31329,1,0,0:0:0:0:
320,192,31517,1,0,0:0:0:0:
64,192,31517,1,0,0:0:0:0:
192,192,31517,1,0,0:0:0:0:
64,192,31610,1,0,0:0:0:0:
192,192,31704,1,0,0:0:0:0:
448,192,31704,1,0,0:0:0:0:
448,192,31892,1,0,0:0:0:0:
64,192,31892,1,0,0:0:0:0:
192,192,31985,1,0,0:0:0:0:
320,192,32079,1,0,0:0:0:0:
448,192,32079,1,0,0:0:0:0:
64,192,32173,1,0,0:0:0:0:
192,192,32267,1,0,0:0:0:0:
448,192,32267,1,0,0:0:0:0:
320,192,32360,1,0,0:0:0:0:
64,192,32454,1,0,0:0:0:0:
192,192,32454,1,0,0:0:0:0:
320,192,32548,1,0,0:0:0:0:
448,192,32642,1,0,0:0:0:0:
64,192,32642,1,0,0:0:0:0:
192,192,32735,1,0,0:0:0:0:
320,192,32829,1,0,0:0:0:0:
448,192,32829,1,0,0:0:0:0:
64,192,32923,1,0,0:0:0:0:
192,192,33017,1,0,0:0:0:0:
448,192,33017,1,0,0:0:0:0:
320,192,33017,1,0,0:0:0:0:
192,192,33204,1,0,0:0:0:0:
64,192,33204,1,0,0:0:0:0:
320,192,33392,1,0,0:0:0:0:
448,192,33392,1,0,0:0:0:0:
64,192,33392,1,0,0:0:0:0:
448,192,33485,1,0,0:0:0:0:
64,192,33579,1,0,0:0:0:0:
192,192,33579,1,0,0:0:0:0:
192,192,33767,1,0,0:0:0:0:
320,192,33767,1,0,0:0:0:0:
448,192,33767,1,0,0:0:0:0:
448,192,33860,1,0,0:0:0:0:
192,192,33954,1,0,0:0:0:0:
64,192,33954,1,0,0:0:0:0:
320,192,34048,1,0,0:0:0:0:
64,192,34142,1,0,0:0:0:0:
448,192,34142,1,0,0:0:0:0:
64,192,34329,1,0,0:0:0:0:
192,192,34329,1,0,0:0:0:0:
192,192,34517,1,0,0:0:0:0:
320,192,34517,1,0,0:0:0:0:
448,192,34517,1,0,0:0:0:0:
320,192,34704,1,0,0:0:0:0:
192,192,34704,1,0,0:0:0:0:
64,192,34892,1,0,0:0:0:0:
320,192,34892,1,0,0:0:0:0:
448,192,34892,1,0,0:0:0:0:
64,192,34985,1,0,0:0:0:0:
448,192,35079,1,0,0:0:0:0:
192,192,35079,1,0,0:0:0:0:
64,192,35267,1,0,0:0:0:0:
192,192,35267,1,0,0:0:0:0:
448,192,35267,1,0,0:0:0:0:
320,192,35454,1,0,0:0:0:0:
192,192,35454,1,0,0:0:0:0:
64,192,35642,1,0,0:0:0:0:
448,192,35642,1,0,0:0:0:0:
320,192,35642,1,0,0:0:0:0:
64,192,35735,1,0,0:0:0:0:
320,192,35829,1,0,0:0:0:0:
192,192,35829,1,0,0:0:0:0:
64,192,36017,1,0,0:0:0:0:
448,192,36017,1,0,0:0:0:0:
320,192,36110,1,0,0:0:0:0:
192,192,36204,1,0,0:0:0:0:
64,192,36204,1,0,0:0:0:0:
320,192,36298,1,0,0:0:0:0:
448,192,36298,1,0,0:0:0:0:
192,192,36392,1,0,0:0:0:0:
64,192,36392,1,0,0:0:0:0:
320,192,36485,1,0,0:0:0:0:
448,192,36485,1,0,0:0:0:0:
192,192,36579,1,0,0:0:0:0:
64,192,36579,1,0,0:0:0:0:
320,192,36673,1,0,0:0:0:0:
448,192,36673,1,0,0:0:0:0:
192,192,36767,1,0,0:0:0:0:
64,192,36767,1,0,0:0:0:0:
320,192,36860,1,0,0:0:0:0:
448,192,36860,1,0,0:0:0:0:
192,192,36954,1,0,0:0:0:0:
64,192,36954,1,0,0:0:0:0:
320,192,37048,1,0,0:0:0:0:
448,192,37048,1,0,0:0:0:0:
64,192,37142,128,0,37329:0:0:0:0:
448,192,37329,128,0,37517:0:0:0:0:
192,192,37517,128,0,37704:0:0:0:0:
64,192,37704,128,0,37892:0:0:0:0:
320,192,37892,1,0,0:0:0:0:
448,192,37892,1,0,0:0:0:0:
320,192,37985,1,0,0:0:0:0:
448,192,37985,1,0,0:0:0:0:
192,192,38079,1,0,0:0:0:0:
64,192,38079,1,0,0:0:0:0:
64,192,38267,1,0,0:0:0:0:
448,192,38267,1,0,0:0:0:0:
320,192,38360,1,0,0:0:0:0:
192,192,38454,1,0,0:0:0:0:
64,192,38454,1,0,0:0:0:0:
320,192,38548,1,0,0:0:0:0:
192,192,38642,1,0,0:0:0:0:
448,192,38642,1,0,0:0:0:0:
64,192,38735,1,0,0:0:0:0:
448,192,38829,1,0,0:0:0:0:
320,192,38829,1,0,0:0:0:0:
192,192,38923,1,0,0:0:0:0:
64,192,39017,1,0,0:0:0:0:
448,192,39017,1,0,0:0:0:0:
192,192,39110,1,0,0:0:0:0:
320,192,39204,1,0,0:0:0:0:
448,192,39204,1,0,0:0:0:0:
64,192,39392,128,0,39579:0:0:0:0:
320,192,39579,128,0,39767:0:0:0:0:
448,192,39767,128,0,39954:0:0:0:0:
320,192,39954,128,0,40142:0:0:0:0:
192,192,40142,1,0,0:0:0:0:
64,192,40142,1,0,0:0:0:0:
64,192,40235,1,0,0:0:0:0:
192,192,40235,1,0,0:0:0:0:
320,192,40329,1,0,0:0:0:0:
448,192,40329,1,0,0:0:0:0:
64,192,40517,1,0,0:0:0:0:
448,192,40517,1,0,0:0:0:0:
320,192,40610,1,0,0:0:0:0:
192,192,40704,1,0,0:0:0:0:
64,192,40704,1,0,0:0:0:0:
448,192,40798,1,0,0:0:0:0:
64,192,40892,1,0,0:0:0:0:
320,192,40892,1,0,0:0:0:0:
192,192,40985,1,0,0:0:0:0:
320,192,41079,1,0,0:0:0:0:
448,192,41079,1,0,0:0:0:0:
192,192,41173,1,0,0:0:0:0:
448,192,41267,128,0,41454:0:0:0:0:
64,192,41454,128,0,41642:0:0:0:0:
320,192,41642,128,0,41829:0:0:0:0:
192,192,41829,128,0,42017:0:0:0:0:
320,192,42017,1,0,0:0:0:0:
448,192,42017,1,0,0:0:0:0:
448,192,42110,1,0,0:0:0:0:
320,192,42110,1,0,0:0:0:0:
192,192,42204,1,0,0:0:0:0:
64,192,42204,1,0,0:0:0:0:
320,192,42392,1,0,0:0:0:0:
448,192,42392,1,0,0:0:0:0:
192,192,42485,1,0,0:0:0:0:
64,192,42579,1,0,0:0:0:0:
448,192,42579,1,0,0:0:0:0:
320,192,42673,1,0,0:0:0:0:
192,192,42767,1,0,0:0:0:0:
448,192,42767,1,0,0:0:0:0:
64,192,42860,1,0,0:0:0:0:
320,192,42954,1,0,0:0:0:0:
448,192,42954,1,0,0:0:0:0:
192,192,43048,1,0,0:0:0:0:
64,192,43142,1,0,0:0:0:0:
320,192,43142,1,0,0:0:0:0:
192,192,43235,1,0,0:0:0:0:
64,192,43329,1,0,0:0:0:0:
448,192,43329,1,0,0:0:0:0:
320,192,43423,1,0,0:0:0:0:
192,192,43517,1,0,0:0:0:0:
64,192,43610,1,0,0:0:0:0:
448,192,43704,1,0,0:0:0:0:
320,192,43798,1,0,0:0:0:0:
192,192,43892,128,0,44079:0:0:0:0:
64,192,44079,128,0,44267:0:0:0:0:
448,192,44079,1,0,0:0:0:0:
320,192,44267,128,0,44454:0:0:0:0:
448,192,44454,1,0,0:0:0:0:
192,192,44454,128,0,44642:0:0:0:0:
448,192,44642,1,0,0:0:0:0:
320,192,44735,1,0,0:0:0:0:
64,192,44829,1,0,0:0:0:0:
192,192,44923,1,0,0:0:0:0:
448,192,45017,1,0,0:0:0:0:
320,192,45063,1,0,0:0:0:0:
192,192,45110,1,0,0:0:0:0:
64,192,45157,1,0,0:0:0:0:
448,192,45204,1,0,0:0:0:0:
320,192,45251,1,0,0:0:0:0:
192,192,45298,1,0,0:0:0:0:
64,192,45345,1,0,0:0:0:0:
448,192,45392,128,0,45579:0:0:0:0:
192,192,45579,128,0,45767:0:0:0:0:
320,192,45579,1,0,0:0:0:0:
448,192,45767,128,0,45954:0:0:0:0:
64,192,45954,1,0,0:0:0:0:
320,192,45954,128,0,46142:0:0:0:0:
64,192,46142,128,0,46329:0:0:0:0:
192,192,46329,1,0,0:0:0:0:
448,192,46329,128,0,46517:0:0:0:0:
64,192,46517,1,0,0:0:0:0:
192,192,46517,1,0,0:0:0:0:
320,192,46610,1,0,0:0:0:0:
64,192,46704,1,0,0:0:0:0:
448,192,46704,1,0,0:0:0:0:
192,192,46798,1,0,0:0:0:0:
320,192,46892,1,0,0:0:0:0:
448,192,46892,1,0,0:0:0:0:
64,192,46985,1,0,0:0:0:0:
192,192,47079,1,0,0:0:0:0:
448,192,47079,1,0,0:0:0:0:
320,192,47173,1,0,0:0:0:0:
64,192,47267,1,0,0:0:0:0:
192,192,47267,1,0,0:0:0:0:
320,192,47360,1,0,0:0:0:0:
448,192,47454,1,0,0:0:0:0:
64,192,47642,128,0,47829:0:0:0:0:
192,192,47829,1,0,0:0:0:0:
448,192,47829,128,0,48017:0:0:0:0:
320,192,48017,128,0,48204:0:0:0:0:
64,192,48204,1,0,0:0:0:0:
192,192,48204,128,0,48392:0:0:0:0:
448,192,48392,128,0,48579:0:0:0:0:
320,192,48579,1,0,0:0:0:0:
64,192,48579,128,0,48767:0:0:0:0:
192,192,48767,1,0,0:0:0:0:
448,192,48767,1,0,0:0:0:0:
320,192,48860,1,0,0:0:0:0:
192,192,48954,1,0,0:0:0:0:
64,192,48954,1,0,0:0:0:0:
448,192,49048,1,0,0:0:0:0:
64,192,49142,1,0,0:0:0:0:
320,192,49142,1,0,0:0:0:0:
448,192,49235,1,0,0:0:0:0:
64,192,49329,1,0,0:0:0:0:
192,192,49329,1,0,0:0:0:0:
320,192,49423,128,0,49704:0:0:0:0:
192,192,49704,128,0,49892:0:0:0:0:
64,192,49704,1,0,0:0:0:0:
448,192,49892,128,0,50079:0:0:0:0:
320,192,50079,128,0,50267:0:0:0:0:
192,192,50079,1,0,0:0:0:0:
64,192,50267,128,0,50454:0:0:0:0:
448,192,50454,128,0,50642:0:0:0:0:
320,192,50454,1,0,0:0:0:0:
192,192,50642,1,0,0:0:0:0:
64,192,50642,1,0,0:0:0:0:
320,192,50735,1,0,0:0:0:0:
448,192,50829,1,0,0:0:0:0:
64,192,50829,1,0,0:0:0:0:
192,192,50923,1,0,0:0:0:0:
320,192,51017,1,0,0:0:0:0:
448,192,51017,1,0,0:0:0:0:
64,192,51110,1,0,0:0:0:0:
320,192,51204,1,0,0:0:0:0:
448,192,51204,1,0,0:0:0:0:
448,192,51392,5,0,0:0:0:0:
320,192,51392,1,0,0:0:0:0:
192,192,51485,1,0,0:0:0:0:
448,192,51579,1,0,0:0:0:0:
64,192,51579,1,0,0:0:0:0:
320,192,51673,1,0,0:0:0:0:
64,192,51767,1,0,0:0:0:0:
192,192,51767,1,0,0:0:0:0:
448,192,51860,1,0,0:0:0:0:
192,192,51954,128,0,52142:0:0:0:0:
64,192,51954,1,0,0:0:0:0:
320,192,52142,128,0,52329:0:0:0:0:
64,192,52329,128,0,52517:0:0:0:0:
192,192,52329,1,0,0:0:0:0:
448,192,52517,5,0,0:0:0:0:
320,192,52563,1,0,0:0:0:0:
192,192,52610,1,0,0:0:0:0:
64,192,52657,1,0,0:0:0:0:
448,192,52704,1,0,0:0:0:0:
320,192,52751,1,0,0:0:0:0:
192,192,52798,1,0,0:0:0:0:
64,192,52845,1,0,0:0:0:0:
320,192,52892,1,0,0:0:0:0:
448,192,52892,1,0,0:0:0:0:
192,192,52985,1,0,0:0:0:0:
64,192,52985,1,0,0:0:0:0:
320,192,53079,1,0,0:0:0:0:
448,192,53079,1,0,0:0:0:0:
192,192,53173,1,0,0:0:0:0:
64,192,53173,1,0,0:0:0:0:
448,192,53267,1,0,0:0:0:0:
320,192,53267,1,0,0:0:0:0:
192,192,53360,1,0,0:0:0:0:
64,192,53360,1,0,0:0:0:0:
320,192,53454,1,0,0:0:0:0:
448,192,53454,1,0,0:0:0:0:
192,192,53548,1,0,0:0:0:0:
64,192,53548,1,0,0:0:0:0:
320,192,53642,1,0,0:0:0:0:
448,192,53642,1,0,0:0:0:0:
64,192,53735,1,0,0:0:0:0:
192,192,53829,1,0,0:0:0:0:
448,192,53923,1,0,0:0:0:0:
320,192,54017,1,0,0:0:0:0:
64,192,54017,1,0,0:0:0:0:
192,192,54110,1,0,0:0:0:0:
448,192,54204,1,0,0:0:0:0:
320,192,54204,1,0,0:0:0:0:
192,192,54298,1,0,0:0:0:0:
64,192,54392,1,0,0:0:0:0:
448,192,54392,1,0,0:0:0:0:
192,192,54485,1,0,0:0:0:0:
320,192,54579,1,0,0:0:0:0:
64,192,54673,1,0,0:0:0:0:
192,192,54673,1,0,0:0:0:0:
448,192,54767,1,0,0:0:0:0:
320,192,54767,1,0,0:0:0:0:
64,192,54860,1,0,0:0:0:0:
192,192,54954,1,0,0:0:0:0:
448,192,54954,1,0,0:0:0:0:
320,192,55048,1,0,0:0:0:0:
448,192,55142,1,0,0:0:0:0:
64,192,55142,1,0,0:0:0:0:
192,192,55235,1,0,0:0:0:0:
320,192,55329,1,0,0:0:0:0:
448,192,55423,1,0,0:0:0:0:
64,192,55423,1,0,0:0:0:0:
192,192,55517,1,0,0:0:0:0:
320,192,55517,1,0,0:0:0:0:
448,192,55610,1,0,0:0:0:0:
64,192,55704,1,0,0:0:0:0:
192,192,55704,1,0,0:0:0:0:
320,192,55798,1,0,0:0:0:0:
64,192,55892,1,0,0:0:0:0:
448,192,55892,1,0,0:0:0:0:
192,192,55985,1,0,0:0:0:0:
448,192,56079,1,0,0:0:0:0:
192,192,56173,1,0,0:0:0:0:
64,192,56173,1,0,0:0:0:0:
448,192,56267,1,0,0:0:0:0:
320,192,56267,1,0,0:0:0:0:
192,192,56360,1,0,0:0:0:0:
64,192,56454,1,0,0:0:0:0:
448,192,56454,1,0,0:0:0:0:
320,192,56548,1,0,0:0:0:0:
192,192,56642,1,0,0:0:0:0:
64,192,56642,1,0,0:0:0:0:
448,192,56735,1,0,0:0:0:0:
320,192,56829,1,0,0:0:0:0:
192,192,56923,1,0,0:0:0:0:
64,192,56923,1,0,0:0:0:0:
448,192,57017,1,0,0:0:0:0:
320,192,57017,1,0,0:0:0:0:
192,192,57110,1,0,0:0:0:0:
64,192,57204,1,0,0:0:0:0:
320,192,57204,1,0,0:0:0:0:
448,192,57298,1,0,0:0:0:0:
64,192,57392,1,0,0:0:0:0:
192,192,57392,1,0,0:0:0:0:
320,192,57485,1,0,0:0:0:0:
448,192,57579,1,0,0:0:0:0:
64,192,57673,1,0,0:0:0:0:
192,192,57673,1,0,0:0:0:0:
320,192,57767,1,0,0:0:0:0:
448,192,57767,1,0,0:0:0:0:
192,192,57860,1,0,0:0:0:0:
320,192,57954,1,0,0:0:0:0:
64,192,57954,1,0,0:0:0:0:
448,192,58048,1,0,0:0:0:0:
64,192,58142,1,0,0:0:0:0:
192,192,58142,1,0,0:0:0:0:
320,192,58235,1,0,0:0:0:0:
448,192,58329,1,0,0:0:0:0:
64,192,58423,1,0,0:0:0:0:
192,192,58517,1,0,0:0:0:0:
448,192,58517,1,0,0:0:0:0:
320,192,58610,1,0,0:0:0:0:
192,192,58704,1,0,0:0:0:0:
64,192,58704,1,0,0:0:0:0:
448,192,58798,1,0,0:0:0:0:
64,192,58892,1,0,0:0:0:0:
320,192,58892,1,0,0:0:0:0:
64,192,59079,1,0,0:0:0:0:
320,192,59079,1,0,0:0:0:0:
320,192,59267,1,0,0:0:0:0:
448,192,59267,1,0,0:0:0:0:
320,192,59454,1,0,0:0:0:0:
448,192,59454,1,0,0:0:0:0:
192,192,59548,1,0,0:0:0:0:
64,192,59548,1,0,0:0:0:0:
320,192,59642,1,0,0:0:0:0:
448,192,59642,1,0,0:0:0:0:
64,192,59735,1,0,0:0:0:0:
192,192,59829,1,0,0:0:0:0:
448,192,59923,1,0,0:0:0:0:
64,192,60017,1,0,0:0:0:0:
192,192,60017,1,0,0:0:0:0:
320,192,60110,1,0,0:0:0:0:
192,192,60204,1,0,0:0:0:0:
448,192,60204,1,0,0:0:0:0:
64,192,60298,1,0,0:0:0:0:
320,192,60392,1,0,0:0:0:0:
448,192,60392,1,0,0:0:0:0:
192,192,60485,1,0,0:0:0:0:
320,192,60579,1,0,0:0:0:0:
64,192,60673,1,0,0:0:0:0:
192,192,60767,1,0,0:0:0:0:
448,192,60767,1,0,0:0:0:0:
320,192,60860,1,0,0:0:0:0:
64,192,60954,1,0,0:0:0:0:
192,192,61048,1,0,0:0:0:0:
320,192,61142,1,0,0:0:0:0:
448,192,61142,1,0,0:0:0:0:
192,192,61235,1,0,0:0:0:0:
64,192,61329,1,0,0:0:0:0:
320,192,61423,1,0,0:0:0:0:
448,192,61423,1,0,0:0:0:0:
192,192,61517,1,0,0:0:0:0:
64,192,61517,1,0,0:0:0:0:
448,192,61610,1,0,0:0:0:0:
320,192,61704,1,0,0:0:0:0:
64,192,61704,1,0,0:0:0:0:
192,192,61798,1,0,0:0:0:0:
320,192,61892,1,0,0:0:0:0:
448,192,61892,1,0,0:0:0:0:
192,192,61985,1,0,0:0:0:0:
64,192,62079,1,0,0:0:0:0:
320,192,62173,1,0,0:0:0:0:
448,192,62173,1,0,0:0:0:0:
192,192,62267,1,0,0:0:0:0:
64,192,62267,1,0,0:0:0:0:
320,192,62360,1,0,0:0:0:0:
448,192,62454,1,0,0:0:0:0:
192,192,62454,1,0,0:0:0:0:
64,192,62548,1,0,0:0:0:0:
320,192,62642,1,0,0:0:0:0:
448,192,62642,1,0,0:0:0:0:
192,192,62735,1,0,0:0:0:0:
64,192,62829,1,0,0:0:0:0:
192,192,62923,1,0,0:0:0:0:
320,192,62923,1,0,0:0:0:0:
448,192,63017,1,0,0:0:0:0:
64,192,63017,1,0,0:0:0:0:
320,192,63110,1,0,0:0:0:0:
192,192,63204,1,0,0:0:0:0:
448,192,63204,1,0,0:0:0:0:
64,192,63298,1,0,0:0:0:0:
320,192,63392,1,0,0:0:0:0:
448,192,63392,1,0,0:0:0:0:
192,192,63485,1,0,0:0:0:0:
320,192,63579,1,0,0:0:0:0:
64,192,63673,1,0,0:0:0:0:
192,192,63673,1,0,0:0:0:0:
320,192,63767,1,0,0:0:0:0:
448,192,63767,1,0,0:0:0:0:
64,192,63860,1,0,0:0:0:0:
192,192,63954,1,0,0:0:0:0:
448,192,63954,1,0,0:0:0:0:
320,192,64048,1,0,0:0:0:0:
192,192,64142,1,0,0:0:0:0:
64,192,64142,1,0,0:0:0:0:
448,192,64235,1,0,0:0:0:0:
64,192,64329,1,0,0:0:0:0:
192,192,64329,1,0,0:0:0:0:
320,192,64423,1,0,0:0:0:0:
448,192,64423,1,0,0:0:0:0:
192,192,64517,1,0,0:0:0:0:
64,192,64517,1,0,0:0:0:0:
320,192,64610,1,0,0:0:0:0:
448,192,64704,1,0,0:0:0:0:
64,192,64704,1,0,0:0:0:0:
192,192,64798,1,0,0:0:0:0:
320,192,64892,1,0,0:0:0:0:
448,192,64892,1,0,0:0:0:0:
64,192,64985,1,0,0:0:0:0:
320,192,65079,1,0,0:0:0:0:
448,192,65079,1,0,0:0:0:0:
192,192,65173,1,0,0:0:0:0:
64,192,65173,1,0,0:0:0:0:
320,192,65267,1,0,0:0:0:0:
448,192,65267,1,0,0:0:0:0:
192,192,65360,1,0,0:0:0:0:
64,192,65454,1,0,0:0:0:0:
320,192,65454,1,0,0:0:0:0:
448,192,65548,1,0,0:0:0:0:
192,192,65642,1,0,0:0:0:0:
64,192,65642,1,0,0:0:0:0:
320,192,65735,1,0,0:0:0:0:
192,192,65829,1,0,0:0:0:0:
64,192,65829,1,0,0:0:0:0:
320,192,65923,1,0,0:0:0:0:
448,192,65923,1,0,0:0:0:0:
192,192,66017,1,0,0:0:0:0:
64,192,66017,1,0,0:0:0:0:
320,192,66110,1,0,0:0:0:0:
192,192,66204,1,0,0:0:0:0:
448,192,66204,1,0,0:0:0:0:
64,192,66298,1,0,0:0:0:0:
320,192,66392,1,0,0:0:0:0:
448,192,66392,1,0,0:0:0:0:
192,192,66485,1,0,0:0:0:0:
64,192,66579,1,0,0:0:0:0:
320,192,66579,1,0,0:0:0:0:
448,192,66673,1,0,0:0:0:0:
192,192,66673,1,0,0:0:0:0:
320,192,66767,1,0,0:0:0:0:
64,192,66767,1,0,0:0:0:0:
448,192,66860,1,0,0:0:0:0:
64,192,66954,1,0,0:0:0:0:
192,192,66954,1,0,0:0:0:0:
320,192,67048,1,0,0:0:0:0:
448,192,67142,1,0,0:0:0:0:
192,192,67142,1,0,0:0:0:0:
64,192,67235,1,0,0:0:0:0:
320,192,67329,1,0,0:0:0:0:
448,192,67329,1,0,0:0:0:0:
192,192,67423,1,0,0:0:0:0:
64,192,67423,1,0,0:0:0:0:
320,192,67517,1,0,0:0:0:0:
448,192,67517,1,0,0:0:0:0:
192,192,67610,1,0,0:0:0:0:
64,192,67704,1,0,0:0:0:0:
320,192,67704,1,0,0:0:0:0:
192,192,67798,1,0,0:0:0:0:
320,192,67892,1,0,0:0:0:0:
448,192,67892,1,0,0:0:0:0:
64,192,67985,1,0,0:0:0:0:
448,192,68079,1,0,0:0:0:0:
192,192,68079,1,0,0:0:0:0:
320,192,68173,1,0,0:0:0:0:
64,192,68173,1,0,0:0:0:0:
192,192,68267,1,0,0:0:0:0:
448,192,68267,1,0,0:0:0:0:
320,192,68360,1,0,0:0:0:0:
448,192,68454,1,0,0:0:0:0:
64,192,68454,1,0,0:0:0:0:
192,192,68548,1,0,0:0:0:0:
320,192,68642,1,0,0:0:0:0:
448,192,68642,1,0,0:0:0:0:
64,192,68735,1,0,0:0:0:0:
192,192,68829,1,0,0:0:0:0:
320,192,68923,1,0,0:0:0:0:
448,192,69017,1,0,0:0:0:0:
192,192,69110,1,0,0:0:0:0:
64,192,69204,1,0,0:0:0:0:
448,192,69204,1,0,0:0:0:0:
320,192,69298,1,0,0:0:0:0:
192,192,69392,1,0,0:0:0:0:
64,192,69392,1,0,0:0:0:0:
320,192,69485,1,0,0:0:0:0:
192,192,69579,1,0,0:0:0:0:
448,192,69579,1,0,0:0:0:0:
64,192,69767,1,0,0:0:0:0:
192,192,69767,1,0,0:0:0:0:
64,192,69954,1,0,0:0:0:0:
448,192,69954,1,0,0:0:0:0:
320,192,70142,128,0,70423:0:0:0:0:
448,192,70142,1,0,0:0:0:0:
64,192,70235,1,0,0:0:0:0:
192,192,70329,1,0,0:0:0:0:
192,192,70423,128,0,70704:0:0:0:0:
320,192,70517,1,0,0:0:0:0:
64,192,70704,128,0,70892:0:0:0:0:
448,192,70704,1,0,0:0:0:0:
448,192,70892,128,0,71267:0:0:0:0:
320,192,70892,1,0,0:0:0:0:
192,192,70985,1,0,0:0:0:0:
64,192,71079,1,0,0:0:0:0:
320,192,71267,1,0,0:0:0:0:
320,192,71454,1,0,0:0:0:0:
192,192,71454,1,0,0:0:0:0:
64,192,71642,128,0,71923:0:0:0:0:
448,192,71642,1,0,0:0:0:0:
320,192,71735,1,0,0:0:0:0:
192,192,71829,1,0,0:0:0:0:
192,192,71923,128,0,72204:0:0:0:0:
320,192,72017,1,0,0:0:0:0:
448,192,72110,1,0,0:0:0:0:
448,192,72204,128,0,72392:0:0:0:0:
320,192,72392,128,0,72673:0:0:0:0:
64,192,72392,1,0,0:0:0:0:
192,192,72485,1,0,0:0:0:0:
448,192,72579,1,0,0:0:0:0:
64,192,72673,128,0,72954:0:0:0:0:
192,192,72767,1,0,0:0:0:0:
192,192,72954,128,0,73142:0:0:0:0:
320,192,72954,1,0,0:0:0:0:
448,192,73142,128,0,73423:0:0:0:0:
64,192,73142,1,0,0:0:0:0:
192,192,73235,1,0,0:0:0:0:
320,192,73329,1,0,0:0:0:0:
320,192,73423,128,0,73704:0:0:0:0:
64,192,73517,1,0,0:0:0:0:
64,192,73704,128,0,73892:0:0:0:0:
448,192,73704,1,0,0:0:0:0:
192,192,73892,128,0,74173:0:0:0:0:
320,192,73892,1,0,0:0:0:0:
64,192,73985,1,0,0:0:0:0:
448,192,74079,1,0,0:0:0:0:
448,192,74173,128,0,74454:0:0:0:0:
320,192,74267,1,0,0:0:0:0:
192,192,74360,1,0,0:0:0:0:
64,192,74454,1,0,0:0:0:0:
320,192,74548,1,0,0:0:0:0:
192,192,74642,1,0,0:0:0:0:
64,192,74642,1,0,0:0:0:0:
320,192,74735,1,0,0:0:0:0:
192,192,74829,1,0,0:0:0:0:
448,192,74829,1,0,0:0:0:0:
64,192,75017,1,0,0:0:0:0:
448,192,75017,1,0,0:0:0:0:
320,192,75204,1,0,0:0:0:0:
192,192,75204,1,0,0:0:0:0:
64,192,75298,1,0,0:0:0:0:
192,192,75392,1,0,0:0:0:0:
448,192,75392,1,0,0:0:0:0:
320,192,75485,1,0,0:0:0:0:
64,192,75579,1,0,0:0:0:0:
448,192,75579,1,0,0:0:0:0:
64,192,75767,1,0,0:0:0:0:
192,192,75860,1,0,0:0:0:0:
320,192,75954,1,0,0:0:0:0:
64,192,76048,1,0,0:0:0:0:
192,192,76142,1,0,0:0:0:0:
448,192,76235,1,0,0:0:0:0:
320,192,76329,1,0,0:0:0:0:
64,192,76517,1,0,0:0:0:0:
192,192,76610,1,0,0:0:0:0:
320,192,76704,1,0,0:0:0:0:
64,192,76892,1,0,0:0:0:0:
448,192,76892,1,0,0:0:0:0:
192,192,76985,1,0,0:0:0:0:
320,192,77079,1,0,0:0:0:0:
448,192,77079,1,0,0:0:0:0:
64,192,77267,1,0,0:0:0:0:
192,192,77267,1,0,0:0:0:0:
320,192,77454,1,0,0:0:0:0:
64,192,77454,1,0,0:0:0:0:
320,192,77642,1,0,0:0:0:0:
448,192,77642,1,0,0:0:0:0:
192,192,77735,1,0,0:0:0:0:
64,192,77829,1,0,0:0:0:0:
320,192,77829,1,0,0:0:0:0:
448,192,78017,1,0,0:0:0:0:
320,192,78110,1,0,0:0:0:0:
192,192,78204,1,0,0:0:0:0:
64,192,78298,1,0,0:0:0:0:
320,192,78392,1,0,0:0:0:0:
192,192,78485,1,0,0:0:0:0:
448,192,78579,1,0,0:0:0:0:
320,192,78673,1,0,0:0:0:0:
64,192,78673,1,0,0:0:0:0:
192,192,78767,1,0,0:0:0:0:
448,192,78860,1,0,0:0:0:0:
192,192,78954,1,0,0:0:0:0:
64,192,78954,1,0,0:0:0:0:
64,192,79142,1,0,0:0:0:0:
448,192,79142,1,0,0:0:0:0:
320,192,79329,1,0,0:0:0:0:
448,192,79329,1,0,0:0:0:0:
192,192,79423,1,0,0:0:0:0:
64,192,79517,1,0,0:0:0:0:
320,192,79517,1,0,0:0:0:0:
448,192,79610,1,0,0:0:0:0:
64,192,79704,1,0,0:0:0:0:
192,192,79704,1,0,0:0:0:0:
320,192,79892,1,0,0:0:0:0:
192,192,79985,1,0,0:0:0:0:
448,192,80079,1,0,0:0:0:0:
64,192,80173,1,0,0:0:0:0:
192,192,80267,1,0,0:0:0:0:
320,192,80360,1,0,0:0:0:0:
64,192,80454,1,0,0:0:0:0:
448,192,80642,1,0,0:0:0:0:
320,192,80735,1,0,0:0:0:0:
192,192,80829,1,0,0:0:0:0:
64,192,80923,1,0,0:0:0:0:
448,192,80923,1,0,0:0:0:0:
320,192,81017,1,0,0:0:0:0:
192,192,81110,1,0,0:0:0:0:
64,192,81110,1,0,0:0:0:0:
320,192,81204,1,0,0:0:0:0:
448,192,81204,1,0,0:0:0:0:
192,192,81298,1,0,0:0:0:0:
64,192,81298,1,0,0:0:0:0:
320,192,81392,1,0,0:0:0:0:
448,192,81392,1,0,0:0:0:0:
192,192,81485,1,0,0:0:0:0:
64,192,81579,1,0,0:0:0:0:
448,192,81579,1,0,0:0:0:0:
320,192,81673,1,0,0:0:0:0:
192,192,81767,1,0,0:0:0:0:
64,192,81767,1,0,0:0:0:0:
320,192,81860,1,0,0:0:0:0:
64,192,81954,1,0,0:0:0:0:
448,192,81954,1,0,0:0:0:0:
192,192,82048,1,0,0:0:0:0:
320,192,82142,1,0,0:0:0:0:
448,192,82235,1,0,0:0:0:0:
64,192,82329,1,0,0:0:0:0:
192,192,82423,1,0,0:0:0:0:
448,192,82517,1,0,0:0:0:0:
320,192,82563,1,0,0:0:0:0:
192,192,82610,1,0,0:0:0:0:
64,192,82657,1,0,0:0:0:0:
448,192,82704,1,0,0:0:0:0:
320,192,82751,1,0,0:0:0:0:
192,192,82798,1,0,0:0:0:0:
64,192,82845,1,0,0:0:0:0:
320,192,82892,1,0,0:0:0:0:
448,192,82892,1,0,0:0:0:0:
192,192,82985,1,0,0:0:0:0:
320,192,83079,1,0,0:0:0:0:
64,192,83079,1,0,0:0:0:0:
448,192,83267,1,0,0:0:0:0:
64,192,83267,1,0,0:0:0:0:
192,192,83454,1,0,0:0:0:0:
320,192,83454,1,0,0:0:0:0:
448,192,83548,1,0,0:0:0:0:
320,192,83642,1,0,0:0:0:0:
64,192,83642,1,0,0:0:0:0:
192,192,83735,1,0,0:0:0:0:
448,192,83829,1,0,0:0:0:0:
64,192,83829,1,0,0:0:0:0:
448,192,84017,1,0,0:0:0:0:
320,192,84110,1,0,0:0:0:0:
192,192,84204,1,0,0:0:0:0:
448,192,84298,1,0,0:0:0:0:
320,192,84392,1,0,0:0:0:0:
64,192,84485,1,0,0:0:0:0:
192,192,84579,1,0,0:0:0:0:
448,192,84767,1,0,0:0:0:0:
320,192,84860,1,0,0:0:0:0:
192,192,84954,1,0,0:0:0:0:
448,192,85142,1,0,0:0:0:0:
64,192,85142,1,0,0:0:0:0:
320,192,85235,1,0,0:0:0:0:
192,192,85329,1,0,0:0:0:0:
64,192,85329,1,0,0:0:0:0:
448,192,85517,1,0,0:0:0:0:
320,192,85517,1,0,0:0:0:0:
192,192,85704,1,0,0:0:0:0:
448,192,85704,1,0,0:0:0:0:
192,192,85892,1,0,0:0:0:0:
64,192,85892,1,0,0:0:0:0:
320,192,85985,1,0,0:0:0:0:
448,192,86079,1,0,0:0:0:0:
192,192,86079,1,0,0:0:0:0:
64,192,86267,1,0,0:0:0:0:
192,192,86360,1,0,0:0:0:0:
320,192,86454,1,0,0:0:0:0:
448,192,86548,1,0,0:0:0:0:
192,192,86642,1,0,0:0:0:0:
320,192,86735,1,0,0:0:0:0:
64,192,86829,1,0,0:0:0:0:
192,192,86923,1,0,0:0:0:0:
448,192,86923,1,0,0:0:0:0:
320,192,87017,1,0,0:0:0:0:
64,192,87110,1,0,0:0:0:0:
320,192,87204,1,0,0:0:0:0:
448,192,87204,1,0,0:0:0:0:
448,192,87392,1,0,0:0:0:0:
64,192,87392,1,0,0:0:0:0:
192,192,87579,1,0,0:0:0:0:
64,192,87579,1,0,0:0:0:0:
320,192,87673,1,0,0:0:0:0:
448,192,87767,1,0,0:0:0:0:
192,192,87767,1,0,0:0:0:0:
64,192,87860,1,0,0:0:0:0:
448,192,87954,1,0,0:0:0:0:
320,192,87954,1,0,0:0:0:0:
192,192,88142,1,0,0:0:0:0:
320,192,88235,1,0,0:0:0:0:
64,192,88329,1,0,0:0:0:0:
448,192,88423,1,0,0:0:0:0:
320,192,88517,1,0,0:0:0:0:
192,192,88610,1,0,0:0:0:0:
448,192,88704,1,0,0:0:0:0:
64,192,88892,1,0,0:0:0:0:
192,192,88985,1,0,0:0:0:0:
320,192,89079,1,0,0:0:0:0:
448,192,89173,1,0,0:0:0:0:
64,192,89173,1,0,0:0:0:0:
192,192,89267,1,0,0:0:0:0:
320,192,89360,1,0,0:0:0:0:
448,192,89360,1,0,0:0:0:0:
192,192,89454,1,0,0:0:0:0:
64,192,89454,1,0,0:0:0:0:
320,192,89548,1,0,0:0:0:0:
448,192,89548,1,0,0:0:0:0:
192,192,89642,1,0,0:0:0:0:
64,192,89642,1,0,0:0:0:0:
320,192,89735,1,0,0:0:0:0:
448,192,89829,1,0,0:0:0:0:
64,192,89829,1,0,0:0:0:0:
192,192,89923,1,0,0:0:0:0:
320,192,90017,1,0,0:0:0:0:
448,192,90017,1,0,0:0:0:0:
192,192,90110,1,0,0:0:0:0:
448,192,90204,1,0,0:0:0:0:
64,192,90204,1,0,0:0:0:0:
320,192,90298,1,0,0:0:0:0:
192,192,90392,1,0,0:0:0:0:
64,192,90485,1,0,0:0:0:0:
448,192,90579,1,0,0:0:0:0:
320,192,90673,1,0,0:0:0:0:
64,192,90767,1,0,0:0:0:0:
192,192,90767,1,0,0:0:0:0:
320,192,90860,1,0,0:0:0:0:
448,192,90954,1,0,0:0:0:0:
192,192,90954,1,0,0:0:0:0:
320,192,91048,1,0,0:0:0:0:
64,192,91048,1,0,0:0:0:0:
448,192,91142,1,0,0:0:0:0:
192,192,91142,1,0,0:0:0:0:
64,192,91329,1,0,0:0:0:0:
320,192,91329,1,0,0:0:0:0:
192,192,91329,1,0,0:0:0:0:
448,192,91517,1,0,0:0:0:0:
192,192,91517,1,0,0:0:0:0:
448,192,91704,1,0,0:0:0:0:
320,192,91704,1,0,0:0:0:0:
192,192,91798,1,0,0:0:0:0:
448,192,91892,1,0,0:0:0:0:
320,192,91892,1,0,0:0:0:0:
192,192,91985,1,0,0:0:0:0:
448,192,92079,1,0,0:0:0:0:
320,192,92079,1,0,0:0:0:0:
64,192,92267,1,0,0:0:0:0:
192,192,92267,1,0,0:0:0:0:
448,192,92454,1,0,0:0:0:0:
320,192,92454,1,0,0:0:0:0:
64,192,92454,1,0,0:0:0:0:
448,192,92642,1,0,0:0:0:0:
192,192,92642,1,0,0:0:0:0:
320,192,92735,1,0,0:0:0:0:
64,192,92829,1,0,0:0:0:0:
192,192,92829,1,0,0:0:0:0:
448,192,92923,1,0,0:0:0:0:
192,192,93017,1,0,0:0:0:0:
64,192,93017,1,0,0:0:0:0:
320,192,93110,1,0,0:0:0:0:
448,192,93110,1,0,0:0:0:0:
192,192,93204,1,0,0:0:0:0:
64,192,93204,1,0,0:0:0:0:
64,192,93392,1,0,0:0:0:0:
448,192,93392,1,0,0:0:0:0:
320,192,93485,1,0,0:0:0:0:
448,192,93579,1,0,0:0:0:0:
192,192,93579,1,0,0:0:0:0:
64,192,93579,1,0,0:0:0:0:
320,192,93767,1,0,0:0:0:0:
192,192,93767,1,0,0:0:0:0:
448,192,93954,1,0,0:0:0:0:
64,192,93954,1,0,0:0:0:0:
320,192,93954,1,0,0:0:0:0:
448,192,94142,1,0,0:0:0:0:
320,192,94142,1,0,0:0:0:0:
448,192,94235,1,0,0:0:0:0:
192,192,94235,1,0,0:0:0:0:
192,192,94329,1,0,0:0:0:0:
64,192,94329,1,0,0:0:0:0:
64,192,94423,1,0,0:0:0:0:
320,192,94423,1,0,0:0:0:0:
320,192,94517,1,0,0:0:0:0:
448,192,94517,128,0,94704:0:0:0:0:
64,192,94610,1,0,0:0:0:0:
192,192,94704,1,0,0:0:0:0:
64,192,94892,128,0,95079:0:0:0:0:
320,192,94892,1,0,0:0:0:0:
192,192,94985,1,0,0:0:0:0:
448,192,95079,1,0,0:0:0:0:
320,192,95173,1,0,0:0:0:0:
64,192,95267,1,0,0:0:0:0:
192,192,95267,1,0,0:0:0:0:
448,192,95454,1,0,0:0:0:0:
192,192,95454,1,0,0:0:0:0:
64,192,95454,1,0,0:0:0:0:
448,192,95642,1,0,0:0:0:0:
320,192,95642,1,0,0:0:0:0:
64,192,95829,1,0,0:0:0:0:
192,192,95829,1,0,0:0:0:0:
320,192,95923,1,0,0:0:0:0:
64,192,96017,1,0,0:0:0:0:
192,192,96017,1,0,0:0:0:0:
320,192,96110,1,0,0:0:0:0:
64,192,96204,1,0,0:0:0:0:
448,192,96204,1,0,0:0:0:0:
448,192,96392,1,0,0:0:0:0:
320,192,96392,1,0,0:0:0:0:
64,192,96579,1,0,0:0:0:0:
192,192,96579,1,0,0:0:0:0:
320,192,96579,1,0,0:0:0:0:
64,192,96767,1,0,0:0:0:0:
448,192,96767,1,0,0:0:0:0:
192,192,96860,1,0,0:0:0:0:
448,192,96954,1,0,0:0:0:0:
320,192,96954,1,0,0:0:0:0:
64,192,97048,1,0,0:0:0:0:
320,192,97142,1,0,0:0:0:0:
448,192,97142,1,0,0:0:0:0:
192,192,97235,1,0,0:0:0:0:
64,192,97235,1,0,0:0:0:0:
320,192,97329,1,0,0:0:0:0:
448,192,97329,1,0,0:0:0:0:
320,192,97517,1,0,0:0:0:0:
192,192,97517,1,0,0:0:0:0:
64,192,97610,1,0,0:0:0:0:
192,192,97704,1,0,0:0:0:0:
320,192,97704,1,0,0:0:0:0:
448,192,97704,1,0,0:0:0:0:
448,192,97892,1,0,0:0:0:0:
320,192,97892,1,0,0:0:0:0:
64,192,98079,1,0,0:0:0:0:
448,192,98079,1,0,0:0:0:0:
192,192,98079,1,0,0:0:0:0:
64,192,98267,1,0,0:0:0:0:
192,192,98267,1,0,0:0:0:0:
64,192,98360,1,0,0:0:0:0:
320,192,98360,1,0,0:0:0:0:
320,192,98454,1,0,0:0:0:0:
448,192,98454,1,0,0:0:0:0:
448,192,98548,1,0,0:0:0:0:
192,192,98548,1,0,0:0:0:0:
192,192,98642,1,0,0:0:0:0:
64,192,98642,128,0,98829:0:0:0:0:
320,192,98735,1,0,0:0:0:0:
448,192,98829,1,0,0:0:0:0:
192,192,98923,1,0,0:0:0:0:
448,192,99017,128,0,99204:0:0:0:0:
64,192,99017,1,0,0:0:0:0:
320,192,99110,1,0,0:0:0:0:
64,192,99204,1,0,0:0:0:0:
192,192,99298,1,0,0:0:0:0:
320,192,99392,1,0,0:0:0:0:
448,192,99392,1,0,0:0:0:0:
448,192,99579,1,0,0:0:0:0:
192,192,99579,1,0,0:0:0:0:
320,192,99579,1,0,0:0:0:0:
64,192,99767,1,0,0:0:0:0:
448,192,99767,1,0,0:0:0:0:
64,192,99954,1,0,0:0:0:0:
192,192,99954,1,0,0:0:0:0:
320,192,100048,1,0,0:0:0:0:
64,192,100142,1,0,0:0:0:0:
192,192,100142,1,0,0:0:0:0:
320,192,100235,1,0,0:0:0:0:
64,192,100329,1,0,0:0:0:0:
192,192,100329,1,0,0:0:0:0:
448,192,100517,1,0,0:0:0:0:
320,192,100517,1,0,0:0:0:0:
64,192,100704,1,0,0:0:0:0:
192,192,100704,1,0,0:0:0:0:
448,192,100704,1,0,0:0:0:0:
64,192,100892,1,0,0:0:0:0:
320,192,100892,1,0,0:0:0:0:
192,192,100985,1,0,0:0:0:0:
448,192,101079,1,0,0:0:0:0:
320,192,101079,1,0,0:0:0:0:
64,192,101173,1,0,0:0:0:0:
320,192,101267,1,0,0:0:0:0:
448,192,101267,1,0,0:0:0:0:
192,192,101360,1,0,0:0:0:0:
64,192,101360,1,0,0:0:0:0:
320,192,101454,1,0,0:0:0:0:
448,192,101454,1,0,0:0:0:0:
448,192,101642,1,0,0:0:0:0:
64,192,101642,1,0,0:0:0:0:
192,192,101735,1,0,0:0:0:0:
64,192,101829,1,0,0:0:0:0:
320,192,101829,1,0,0:0:0:0:
448,192,101829,1,0,0:0:0:0:
192,192,102017,1,0,0:0:0:0:
320,192,102017,1,0,0:0:0:0:
64,192,102204,1,0,0:0:0:0:
448,192,102204,1,0,0:0:0:0:
192,192,102204,1,0,0:0:0:0:
64,192,102392,1,0,0:0:0:0:
192,192,102392,1,0,0:0:0:0:
64,192,102485,1,0,0:0:0:0:
320,192,102485,1,0,0:0:0:0:
320,192,102579,1,0,0:0:0:0:
448,192,102579,1,0,0:0:0:0:
448,192,102673,1,0,0:0:0:0:
192,192,102673,1,0,0:0:0:0:
192,192,102767,1,0,0:0:0:0:
64,192,102767,128,0,102954:0:0:0:0:
320,192,102860,1,0,0:0:0:0:
448,192,102954,1,0,0:0:0:0:
192,192,103048,1,0,0:0:0:0:
448,192,103142,128,0,103329:0:0:0:0:
320,192,103142,1,0,0:0:0:0:
64,192,103235,1,0,0:0:0:0:
192,192,103329,1,0,0:0:0:0:
320,192,103423,1,0,0:0:0:0:
448,192,103517,1,0,0:0:0:0:
192,192,103517,1,0,0:0:0:0:
64,192,103704,1,0,0:0:0:0:
320,192,103704,1,0,0:0:0:0:
448,192,103704,1,0,0:0:0:0:
64,192,103892,1,0,0:0:0:0:
192,192,103892,1,0,0:0:0:0:
448,192,104079,1,0,0:0:0:0:
320,192,104079,1,0,0:0:0:0:
192,192,104173,1,0,0:0:0:0:
448,192,104267,1,0,0:0:0:0:
320,192,104267,1,0,0:0:0:0:
192,192,104360,1,0,0:0:0:0:
448,192,104454,1,0,0:0:0:0:
64,192,104454,1,0,0:0:0:0:
64,192,104642,1,0,0:0:0:0:
192,192,104642,1,0,0:0:0:0:
448,192,104829,1,0,0:0:0:0:
320,192,104829,1,0,0:0:0:0:
192,192,104829,1,0,0:0:0:0:
448,192,105017,1,0,0:0:0:0:
64,192,105017,1,0,0:0:0:0:
320,192,105110,1,0,0:0:0:0:
64,192,105204,1,0,0:0:0:0:
192,192,105204,1,0,0:0:0:0:
448,192,105298,1,0,0:0:0:0:
192,192,105392,1,0,0:0:0:0:
64,192,105392,1,0,0:0:0:0:
320,192,105485,1,0,0:0:0:0:
448,192,105485,1,0,0:0:0:0:
192,192,105579,1,0,0:0:0:0:
64,192,105579,1,0,0:0:0:0:
192,192,105767,1,0,0:0:0:0:
320,192,105767,1,0,0:0:0:0:
448,192,105860,1,0,0:0:0:0:
320,192,105954,1,0,0:0:0:0:
192,192,105954,1,0,0:0:0:0:
64,192,105954,1,0,0:0:0:0:
64,192,106142,1,0,0:0:0:0:
192,192,106142,1,0,0:0:0:0:
448,192,106329,1,0,0:0:0:0:
64,192,106329,1,0,0:0:0:0:
320,192,106329,1,0,0:0:0:0:
448,192,106517,1,0,0:0:0:0:
320,192,106517,1,0,0:0:0:0:
448,192,106610,1,0,0:0:0:0:
192,192,106610,1,0,0:0:0:0:
192,192,106704,1,0,0:0:0:0:
64,192,106704,1,0,0:0:0:0:
64,192,106798,1,0,0:0:0:0:
320,192,106798,1,0,0:0:0:0:
320,192,106892,1,0,0:0:0:0:
448,192,106892,128,0,107079:0:0:0:0:
64,192,106985,1,0,0:0:0:0:
192,192,107079,1,0,0:0:0:0:
320,192,107173,1,0,0:0:0:0:
64,192,107267,128,0,107454:0:0:0:0:
448,192,107267,1,0,0:0:0:0:
192,192,107360,1,0,0:0:0:0:
448,192,107454,1,0,0:0:0:0:
448,192,107642,1,0,0:0:0:0:
320,192,107642,1,0,0:0:0:0:
64,192,107642,1,0,0:0:0:0:
320,192,107829,1,0,0:0:0:0:
192,192,107829,1,0,0:0:0:0:
448,192,108017,1,0,0:0:0:0:
64,192,108017,1,0,0:0:0:0:
320,192,108017,1,0,0:0:0:0:
64,192,108110,1,0,0:0:0:0:
448,192,108204,1,0,0:0:0:0:
192,192,108204,1,0,0:0:0:0:
320,192,108392,1,0,0:0:0:0:
448,192,108392,1,0,0:0:0:0:
64,192,108392,1,0,0:0:0:0:
192,192,108485,1,0,0:0:0:0:
320,192,108579,1,0,0:0:0:0:
64,192,108579,1,0,0:0:0:0:
448,192,108673,1,0,0:0:0:0:
192,192,108767,1,0,0:0:0:0:
64,192,108767,1,0,0:0:0:0:
448,192,108954,1,0,0:0:0:0:
320,192,108954,1,0,0:0:0:0:
448,192,109142,1,0,0:0:0:0:
192,192,109142,1,0,0:0:0:0:
64,192,109142,1,0,0:0:0:0:
320,192,109329,1,0,0:0:0:0:
64,192,109329,1,0,0:0:0:0:
448,192,109517,1,0,0:0:0:0:
192,192,109517,1,0,0:0:0:0:
320,192,109517,1,0,0:0:0:0:
448,192,109610,1,0,0:0:0:0:
64,192,109704,1,0,0:0:0:0:
192,192,109704,1,0,0:0:0:0:
448,192,109892,1,0,0:0:0:0:
192,192,109892,1,0,0:0:0:0:
64,192,109892,1,0,0:0:0:0:
320,192,110079,1,0,0:0:0:0:
448,192,110079,1,0,0:0:0:0:
320,192,110267,1,0,0:0:0:0:
64,192,110267,1,0,0:0:0:0:
192,192,110267,1,0,0:0:0:0:
64,192,110360,1,0,0:0:0:0:
192,192,110454,1,0,0:0:0:0:
448,192,110454,1,0,0:0:0:0:
448,192,110642,1,0,0:0:0:0:
64,192,110642,1,0,0:0:0:0:
192,192,110735,1,0,0:0:0:0:
320,192,110829,1,0,0:0:0:0:
448,192,110829,1,0,0:0:0:0:
64,192,110923,1,0,0:0:0:0:
192,192,111017,1,0,0:0:0:0:
448,192,111017,1,0,0:0:0:0:
320,192,111110,1,0,0:0:0:0:
64,192,111204,1,0,0:0:0:0:
192,192,111204,1,0,0:0:0:0:
320,192,111298,1,0,0:0:0:0:
448,192,111392,1,0,0:0:0:0:
64,192,111392,1,0,0:0:0:0:
192,192,111485,1,0,0:0:0:0:
320,192,111579,1,0,0:0:0:0:
448,192,111579,1,0,0:0:0:0:
64,192,111673,1,0,0:0:0:0:
192,192,111767,1,0,0:0:0:0:
448,192,111767,1,0,0:0:0:0:
320,192,111767,1,0,0:0:0:0:
192,192,111954,1,0,0:0:0:0:
64,192,111954,1,0,0:0:0:0:
320,192,112142,1,0,0:0:0:0:
448,192,112142,1,0,0:0:0:0:
64,192,112142,1,0,0:0:0:0:
448,192,112235,1,0,0:0:0:0:
64,192,112329,1,0,0:0:0:0:
192,192,112329,1,0,0:0:0:0:
192,192,112517,1,0,0:0:0:0:
320,192,112517,1,0,0:0:0:0:
448,192,112517,1,0,0:0:0:0:
448,192,112610,1,0,0:0:0:0:
192,192,112704,1,0,0:0:0:0:
64,192,112704,1,0,0:0:0:0:
320,192,112798,1,0,0:0:0:0:
64,192,112892,1,0,0:0:0:0:
448,192,112892,1,0,0:0:0:0:
64,192,113079,1,0,0:0:0:0:
192,192,113079,1,0,0:0:0:0:
192,192,113267,1,0,0:0:0:0:
320,192,113267,1,0,0:0:0:0:
448,192,113267,1,0,0:0:0:0:
320,192,113454,1,0,0:0:0:0:
192,192,113454,1,0,0:0:0:0:
64,192,113642,1,0,0:0:0:0:
320,192,113642,1,0,0:0:0:0:
448,192,113642,1,0,0:0:0:0:
64,192,113735,1,0,0:0:0:0:
448,192,113829,1,0,0:0:0:0:
192,192,113829,1,0,0:0:0:0:
64,192,114017,1,0,0:0:0:0:
192,192,114017,1,0,0:0:0:0:
448,192,114017,1,0,0:0:0:0:
320,192,114204,1,0,0:0:0:0:
192,192,114204,1,0,0:0:0:0:
64,192,114392,1,0,0:0:0:0:
448,192,114392,1,0,0:0:0:0:
320,192,114392,1,0,0:0:0:0:
64,192,114485,1,0,0:0:0:0:
320,192,114579,1,0,0:0:0:0:
192,192,114579,1,0,0:0:0:0:
64,192,114767,1,0,0:0:0:0:
448,192,114767,1,0,0:0:0:0:
320,192,114860,1,0,0:0:0:0:
192,192,114954,1,0,0:0:0:0:
64,192,114954,1,0,0:0:0:0:
448,192,115048,1,0,0:0:0:0:
320,192,115142,1,0,0:0:0:0:
64,192,115142,1,0,0:0:0:0:
192,192,115235,1,0,0:0:0:0:
448,192,115329,1,0,0:0:0:0:
320,192,115329,1,0,0:0:0:0:
192,192,115423,1,0,0:0:0:0:
64,192,115517,1,0,0:0:0:0:
448,192,115517,1,0,0:0:0:0:
320,192,115610,1,0,0:0:0:0:
192,192,115704,1,0,0:0:0:0:
64,192,115704,1,0,0:0:0:0:
448,192,115798,1,0,0:0:0:0:
320,192,115892,1,0,0:0:0:0:
192,192,115892,1,0,0:0:0:0:
64,192,115892,1,0,0:0:0:0:
192,192,116079,1,0,0:0:0:0:
320,192,116079,1,0,0:0:0:0:
64,192,116267,1,0,0:0:0:0:
448,192,116267,1,0,0:0:0:0:
192,192,116267,1,0,0:0:0:0:
448,192,116360,1,0,0:0:0:0:
64,192,116454,1,0,0:0:0:0:
320,192,116454,1,0,0:0:0:0:
192,192,116642,1,0,0:0:0:0:
64,192,116642,1,0,0:0:0:0:
448,192,116642,1,0,0:0:0:0:
320,192,116735,1,0,0:0:0:0:
192,192,116829,1,0,0:0:0:0:
448,192,116829,1,0,0:0:0:0:
64,192,116923,1,0,0:0:0:0:
320,192,117017,1,0,0:0:0:0:
448,192,117017,1,0,0:0:0:0:
64,192,117204,1,0,0:0:0:0:
192,192,117204,1,0,0:0:0:0:
64,192,117392,1,0,0:0:0:0:
320,192,117392,1,0,0:0:0:0:
448,192,117392,1,0,0:0:0:0:
192,192,117579,1,0,0:0:0:0:
448,192,117579,1,0,0:0:0:0:
64,192,117767,1,0,0:0:0:0:
320,192,117767,1,0,0:0:0:0:
192,192,117767,1,0,0:0:0:0:
64,192,117860,1,0,0:0:0:0:
448,192,117954,1,0,0:0:0:0:
320,192,117954,1,0,0:0:0:0:
64,192,118142,1,0,0:0:0:0:
320,192,118142,1,0,0:0:0:0:
448,192,118142,1,0,0:0:0:0:
192,192,118329,1,0,0:0:0:0:
64,192,118329,1,0,0:0:0:0:
192,192,118517,1,0,0:0:0:0:
448,192,118517,1,0,0:0:0:0:
320,192,118517,1,0,0:0:0:0:
448,192,118610,1,0,0:0:0:0:
320,192,118704,1,0,0:0:0:0:
64,192,118704,1,0,0:0:0:0:
64,192,118892,1,0,0:0:0:0:
448,192,118892,1,0,0:0:0:0:
320,192,118985,1,0,0:0:0:0:
192,192,119079,1,0,0:0:0:0:
64,192,119079,1,0,0:0:0:0:
448,192,119173,1,0,0:0:0:0:
320,192,119267,1,0,0:0:0:0:
64,192,119267,1,0,0:0:0:0:
192,192,119360,1,0,0:0:0:0:
448,192,119454,1,0,0:0:0:0:
320,192,119454,1,0,0:0:0:0:
192,192,119548,1,0,0:0:0:0:
64,192,119642,1,0,0:0:0:0:
448,192,119642,1,0,0:0:0:0:
320,192,119735,1,0,0:0:0:0:
192,192,119829,1,0,0:0:0:0:
64,192,119829,1,0,0:0:0:0:
448,192,119923,1,0,0:0:0:0:
320,192,120017,1,0,0:0:0:0:
64,192,120017,1,0,0:0:0:0:
192,192,120017,1,0,0:0:0:0:
320,192,120204,1,0,0:0:0:0:
448,192,120204,1,0,0:0:0:0:
192,192,120392,1,0,0:0:0:0:
64,192,120392,1,0,0:0:0:0:
448,192,120392,1,0,0:0:0:0:
64,192,120485,1,0,0:0:0:0:
448,192,120579,1,0,0:0:0:0:
320,192,120579,1,0,0:0:0:0:
320,192,120767,1,0,0:0:0:0:
192,192,120767,1,0,0:0:0:0:
64,192,120767,1,0,0:0:0:0:
64,192,120860,1,0,0:0:0:0:
320,192,120954,1,0,0:0:0:0:
448,192,120954,1,0,0:0:0:0:
192,192,121048,1,0,0:0:0:0:
448,192,121142,1,0,0:0:0:0:
64,192,121142,1,0,0:0:0:0:
448,192,121329,1,0,0:0:0:0:
320,192,121329,1,0,0:0:0:0:
320,192,121517,1,0,0:0:0:0:
192,192,121517,1,0,0:0:0:0:
64,192,121517,1,0,0:0:0:0:
192,192,121704,1,0,0:0:0:0:
320,192,121704,1,0,0:0:0:0:
448,192,121892,1,0,0:0:0:0:
192,192,121892,1,0,0:0:0:0:
64,192,121892,1,0,0:0:0:0:
448,192,121985,1,0,0:0:0:0:
64,192,122079,1,0,0:0:0:0:
320,192,122079,1,0,0:0:0:0:
448,192,122267,1,0,0:0:0:0:
320,192,122267,1,0,0:0:0:0:
64,192,122267,1,0,0:0:0:0:
192,192,122454,1,0,0:0:0:0:
320,192,122454,1,0,0:0:0:0:
448,192,122642,1,0,0:0:0:0:
64,192,122642,1,0,0:0:0:0:
192,192,122642,1,0,0:0:0:0:
448,192,122735,1,0,0:0:0:0:
192,192,122829,1,0,0:0:0:0:
320,192,122829,1,0,0:0:0:0:
448,192,123017,1,0,0:0:0:0:
64,192,123017,1,0,0:0:0:0:
192,192,123110,1,0,0:0:0:0:
320,192,123204,1,0,0:0:0:0:
448,192,123204,1,0,0:0:0:0:
192,192,123298,1,0,0:0:0:0:
64,192,123298,1,0,0:0:0:0:
320,192,123392,1,0,0:0:0:0:
448,192,123392,1,0,0:0:0:0:
192,192,123485,1,0,0:0:0:0:
64,192,123485,1,0,0:0:0:0:
320,192,123579,1,0,0:0:0:0:
448,192,123579,1,0,0:0:0:0:
192,192,123673,1,0,0:0:0:0:
64,192,123673,1,0,0:0:0:0:
320,192,123767,1,0,0:0:0:0:
448,192,123767,1,0,0:0:0:0:
192,192,123860,1,0,0:0:0:0:
64,192,123860,1,0,0:0:0:0:
320,192,123954,1,0,0:0:0:0:
448,192,123954,1,0,0:0:0:0:
192,192,124048,1,0,0:0:0:0:
64,192,124048,1,0,0:0:0:0:
448,192,124142,128,0,124329:0:0:0:0:
64,192,124329,128,0,124517:0:0:0:0:
320,192,124517,128,0,124704:0:0:0:0:
448,192,124704,128,0,124892:0:0:0:0:
192,192,124892,1,0,0:0:0:0:
64,192,124892,1,0,0:0:0:0:
192,192,124985,1,0,0:0:0:0:
64,192,124985,1,0,0:0:0:0:
320,192,125079,1,0,0:0:0:0:
448,192,125079,1,0,0:0:0:0:
448,192,125267,1,0,0:0:0:0:
64,192,125267,1,0,0:0:0:0:
192,192,125360,1,0,0:0:0:0:
320,192,125454,1,0,0:0:0:0:
448,192,125454,1,0,0:0:0:0:
192,192,125548,1,0,0:0:0:0:
320,192,125642,1,0,0:0:0:0:
64,192,125642,1,0,0:0:0:0:
448,192,125735,1,0,0:0:0:0:
64,192,125829,1,0,0:0:0:0:
192,192,125829,1,0,0:0:0:0:
320,192,125923,1,0,0:0:0:0:
448,192,126017,1,0,0:0:0:0:
64,192,126017,1,0,0:0:0:0:
320,192,126110,1,0,0:0:0:0:
192,192,126204,1,0,0:0:0:0:
64,192,126204,1,0,0:0:0:0:
448,192,126392,128,0,126579:0:0:0:0:
192,192,126579,128,0,126767:0:0:0:0:
64,192,126767,128,0,126954:0:0:0:0:
192,192,126954,128,0,127142:0:0:0:0:
320,192,127142,1,0,0:0:0:0:
448,192,127142,1,0,0:0:0:0:
448,192,127235,1,0,0:0:0:0:
320,192,127235,1,0,0:0:0:0:
192,192,127329,1,0,0:0:0:0:
64,192,127329,1,0,0:0:0:0:
448,192,127517,1,0,0:0:0:0:
64,192,127517,1,0,0:0:0:0:
192,192,127610,1,0,0:0:0:0:
320,192,127704,1,0,0:0:0:0:
448,192,127704,1,0,0:0:0:0:
64,192,127798,1,0,0:0:0:0:
448,192,127892,1,0,0:0:0:0:
192,192,127892,1,0,0:0:0:0:
320,192,127985,1,0,0:0:0:0:
192,192,128079,1,0,0:0:0:0:
64,192,128079,1,0,0:0:0:0:
320,192,128173,1,0,0:0:0:0:
64,192,128267,128,0,128454:0:0:0:0:
448,192,128454,128,0,128642:0:0:0:0:
192,192,128642,128,0,128829:0:0:0:0:
320,192,128829,128,0,129017:0:0:0:0:
192,192,129017,1,0,0:0:0:0:
64,192,129017,1,0,0:0:0:0:
64,192,129110,1,0,0:0:0:0:
192,192,129110,1,0,0:0:0:0:
320,192,129204,1,0,0:0:0:0:
448,192,129204,1,0,0:0:0:0:
192,192,129392,1,0,0:0:0:0:
64,192,129392,1,0,0:0:0:0:
320,192,129485,1,0,0:0:0:0:
448,192,129579,1,0,0:0:0:0:
64,192,129579,1,0,0:0:0:0:
192,192,129673,1,0,0:0:0:0:
320,192,129767,1,0,0:0:0:0:
64,192,129767,1,0,0:0:0:0:
448,192,129860,1,0,0:0:0:0:
192,192,129954,1,0,0:0:0:0:
64,192,129954,1,0,0:0:0:0:
320,192,130048,1,0,0:0:0:0:
448,192,130142,1,0,0:0:0:0:
192,192,130142,1,0,0:0:0:0:
320,192,130235,1,0,0:0:0:0:
448,192,130329,1,0,0:0:0:0:
64,192,130329,1,0,0:0:0:0:
192,192,130423,1,0,0:0:0:0:
320,192,130517,1,0,0:0:0:0:
448,192,130610,1,0,0:0:0:0:
64,192,130704,1,0,0:0:0:0:
192,192,130798,1,0,0:0:0:0:
320,192,130892,128,0,131079:0:0:0:0:
448,192,131079,128,0,131267:0:0:0:0:
64,192,131079,1,0,0:0:0:0:
192,192,131267,128,0,131454:0:0:0:0:
64,192,131454,1,0,0:0:0:0:
320,192,131454,128,0,131642:0:0:0:0:
64,192,131642,1,0,0:0:0:0:
192,192,131735,1,0,0:0:0:0:
448,192,131829,1,0,0:0:0:0:
320,192,131923,1,0,0:0:0:0:
64,192,132017,1,0,0:0:0:0:
192,192,132063,1,0,0:0:0:0:
320,192,132110,1,0,0:0:0:0:
448,192,132157,1,0,0:0:0:0:
64,192,132204,1,0,0:0:0:0:
192,192,132251,1,0,0:0:0:0:
320,192,132298,1,0,0:0:0:0:
448,192,132345,1,0,0:0:0:0:
64,192,132392,128,0,132579:0:0:0:0:
320,192,132579,128,0,132767:0:0:0:0:
192,192,132579,1,0,0:0:0:0:
64,192,132767,128,0,132954:0:0:0:0:
448,192,132954,1,0,0:0:0:0:
192,192,132954,128,0,133142:0:0:0:0:
448,192,133142,128,0,133329:0:0:0:0:
320,192,133329,1,0,0:0:0:0:
64,192,133329,128,0,133517:0:0:0:0:
448,192,133517,1,0,0:0:0:0:
320,192,133517,1,0,0:0:0:0:
192,192,133610,1,0,0:0:0:0:
448,192,133704,1,0,0:0:0:0:
64,192,133704,1,0,0:0:0:0:
320,192,133798,1,0,0:0:0:0:
192,192,133892,1,0,0:0:0:0:
64,192,133892,1,0,0:0:0:0:
448,192,133985,1,0,0:0:0:0:
320,192,134079,1,0,0:0:0:0:
64,192,134079,1,0,0:0:0:0:
192,192,134173,1,0,0:0:0:0:
448,192,134267,1,0,0:0:0:0:
320,192,134267,1,0,0:0:0:0:
192,192,134360,1,0,0:0:0:0:
64,192,134454,1,0,0:0:0:0:
448,192,134642,128,0,134829:0:0:0:0:
320,192,134829,1,0,0:0:0:0:
64,192,134829,128,0,135017:0:0:0:0:
192,192,135017,128,0,135204:0:0:0:0:
448,192,135204,1,0,0:0:0:0:
320,192,135204,128,0,135392:0:0:0:0:
64,192,135392,128,0,135579:0:0:0:0:
192,192,135579,1,0,0:0:0:0:
448,192,135579,128,0,135767:0:0:0:0:
320,192,135767,1,0,0:0:0:0:
64,192,135767,1,0,0:0:0:0:
192,192,135860,1,0,0:0:0:0:
320,192,135954,1,0,0:0:0:0:
448,192,135954,1,0,0:0:0:0:
64,192,136048,1,0,0:0:0:0:
448,192,136142,1,0,0:0:0:0:
192,192,136142,1,0,0:0:0:0:
64,192,136235,1,0,0:0:0:0:
448,192,136329,1,0,0:0:0:0:
320,192,136329,1,0,0:0:0:0:
192,192,136423,128,0,136704:0:0:0:0:
320,192,136704,128,0,136892:0:0:0:0:
448,192,136704,1,0,0:0:0:0:
64,192,136892,128,0,137079:0:0:0:0:
192,192,137079,128,0,137267:0:0:0:0:
320,192,137079,1,0,0:0:0:0:
448,192,137267,128,0,137454:0:0:0:0:
64,192,137454,128,0,137642:0:0:0:0:
192,192,137454,1,0,0:0:0:0:
320,192,137642,1,0,0:0:0:0:
448,192,137642,1,0,0:0:0:0:
192,192,137735,1,0,0:0:0:0:
64,192,137829,1,0,0:0:0:0:
448,192,137829,1,0,0:0:0:0:
320,192,137923,1,0,0:0:0:0:
192,192,138017,1,0,0:0:0:0:
64,192,138017,1,0,0:0:0:0:
448,192,138110,1,0,0:0:0:0:
192,192,138204,1,0,0:0:0:0:
64,192,138204,1,0,0:0:0:0:
64,192,138392,5,0,0:0:0:0:
192,192,138392,1,0,0:0:0:0:
320,192,138485,1,0,0:0:0:0:
64,192,138579,1,0,0:0:0:0:
448,192,138579,1,0,0:0:0:0:
192,192,138673,1,0,0:0:0:0:
448,192,138767,1,0,0:0:0:0:
320,192,138767,1,0,0:0:0:0:
64,192,138860,1,0,0:0:0:0:
320,192,138954,128,0,139142:0:0:0:0:
448,192,138954,1,0,0:0:0:0:
192,192,139142,128,0,139329:0:0:0:0:
448,192,139329,128,0,139517:0:0:0:0:
320,192,139329,1,0,0:0:0:0:
64,192,139517,5,0,0:0:0:0:
192,192,139563,1,0,0:0:0:0:
320,192,139610,1,0,0:0:0:0:
448,192,139657,1,0,0:0:0:0:
64,192,139704,1,0,0:0:0:0:
192,192,139751,1,0,0:0:0:0:
320,192,139798,1,0,0:0:0:0:
448,192,139845,1,0,0:0:0:0:
192,192,139892,1,0,0:0:0:0:
64,192,139892,1,0,0:0:0:0:
320,192,139985,1,0,0:0:0:0:
448,192,139985,1,0,0:0:0:0:
192,192,140079,1,0,0:0:0:0:
64,192,140079,1,0,0:0:0:0:
320,192,140173,1,0,0:0:0:0:
448,192,140173,1,0,0:0:0:0:
64,192,140267,1,0,0:0:0:0:
192,192,140267,1,0,0:0:0:0:
320,192,140360,1,0,0:0:0:0:
448,192,140360,1,0,0:0:0:0:
192,192,140454,1,0,0:0:0:0:
64,192,140454,1,0,0:0:0:0:
320,192,140548,1,0,0:0:0:0:
448,192,140548,1,0,0:0:0:0:
192,192,140642,1,0,0:0:0:0:
64,192,140642,1,0,0:0:0:0:
448,192,140735,1,0,0:0:0:0:
320,192,140829,1,0,0:0:0:0:
64,192,140923,1,0,0:0:0:0:
192,192,141017,1,0,0:0:0:0:
448,192,141017,1,0,0:0:0:0:
320,192,141110,1,0,0:0:0:0:
64,192,141204,1,0,0:0:0:0:
192,192,141204,1,0,0:0:0:0:
320,192,141298,1,0,0:0:0:0:
448,192,141392,1,0,0:0:0:0:
64,192,141392,1,0,0:0:0:0:
320,192,141485,1,0,0:0:0:0:
192,192,141579,1,0,0:0:0:0:
448,192,141673,1,0,0:0:0:0:
320,192,141673,1,0,0:0:0:0:
64,192,141767,1,0,0:0:0:0:
192,192,141767,1,0,0:0:0:0:
448,192,141860,1,0,0:0:0:0:
320,192,141954,1,0,0:0:0:0:
64,192,141954,1,0,0:0:0:0:
192,192,142048,1,0,0:0:0:0:
64,192,142142,1,0,0:0:0:0:
448,192,142142,1,0,0:0:0:0:
320,192,142235,1,0,0:0:0:0:
192,192,142329,1,0,0:0:0:0:
64,192,142423,1,0,0:0:0:0:
448,192,142423,1,0,0:0:0:0:
320,192,142517,1,0,0:0:0:0:
192,192,142517,1,0,0:0:0:0:
64,192,142610,1,0,0:0:0:0:
448,192,142704,1,0,0:0:0:0:
320,192,142704,1,0,0:0:0:0:
192,192,142798,1,0,0:0:0:0:
448,192,142892,1,0,0:0:0:0:
64,192,142892,1,0,0:0:0:0:
320,192,142985,1,0,0:0:0:0:
64,192,143079,1,0,0:0:0:0:
320,192,143173,1,0,0:0:0:0:
448,192,143173,1,0,0:0:0:0:
64,192,143267,1,0,0:0:0:0:
192,192,143267,1,0,0:0:0:0:
320,192,143360,1,0,0:0:0:0:
448,192,143454,1,0,0:0:0:0:
64,192,143454,1,0,0:0:0:0:
192,192,143548,1,0,0:0:0:0:
320,192,143642,1,0,0:0:0:0:
448,192,143642,1,0,0:0:0:0:
64,192,143735,1,0,0:0:0:0:
192,192,143829,1,0,0:0:0:0:
320,192,143923,1,0,0:0:0:0:
448,192,143923,1,0,0:0:0:0:
64,192,144017,1,0,0:0:0:0:
192,192,144017,1,0,0:0:0:0:
320,192,144110,1,0,0:0:0:0:
448,192,144204,1,0,0:0:0:0:
192,192,144204,1,0,0:0:0:0:
64,192,144298,1,0,0:0:0:0:
448,192,144392,1,0,0:0:0:0:
320,192,144392,1,0,0:0:0:0:
192,192,144485,1,0,0:0:0:0:
64,192,144579,1,0,0:0:0:0:
448,192,144673,1,0,0:0:0:0:
320,192,144673,1,0,0:0:0:0:
192,192,144767,1,0,0:0:0:0:
64,192,144767,1,0,0:0:0:0:
320,192,144860,1,0,0:0:0:0:
192,192,144954,1,0,0:0:0:0:
448,192,144954,1,0,0:0:0:0:
64,192,145048,1,0,0:0:0:0:
448,192,145142,1,0,0:0:0:0:
320,192,145142,1,0,0:0:0:0:
192,192,145235,1,0,0:0:0:0:
64,192,145329,1,0,0:0:0:0:
448,192,145423,1,0,0:0:0:0:
320,192,145517,1,0,0:0:0:0:
64,192,145517,1,0,0:0:0:0:
192,192,145610,1,0,0:0:0:0:
320,192,145704,1,0,0:0:0:0:
448,192,145704,1,0,0:0:0:0:
64,192,145798,1,0,0:0:0:0:
448,192,145892,1,0,0:0:0:0:
192,192,145892,1,0,0:0:0:0:
448,192,146079,1,0,0:0:0:0:
192,192,146079,1,0,0:0:0:0:
192,192,146267,1,0,0:0:0:0:
64,192,146267,1,0,0:0:0:0:
192,192,146454,1,0,0:0:0:0:
64,192,146454,1,0,0:0:0:0:
320,192,146548,1,0,0:0:0:0:
448,192,146548,1,0,0:0:0:0:
192,192,146642,1,0,0:0:0:0:
64,192,146642,1,0,0:0:0:0:
448,192,146735,1,0,0:0:0:0:
320,192,146829,1,0,0:0:0:0:
64,192,146923,1,0,0:0:0:0:
448,192,147017,1,0,0:0:0:0:
320,192,147017,1,0,0:0:0:0:
192,192,147110,1,0,0:0:0:0:
320,192,147204,1,0,0:0:0:0:
64,192,147204,1,0,0:0:0:0:
448,192,147298,1,0,0:0:0:0:
192,192,147392,1,0,0:0:0:0:
64,192,147392,1,0,0:0:0:0:
320,192,147485,1,0,0:0:0:0:
192,192,147579,1,0,0:0:0:0:
448,192,147673,1,0,0:0:0:0:
320,192,147767,1,0,0:0:0:0:
64,192,147767,1,0,0:0:0:0:
192,192,147860,1,0,0:0:0:0:
448,192,147954,1,0,0:0:0:0:
320,192,148048,1,0,0:0:0:0:
192,192,148142,1,0,0:0:0:0:
64,192,148142,1,0,0:0:0:0:
320,192,148235,1,0,0:0:0:0:
448,192,148329,1,0,0:0:0:0:
192,192,148423,1,0,0:0:0:0:
64,192,148423,1,0,0:0:0:0:
320,192,148517,1,0,0:0:0:0:
448,192,148517,1,0,0:0:0:0:
64,192,148610,1,0,0:0:0:0:
192,192,148704,1,0,0:0:0:0:
448,192,148704,1,0,0:0:0:0:
320,192,148798,1,0,0:0:0:0:
192,192,148892,1,0,0:0:0:0:
64,192,148892,1,0,0:0:0:0:
320,192,148985,1,0,0:0:0:0:
448,192,149079,1,0,0:0:0:0:
192,192,149173,1,0,0:0:0:0:
64,192,149173,1,0,0:0:0:0:
320,192,149267,1,0,0:0:0:0:
448,192,149267,1,0,0:0:0:0:
192,192,149360,1,0,0:0:0:0:
64,192,149454,1,0,0:0:0:0:
320,192,149454,1,0,0:0:0:0:
448,192,149548,1,0,0:0:0:0:
192,192,149642,1,0,0:0:0:0:
64,192,149642,1,0,0:0:0:0:
320,192,149735,1,0,0:0:0:0:
448,192,149829,1,0,0:0:0:0:
320,192,149923,1,0,0:0:0:0:
192,192,149923,1,0,0:0:0:0:
64,192,150017,1,0,0:0:0:0:
448,192,150017,1,0,0:0:0:0:
192,192,150110,1,0,0:0:0:0:
320,192,150204,1,0,0:0:0:0:
64,192,150204,1,0,0:0:0:0:
448,192,150298,1,0,0:0:0:0:
192,192,150392,1,0,0:0:0:0:
64,192,150392,1,0,0:0:0:0:
320,192,150485,1,0,0:0:0:0:
192,192,150579,1,0,0:0:0:0:
448,192,150673,1,0,0:0:0:0:
320,192,150673,1,0,0:0:0:0:
192,192,150767,1,0,0:0:0:0:
64,192,150767,1,0,0:0:0:0:
448,192,150860,1,0,0:0:0:0:
320,192,150954,1,0,0:0:0:0:
64,192,150954,1,0,0:0:0:0:
192,192,151048,1,0,0:0:0:0:
320,192,151142,1,0,0:0:0:0:
448,192,151142,1,0,0:0:0:0:
64,192,151235,1,0,0:0:0:0:
448,192,151329,1,0,0:0:0:0:
320,192,151329,1,0,0:0:0:0:
192,192,151423,1,0,0:0:0:0:
64,192,151423,1,0,0:0:0:0:
320,192,151517,1,0,0:0:0:0:
448,192,151517,1,0,0:0:0:0:
192,192,151610,1,0,0:0:0:0:
64,192,151704,1,0,0:0:0:0:
448,192,151704,1,0,0:0:0:0:
320,192,151798,1,0,0:0:0:0:
192,192,151892,1,0,0:0:0:0:
64,192,151892,1,0,0:0:0:0:
448,192,151985,1,0,0:0:0:0:
192,192,152079,1,0,0:0:0:0:
64,192,152079,1,0,0:0:0:0:
320,192,152173,1,0,0:0:0:0:
448,192,152173,1,0,0:0:0:0:
192,192,152267,1,0,0:0:0:0:
64,192,152267,1,0,0:0:0:0:
320,192,152360,1,0,0:0:0:0:
448,192,152454,1,0,0:0:0:0:
192,192,152454,1,0,0:0:0:0:
64,192,152548,1,0,0:0:0:0:
320,192,152642,1,0,0:0:0:0:
448,192,152642,1,0,0:0:0:0:
192,192,152735,1,0,0:0:0:0:
320,192,152829,1,0,0:0:0:0:
448,192,152829,1,0,0:0:0:0:
192,192,152923,1,0,0:0:0:0:
64,192,152923,1,0,0:0:0:0:
320,192,153017,1,0,0:0:0:0:
448,192,153017,1,0,0:0:0:0:
192,192,153110,1,0,0:0:0:0:
320,192,153204,1,0,0:0:0:0:
64,192,153204,1,0,0:0:0:0:
448,192,153298,1,0,0:0:0:0:
192,192,153392,1,0,0:0:0:0:
64,192,153392,1,0,0:0:0:0:
320,192,153485,1,0,0:0:0:0:
448,192,153579,1,0,0:0:0:0:
192,192,153579,1,0,0:0:0:0:
64,192,153673,1,0,0:0:0:0:
320,192,153673,1,0,0:0:0:0:
192,192,153767,1,0,0:0:0:0:
448,192,153767,1,0,0:0:0:0:
64,192,153860,1,0,0:0:0:0:
448,192,153954,1,0,0:0:0:0:
320,192,153954,1,0,0:0:0:0:
192,192,154048,1,0,0:0:0:0:
64,192,154142,1,0,0:0:0:0:
320,192,154142,1,0,0:0:0:0:
448,192,154235,1,0,0:0:0:0:
192,192,154329,1,0,0:0:0:0:
64,192,154329,1,0,0:0:0:0:
320,192,154423,1,0,0:0:0:0:
448,192,154423,1,0,0:0:0:0:
192,192,154517,1,0,0:0:0:0:
64,192,154517,1,0,0:0:0:0:
320,192,154610,1,0,0:0:0:0:
448,192,154704,1,0,0:0:0:0:
192,192,154704,1,0,0:0:0:0:
320,192,154798,1,0,0:0:0:0:
192,192,154892,1,0,0:0:0:0:
64,192,154892,1,0,0:0:0:0:
448,192,154985,1,0,0:0:0:0:
64,192,155079,1,0,0:0:0:0:
320,192,155079,1,0,0:0:0:0:
192,192,155173,1,0,0:0:0:0:
448,192,155173,1,0,0:0:0:0:
320,192,155267,1,0,0:0:0:0:
64,192,155267,1,0,0:0:0:0:
192,192,155360,1,0,0:0:0:0:
64,192,155454,1,0,0:0:0:0:
448,192,155454,1,0,0:0:0:0:
320,192,155548,1,0,0:0:0:0:
192,192,155642,1,0,0:0:0:0:
64,192,155642,1,0,0:0:0:0:
448,192,155735,1,0,0:0:0:0:
320,192,155829,1,0,0:0:0:0:
192,192,155923,1,0,0:0:0:0:
64,192,156017,1,0,0:0:0:0:
320,192,156110,1,0,0:0:0:0:
448,192,156204,1,0,0:0:0:0:
64,192,156204,1,0,0:0:0:0:
192,192,156298,1,0,0:0:0:0:
320,192,156392,1,0,0:0:0:0:
448,192,156392,1,0,0:0:0:0:
192,192,156485,1,0,0:0:0:0:
320,192,156579,1,0,0:0:0:0:
64,192,156579,1,0,0:0:0:0:
448,192,156767,1,0,0:0:0:0:
320,192,156767,1,0,0:0:0:0:
448,192,156954,1,0,0:0:0:0:
64,192,156954,1,0,0:0:0:0:
192,192,157142,128,0,157423:0:0:0:0:
64,192,157142,1,0,0:0:0:0:
448,192,157235,1,0,0:0:0:0:
320,192,157329,1,0,0:0:0:0:
320,192,157423,128,0,157704:0:0:0:0:
192,192,157517,1,0,0:0:0:0:
448,192,157704,128,0,157892:0:0:0:0:
64,192,157704,1,0,0:0:0:0:
64,192,157892,128,0,158267:0:0:0:0:
192,192,157892,1,0,0:0:0:0:
320,192,157985,1,0,0:0:0:0:
448,192,158079,1,0,0:0:0:0:
192,192,158267,1,0,0:0:0:0:
192,192,158454,1,0,0:0:0:0:
320,192,158454,1,0,0:0:0:0:
448,192,158642,128,0,158923:0:0:0:0:
64,192,158642,1,0,0:0:0:0:
192,192,158735,1,0,0:0:0:0:
320,192,158829,1,0,0:0:0:0:
320,192,158923,128,0,159204:0:0:0:0:
192,192,159017,1,0,0:0:0:0:
64,192,159110,1,0,0:0:0:0:
64,192,159204,128,0,159392:0:0:0:0:
192,192,159392,128,0,159673:0:0:0:0:
448,192,159392,1,0,0:0:0:0:
320,192,159485,1,0,0:0:0:0:
64,192,159579,1,0,0:0:0:0:
448,192,159673,128,0,159954:0:0:0:0:
320,192,159767,1,0,0:0:0:0:
320,192,159954,128,0,160142:0:0:0:0:
192,192,159954,1,0,0:0:0:0:
64,192,160142,128,0,160423:0:0:0:0:
448,192,160142,1,0,0:0:0:0:
320,192,160235,1,0,0:0:0:0:
192,192,160329,1,0,0:0:0:0:
192,192,160423,128,0,160704:0:0:0:0:
448,192,160517,1,0,0:0:0:0:
448,192,160704,128,0,160892:0:0:0:0:
64,192,160704,1,0,0:0:0:0:
320,192,160892,128,0,161173:0:0:0:0:
192,192,160892,1,0,0:0:0:0:
448,192,160985,1,0,0:0:0:0:
64,192,161079,1,0,0:0:0:0:
64,192,161173,128,0,161454:0:0:0:0:
192,192,161267,1,0,0:0:0:0:
320,192,161360,1,0,0:0:0:0:
448,192,161454,1,0,0:0:0:0:
192,192,161548,1,0,0:0:0:0:
320,192,161642,1,0,0:0:0:0:
448,192,161642,1,0,0:0:0:0:
192,192,161735,1,0,0:0:0:0:
320,192,161829,1,0,0:0:0:0:
64,192,161829,1,0,0:0:0:0:
448,192,162017,1,0,0:0:0:0:
64,192,162017,1,0,0:0:0:0:
192,192,162204,1,0,0:0:0:0:
320,192,162204,1,0,0:0:0:0:
448,192,162298,1,0,0:0:0:0:
320,192,162392,1,0,0:0:0:0:
64,192,162392,1,0,0:0:0:0:
192,192,162485,1,0,0:0:0:0:
448,192,162579,1,0,0:0:0:0:
64,192,162579,1,0,0:0:0:0:
448,192,162767,1,0,0:0:0:0:
320,192,162860,1,0,0:0:0:0:
192,192,162954,1,0,0:0:0:0:
448,192,163048,1,0,0:0:0:0:
320,192,163142,1,0,0:0:0:0:
64,192,163235,1,0,0:0:0:0:
192,192,163329,1,0,0:0:0:0:
448,192,163517,1,0,0:0:0:0:
320,192,163610,1,0,0:0:0:0:
192,192,163704,1,0,0:0:0:0:
448,192,163892,1,0,0:0:0:0:
64,192,163892,1,0,0:0:0:0:
320,192,163985,1,0,0:0:0:0:
192,192,164079,1,0,0:0:0:0:
64,192,164079,1,0,0:0:0:0:
448,192,164267,1,0,0:0:0:0:
320,192,164267,1,0,0:0:0:0:
192,192,164454,1,0,0:0:0:0:
448,192,164454,1,0,0:0:0:0:
192,192,164642,1,0,0:0:0:0:
64,192,164642,1,0,0:0:0:0:
320,192,164735,1,0,0:0:0:0:
448,192,164829,1,0,0:0:0:0:
192,192,164829,1,0,0:0:0:0:
64,192,165017,1,0,0:0:0:0:
192,192,165110,1,0,0:0:0:0:
320,192,165204,1,0,0:0:0:0:
448,192,165298,1,0,0:0:0:0:
192,192,165392,1,0,0:0:0:0:
320,192,165485,1,0,0:0:0:0:
64,192,165579,1,0,0:0:0:0:
192,192,165673,1,0,0:0:0:0:
448,192,165673,1,0,0:0:0:0:
320,192,165767,1,0,0:0:0:0:
64,192,165860,1,0,0:0:0:0:
320,192,165954,1,0,0:0:0:0:
448,192,165954,1,0,0:0:0:0:
448,192,166142,1,0,0:0:0:0:
64,192,166142,1,0,0:0:0:0:
192,192,166329,1,0,0:0:0:0:
64,192,166329,1,0,0:0:0:0:
320,192,166423,1,0,0:0:0:0:
448,192,166517,1,0,0:0:0:0:
192,192,166517,1,0,0:0:0:0:
64,192,166610,1,0,0:0:0:0:
448,192,166704,1,0,0:0:0:0:
320,192,166704,1,0,0:0:0:0:
192,192,166892,1,0,0:0:0:0:
320,192,166985,1,0,0:0:0:0:
64,192,167079,1,0,0:0:0:0:
448,192,167173,1,0,0:0:0:0:
320,192,167267,1,0,0:0:0:0:
192,192,167360,1,0,0:0:0:0:
448,192,167454,1,0,0:0:0:0:
64,192,167642,1,0,0:0:0:0:
192,192,167735,1,0,0:0:0:0:
320,192,167829,1,0,0:0:0:0:
448,192,167923,1,0,0:0:0:0:
64,192,167923,1,0,0:0:0:0:
192,192,168017,1,0,0:0:0:0:
320,192,168110,1,0,0:0:0:0:
448,192,168110,1,0,0:0:0:0:
192,192,168204,1,0,0:0:0:0:
64,192,168204,1,0,0:0:0:0:
320,192,168298,1,0,0:0:0:0:
448,192,168298,1,0,0:0:0:0:
192,192,168392,1,0,0:0:0:0:
64,192,168392,1,0,0:0:0:0:
320,192,168485,1,0,0:0:0:0:
448,192,168579,1,0,0:0:0:0:
64,192,168579,1,0,0:0:0:0:
192,192,168673,1,0,0:0:0:0:
320,192,168767,1,0,0:0:0:0:
448,192,168767,1,0,0:0:0:0:
192,192,168860,1,0,0:0:0:0:
448,192,168954,1,0,0:0:0:0:
64,192,168954,1,0,0:0:0:0:
320,192,169048,1,0,0:0:0:0:
192,192,169142,1,0,0:0:0:0:
64,192,169235,1,0,0:0:0:0:
448,192,169329,1,0,0:0:0:0:
320,192,169423,1,0,0:0:0:0:
64,192,169517,1,0,0:0:0:0:
192,192,169563,1,0,0:0:0:0:
320,192,169610,1,0,0:0:0:0:
448,192,169657,1,0,0:0:0:0:
64,192,169704,1,0,0:0:0:0:
192,192,169751,1,0,0:0:0:0:
320,192,169798,1,0,0:0:0:0:
448,192,169845,1,0,0:0:0:0:
192,192,169892,1,0,0:0:0:0:
64,192,169892,1,0,0:0:0:0:
320,192,169985,1,0,0:0:0:0:
192,192,170079,1,0,0:0:0:0:
448,192,170079,1,0,0:0:0:0:
64,192,170267,1,0,0:0:0:0:
448,192,170267,1,0,0:0:0:0:
320,192,170454,1,0,0:0:0:0:
192,192,170454,1,0,0:0:0:0:
64,192,170548,1,0,0:0:0:0:
192,192,170642,1,0,0:0:0:0:
448,192,170642,1,0,0:0:0:0:
320,192,170735,1,0,0:0:0:0:
64,192,170829,1,0,0:0:0:0:
448,192,170829,1,0,0:0:0:0:
64,192,171017,1,0,0:0:0:0:
192,192,171110,1,0,0:0:0:0:
320,192,171204,1,0,0:0:0:0:
64,192,171298,1,0,0:0:0:0:
192,192,171392,1,0,0:0:0:0:
448,192,171485,1,0,0:0:0:0:
320,192,171579,1,0,0:0:0:0:
64,192,171767,1,0,0:0:0:0:
192,192,171860,1,0,0:0:0:0:
320,192,171954,1,0,0:0:0:0:
64,192,172142,1,0,0:0:0:0:
448,192,172142,1,0,0:0:0:0:
192,192,172235,1,0,0:0:0:0:
320,192,172329,1,0,0:0:0:0:
448,192,172329,1,0,0:0:0:0:
64,192,172517,1,0,0:0:0:0:
192,192,172517,1,0,0:0:0:0:
320,192,172704,1,0,0:0:0:0:
64,192,172704,1,0,0:0:0:0:
320,192,172892,1,0,0:0:0:0:
448,192,172892,1,0,0:0:0:0:
192,192,172985,1,0,0:0:0:0:
64,192,173079,1,0,0:0:0:0:
320,192,173079,1,0,0:0:0:0:
448,192,173267,1,0,0:0:0:0:
320,192,173360,1,0,0:0:0:0:
192,192,173454,1,0,0:0:0:0:
64,192,173548,1,0,0:0:0:0:
320,192,173642,1,0,0:0:0:0:
192,192,173735,1,0,0:0:0:0:
448,192,173829,1,0,0:0:0:0:
320,192,173923,1,0,0:0:0:0:
64,192,173923,1,0,0:0:0:0:
192,192,174017,1,0,0:0:0:0:
448,192,174110,1,0,0:0:0:0:
192,192,174204,1,0,0:0:0:0:
64,192,174204,1,0,0:0:0:0:
64,192,174392,1,0,0:0:0:0:
448,192,174392,1,0,0:0:0:0:
320,192,174579,1,0,0:0:0:0:
448,192,174579,1,0,0:0:0:0:
192,192,174673,1,0,0:0:0:0:
64,192,174767,1,0,0:0:0:0:
320,192,174767,1,0,0:0:0:0:
448,192,174860,1,0,0:0:0:0:
64,192,174954,1,0,0:0:0:0:
192,192,174954,1,0,0:0:0:0:
320,192,175142,1,0,0:0:0:0:
192,192,175235,1,0,0:0:0:0:
448,192,175329,1,0,0:0:0:0:
64,192,175423,1,0,0:0:0:0:
192,192,175517,1,0,0:0:0:0:
320,192,175610,1,0,0:0:0:0:
64,192,175704,1,0,0:0:0:0:
448,192,175892,1,0,0:0:0:0:
320,192,175985,1,0,0:0:0:0:
192,192,176079,1,0,0:0:0:0:
64,192,176173,1,0,0:0:0:0:
448,192,176173,1,0,0:0:0:0:
320,192,176267,1,0,0:0:0:0:
192,192,176360,1,0,0:0:0:0:
64,192,176360,1,0,0:0:0:0:
320,192,176454,1,0,0:0:0:0:
448,192,176454,1,0,0:0:0:0:
192,192,176548,1,0,0:0:0:0:
64,192,176548,1,0,0:0:0:0:
320,192,176642,1,0,0:0:0:0:
448,192,176642,1,0,0:0:0:0:
192,192,176735,1,0,0:0:0:0:
64,192,176829,1,0,0:0:0:0:
448,192,176829,1,0,0:0:0:0:
320,192,176923,1,0,0:0:0:0:
192,192,177017,1,0,0:0:0:0:
64,192,177017,1,0,0:0:0:0:
320,192,177110,1,0,0:0:0:0:
64,192,177204,1,0,0:0:0:0:
448,192,177204,1,0,0:0:0:0:
192,192,177298,1,0,0:0:0:0:
320,192,177392,1,0,0:0:0:0:
448,192,177485,1,0,0:0:0:0:
64,192,177579,1,0,0:0:0:0:
192,192,177673,1,0,0:0:0:0:
448,192,177767,1,0,0:0:0:0:
320,192,177767,1,0,0:0:0:0:
192,192,177860,1,0,0:0:0:0:
64,192,177954,1,0,0:0:0:0:
320,192,177954,1,0,0:0:0:0:
192,192,178048,1,0,0:0:0:0:
448,192,178048,1,0,0:0:0:0:
