osu file format v14

[General]
AudioFilename: audio.mp3
AudioLeadIn: 0
PreviewTime: 64325
Countdown: 1
SampleSet: Normal
StackLeniency: 0.3
Mode: 0
LetterboxInBreaks: 0
WidescreenStoryboard: 0

[Editor]
Bookmarks: 14045,16727,19408,21420,32146,97174,99855,102537,105219,123989,153487
DistanceSpacing: 0.9
BeatDivisor: 4
GridSize: 8
TimelineZoom: 1.9

[Metadata]
Title:Eien No Shunmu
TitleUnicode:永遠の春夢
Artist:ZUN
ArtistUnicode:ZUN
Creator:SDpeople
Version:Lunatic
Source:東方紺珠伝 ~ Legacy of Lunatic Kingdom.
Tags:東方Project Touhou th15 上海アリス幻樂団 Doremy Sweet c92 comiket
BeatmapID:2082097
BeatmapSetID:995301

[Difficulty]
HPDrainRate:5
CircleSize:3.8
OverallDifficulty:8.5
ApproachRate:8.7
SliderMultiplier:1.4
SliderTickRate:1

[Events]
//Background and Video events
0,0,"BG.jpg",0,0
//Break Periods
//Storyboard Layer 0 (Background)
//Storyboard Layer 1 (Fail)
//Storyboard Layer 2 (Pass)
//Storyboard Layer 3 (Foreground)
//Storyboard Sound Samples

[TimingPoints]
638,335.195530726257,4,1,0,40,1,0
12034,-66.6666666666667,4,1,0,40,0,0
31475,-66.6666666666667,4,1,0,40,0,0
40861,-66.6666666666667,4,1,0,40,0,0
42202,-100,4,1,0,40,0,0
51587,-66.6666666666667,4,1,0,40,0,0
54269,-133.333333333333,4,1,0,40,0,0
64325,-66.6666666666667,4,1,0,40,0,0
74381,-80,4,1,0,40,0,0
75051,-66.6666666666667,4,1,0,40,0,0
86448,-133.333333333333,4,2,0,40,0,0
91811,-100,4,2,0,40,0,0
97174,-100,4,1,0,40,0,0
107230,-66.6666666666667,4,1,0,40,0,0
107900,-66.6666666666667,4,2,0,40,0,0
109241,-100,4,2,0,40,0,0
110582,-66.6666666666667,4,2,0,40,0,0
111922,-100,4,2,0,40,0,0
113263,-66.6666666666667,4,2,0,40,0,0
118626,-100,4,1,0,40,0,0
128682,-80,4,2,0,40,0,0
139408,-80,4,1,0,40,0,0

[Colours]
Combo1 : 81,81,255
Combo2 : 172,0,172
Combo3 : 240,0,240
Combo4 : 0,0,210

[HitObjects]
121,114,638,5,0,0:0:0:0:
172,48,805,1,0,0:0:0:0:
239,98,973,1,0,0:0:0:0:
191,166,1140,1,0,0:0:0:0:
51,106,1308,2,0,L|121:114,1,70
308,105,1643,2,0,L|239:98,1,70
221,240,1978,5,0,0:0:0:0:
272,174,2145,1,0,0:0:0:0:
339,224,2313,1,0,0:0:0:0:
291,292,2480,1,0,0:0:0:0:
220,239,2648,2,0,L|151:232,1,70
339,224,2984,2,0,L|408:231,1,70
394,20,3319,6,0,L|375:87,1,70
321,291,3654,2,0,L|339:223,1,70
491,191,3989,2,0,L|423:172,1,70,0|0,0:0|0:0,0:0:0:0:
221,117,4325,2,0,L|288:135,1,70,0|0,0:0|0:0,0:0:0:0:
376,88,4660,6,0,L|394:20,1,70
338,223,4995,2,0,L|319:290,1,70
424,173,5330,2,0,L|491:191,1,70,0|0,0:0|0:0,0:0:0:0:
289,136,5665,2,0,L|221:117,1,70,0|0,0:0|0:0,0:0:0:0:
61,164,6001,5,0,0:0:0:0:
113,217,6169,1,0,0:0:0:0:
131,147,6337,1,0,0:0:0:0:
113,217,6504,1,0,0:0:0:0:
77,94,6672,5,0,0:0:0:0:
40,233,6839,1,0,0:0:0:0:
185,197,7006,1,0,0:0:0:0:
77,94,7175,1,0,0:0:0:0:
185,197,7341,5,0,0:0:0:0:
237,250,7509,1,0,0:0:0:0:
255,180,7677,1,0,0:0:0:0:
237,250,7844,1,0,0:0:0:0:
201,127,8012,5,0,0:0:0:0:
309,230,8179,1,0,0:0:0:0:
164,266,8347,1,0,0:0:0:0:
201,127,8515,1,0,0:0:0:0:
64,139,8682,6,0,P|48:170|53:204,1,70
14,278,9017,2,0,P|45:294|79:289,1,70
152,330,9353,2,0,P|168:299|163:265,1,70
202,190,9688,2,0,P|172:175|138:179,1,70,0|0,0:0|0:0,0:0:0:0:
53,204,10023,6,0,P|48:169|64:139,1,70
79,288,10358,5,0,0:0:0:0:
163,265,10526,1,0,0:0:0:0:
163,265,10610,1,0,0:0:0:0:
163,265,10693,1,8,0:0:0:0:
136,179,10861,1,8,0:0:0:0:
163,265,11029,5,8,0:0:0:0:
136,179,11196,1,8,0:0:0:0:
110,91,11364,1,0,0:0:0:0:
196,119,11531,1,0,0:0:0:0:
136,179,11699,5,0,0:0:0:0:
247,43,11867,1,0,0:0:0:0:
165,27,12034,2,0,P|110:9|47:32,1,105
136,179,12369,2,0,P|186:201|254:180,1,105.000004005432
319,163,12705,5,0,0:0:0:0:
407,184,12872,1,0,0:0:0:0:
347,244,13040,1,0,0:0:0:0:
458,114,13207,1,0,0:0:0:0:
369,95,13375,2,0,P|323:78|254:105,1,105.000004005432
347,244,13710,1,0,0:0:0:0:
379,106,13878,5,0,0:0:0:0:
379,106,13962,1,0,0:0:0:0:
379,106,14045,1,0,0:0:0:0:
319,163,14213,1,0,0:0:0:0:
347,244,14381,1,0,0:0:0:0:
407,184,14548,1,0,0:0:0:0:
445,257,14716,2,0,P|419:310|374:338,1,105.000004005432
244,243,15051,2,0,P|270:190|315:162,1,105.000004005432
347,244,15386,5,0,0:0:0:0:
378,102,15554,1,0,0:0:0:0:
347,244,15721,1,0,0:0:0:0:
378,102,15889,1,0,0:0:0:0:
427,186,16056,1,0,0:0:0:0:
281,75,16224,1,0,0:0:0:0:
306,164,16392,2,0,L|197:150,1,105.000004005432
281,75,16727,5,0,0:0:0:0:
201,150,16894,1,0,0:0:0:0:
160,132,16978,1,0,0:0:0:0:
117,150,17062,2,0,P|51:93|46:39,1,105.000004005432
139,60,17397,5,0,0:0:0:0:
165,216,17565,1,0,0:0:0:0:
139,60,17732,1,0,0:0:0:0:
165,216,17900,1,0,0:0:0:0:
230,128,18068,5,0,0:0:0:0:
165,216,18235,1,0,0:0:0:0:
124,198,18319,1,0,0:0:0:0:
81,216,18403,2,0,P|15:159|10:105,1,105.000004005432
102,123,18738,5,0,0:0:0:0:
127,280,18906,1,0,0:0:0:0:
102,123,19073,1,0,0:0:0:0:
127,280,19241,1,0,0:0:0:0:
254,181,19408,6,0,L|371:172,1,105.000004005432
127,280,19744,2,0,L|10:289,1,105.000004005432
273,341,20079,5,8,0:0:0:0:
273,341,20246,1,8,0:0:0:0:
273,341,20414,1,8,0:0:0:0:
271,341,20582,1,8,0:0:0:0:
192,384,20749,5,0,0:0:0:0:
108,363,20917,1,0,0:0:0:0:
69,384,21001,2,0,P|18:330|18:233,1,157.500006008148
75,140,21420,6,0,P|121:125|182:133,1,105
236,209,21755,2,0,P|190:224|129:216,1,105.000004005432
11,250,22090,5,0,0:0:0:0:
11,250,22258,1,0,0:0:0:0:
88,333,22425,2,0,P|134:360|199:352,1,105.000004005432
287,337,22760,2,0,L|280:218,1,105.000004005432
274,127,23096,2,0,L|280:245,1,105.000004005432
361,166,23431,5,2,0:0:0:0:
199,210,23598,1,2,0:0:0:0:
361,255,23766,1,2,0:0:0:0:
199,299,23934,1,2,0:0:0:0:
274,127,24101,2,0,L|280:245,1,105.000004005432,2|0,0:0|0:0,0:0:0:0:
289,327,24436,5,0,0:0:0:0:
289,327,24604,1,0,0:0:0:0:
184,363,24772,2,0,P|132:374|81:362,1,105.000004005432
115,273,25107,2,0,P|167:262|218:274,1,105.000004005432
289,327,25442,2,0,P|333:298|361:253,1,105.000004005432
285,202,25777,2,0,L|163:180,1,105.000004005432
358,216,26112,5,0,0:0:0:0:
216,273,26280,1,0,0:0:0:0:
333,359,26448,1,8,0:0:0:0:
285,202,26615,1,8,0:0:0:0:
270,176,26699,1,8,0:0:0:0:
247,160,26783,2,0,P|207:141|137:160,1,105.000004005432,8|0,0:0|0:0,0:0:0:0:
189,241,27118,6,0,P|227:290|279:305,1,105.000004005432
353,130,27453,2,0,L|481:147,1,105.000004005432,2|0,0:0|0:0,0:0:0:0:
163,135,27788,2,0,L|53:154,1,105.000004005432,8|0,0:0|0:0,0:0:0:0:
367,215,28124,2,0,L|492:247,1,105.000004005432,2|0,0:0|0:0,0:0:0:0:
153,217,28459,2,0,L|50:244,1,105.000004005432,8|0,0:0|0:0,0:0:0:0:
264,119,28794,5,0,0:0:0:0:
271,149,28878,1,0,0:0:0:0:
279,179,28962,1,0,0:0:0:0:
286,209,29045,1,0,0:0:0:0:
293,239,29129,2,0,B|281:283|332:312|310:349,1,105.000004005432,2|0,0:0|0:0,0:0:0:0:
205,307,29464,6,0,L|83:323,1,105.000004005432,2|2,0:0|0:0,0:0:0:0:
389,304,29800,2,0,L|390:200,1,105.000004005432,2|0,0:0|0:0,0:0:0:0:
372,70,30135,5,0,0:0:0:0:
341,58,30219,1,0,0:0:0:0:
311,54,30302,1,0,0:0:0:0:
281,60,30386,1,0,0:0:0:0:
246,73,30470,2,0,P|196:106|178:160,1,105.000004005432,8|0,0:0|0:0,0:0:0:0:
296,265,30805,5,0,0:0:0:0:
314,237,30889,1,0,0:0:0:0:
324,208,30973,1,0,0:0:0:0:
324,178,31056,1,0,0:0:0:0:
319,141,31140,2,0,P|280:88|226:70,1,105.000004005432,8|0,0:0|0:0,0:0:0:0:
153,186,31475,2,0,P|263:204|166:150,1,315.000012016297
211,186,32146,6,0,L|315:196,1,105.000004005432
214,304,32481,2,0,L|109:314,1,105.000004005432
48,229,32816,5,0,0:0:0:0:
48,229,32984,1,0,0:0:0:0:
108,156,33151,2,0,P|155:136|206:145,1,105.000004005432
166,231,33487,2,0,L|269:212,1,105.000004005432
372,194,33822,2,0,L|268:212,1,105.000004005432
214,304,34157,5,2,0:0:0:0:
229,136,34325,1,2,0:0:0:0:
306,284,34492,1,2,0:0:0:0:
321,116,34660,1,2,0:0:0:0:
166,231,34827,2,0,L|269:212,1,105.000004005432
353,256,35163,5,0,0:0:0:0:
353,256,35330,1,0,0:0:0:0:
274,308,35498,2,0,P|225:322|173:317,1,105.000004005432
214,231,35833,2,0,P|230:181|279:144,1,105.000004005432
373,157,36168,2,0,P|351:212|310:243,1,105.000004005432
324,73,36503,2,0,P|376:60|433:84,1,105.000004005432
373,157,36839,5,0,0:0:0:0:
252,95,37006,1,0,0:0:0:0:
264,218,37174,1,8,0:0:0:0:
376,74,37341,1,8,0:0:0:0:
414,77,37425,1,8,0:0:0:0:
443,95,37509,2,0,P|465:141|457:193,1,105.000004005432,8|0,0:0|0:0,0:0:0:0:
451,281,37844,6,0,P|403:264|374:221,1,105.000004005432
344,76,38179,2,0,L|448:65,1,105.000004005432,2|0,0:0|0:0,0:0:0:0:
143,77,38515,2,0,L|39:66,1,105.000004005432,8|0,0:0|0:0,0:0:0:0:
346,152,38850,2,0,L|450:144,1,105.000004005432,2|0,0:0|0:0,0:0:0:0:
141,154,39185,2,0,L|36:141,1,105.000004005432,8|0,0:0|0:0,0:0:0:0:
294,112,39520,5,0,0:0:0:0:
301,142,39604,1,0,0:0:0:0:
309,172,39688,1,0,0:0:0:0:
316,202,39771,1,0,0:0:0:0:
323,232,39855,2,0,B|311:276|362:305|340:342,1,105.000004005432,2|0,0:0|0:0,0:0:0:0:
239,336,40191,6,0,P|181:323|137:286,1,105.000004005432
106,77,40526,2,0,L|131:180,1,105.000004005432,2|0,0:0|0:0,0:0:0:0:
293,153,40861,2,0,L|408:128,1,105.000004005432
131,180,41196,1,0,0:0:0:0:
232,208,41531,6,0,L|113:175,1,105.000004005432
388,249,41866,1,0,0:0:0:0:
263,292,42202,6,0,P|231:116|199:292,1,490
262,366,43543,6,0,P|302:371|353:357,1,70,2|0,0:0|0:0,0:0:0:0:
382,299,43878,2,0,P|422:294|473:308,1,70,8|0,0:0|0:0,0:0:0:0:
488,374,44213,2,0,P|448:379|397:365,1,70,2|0,0:0|0:0,0:0:0:0:
382,299,44548,2,0,P|377:259|391:208,1,70,8|0,0:0|0:0,0:0:0:0:
400,125,44883,6,0,P|365:125|331:136,1,70,2|0,0:0|0:0,0:0:0:0:
223,220,45219,2,0,P|261:231|314:226,1,70,8|0,0:0|0:0,0:0:0:0:
191,128,45554,2,0,P|161:146|137:171,1,70,2|0,0:0|0:0,0:0:0:0:
301,298,45889,2,0,P|301:263|291:230,1,70,8|0,0:0|0:0,0:0:0:0:
194,384,46224,5,2,0:0:0:0:
194,384,46392,1,0,0:0:0:0:
145,316,46559,2,0,P|138:282|152:228,1,70,8|0,0:0|0:0,0:0:0:0:
223,221,46894,2,0,P|259:232|307:218,1,70,2|0,0:0|0:0,0:0:0:0:
333,154,47230,2,0,P|297:143|249:157,1,70,8|0,0:0|0:0,0:0:0:0:
90,161,47565,6,0,P|126:172|174:158,1,70,2|0,0:0|0:0,0:0:0:0:
268,60,47900,1,8,0:0:0:0:
226,234,48068,1,0,0:0:0:0:
332,144,48235,5,0,0:0:0:0:
200,96,48403,1,0,0:0:0:0:
226,234,48570,1,0,0:0:0:0:
332,144,48738,1,0,0:0:0:0:
310,305,48906,5,2,0:0:0:0:
310,305,49073,1,0,0:0:0:0:
170,323,49241,2,0,P|133:321|94:290,1,70,8|0,0:0|0:0,0:0:0:0:
175,182,49576,2,0,P|185:147|212:130,1,70,2|0,0:0|0:0,0:0:0:0:
310,229,49911,2,0,P|300:264|273:281,1,70,8|0,0:0|0:0,0:0:0:0:
104,304,50246,6,0,P|104:269|99:234,1,70,2|0,0:0|0:0,0:0:0:0:
78,94,50582,1,8,0:0:0:0:
26,276,50749,1,0,0:0:0:0:
11,181,50917,5,0,0:0:0:0:
78,94,51084,1,0,0:0:0:0:
121,197,51252,1,0,0:0:0:0:
11,181,51420,1,0,0:0:0:0:
175,120,51587,6,0,P|275:90|372:124,1,210.000008010865
371,265,52258,6,0,P|271:295|174:261,1,210.000008010865
174,90,52928,6,0,P|274:60|371:94,1,210.000008010865
372,298,53599,6,0,P|272:328|175:294,1,210.000008010865
88,101,54269,6,0,L|70:81,4,26.2500010013581
163,259,54939,2,0,L|180:278,4,26.2500010013581
70,81,55610,6,0,L|52:61,4,26.2500010013581
180,278,56280,2,0,L|197:297,4,26.2500010013581
401,89,56950,6,0,L|419:69,4,26.2500010013581
273,305,57621,2,0,L|256:324,4,26.2500010013581
418,69,58291,6,0,L|436:49,4,26.2500010013581
255,324,58961,2,0,L|238:343,4,26.2500010013581
110,137,59632,5,0,0:0:0:0:
131,110,59716,1,0,0:0:0:0:
163,94,59800,1,0,0:0:0:0:
194,82,59883,1,0,0:0:0:0:
226,78,59967,1,0,0:0:0:0:
351,214,60302,5,0,0:0:0:0:
330,241,60386,1,0,0:0:0:0:
298,257,60470,1,0,0:0:0:0:
267,269,60554,1,0,0:0:0:0:
235,273,60638,1,0,0:0:0:0:
96,114,60973,5,0,0:0:0:0:
117,87,61056,1,0,0:0:0:0:
149,71,61140,1,0,0:0:0:0:
180,59,61224,1,0,0:0:0:0:
212,55,61308,1,0,0:0:0:0:
370,240,61643,5,0,0:0:0:0:
349,267,61727,1,0,0:0:0:0:
317,283,61811,1,0,0:0:0:0:
286,295,61894,1,0,0:0:0:0:
254,299,61978,1,0,0:0:0:0:
67,255,62313,5,2,0:0:0:0:
347,68,62649,1,8,0:0:0:0:
132,312,62984,5,2,0:0:0:0:
281,10,63319,1,8,0:0:0:0:
217,329,63654,5,2,0:0:0:0:
196,0,63989,1,8,0:0:0:0:
189,258,64325,5,0,0:0:0:0:
194,231,64492,1,0,0:0:0:0:
199,203,64660,1,0,0:0:0:0:
204,174,64827,1,0,0:0:0:0:
231,76,64995,2,0,B|288:148|375:106|420:163,1,210.000008010865,8|0,0:0|0:0,0:0:0:0:
440,262,65665,5,2,0:0:0:0:
342,324,65833,1,2,0:0:0:0:
337,208,66001,1,10,0:0:0:0:
201,262,66336,5,0,0:0:0:0:
170,235,66420,1,0,0:0:0:0:
159,201,66503,1,0,0:0:0:0:
153,168,66587,1,0,0:0:0:0:
152,136,66671,1,0,0:0:0:0:
162,99,66755,1,0,0:0:0:0:
181,69,66839,1,0,0:0:0:0:
206,49,66922,1,0,0:0:0:0:
242,36,67006,2,0,P|295:39|342:60,1,105.000004005432
390,198,67341,6,0,P|339:214|287:218,1,105.000004005432,8|0,0:0|0:0,0:0:0:0:
140,235,67677,1,2,0:0:0:0:
213,323,67844,1,2,0:0:0:0:
327,309,68012,2,0,P|379:302|430:287,1,105.000004005432,10|0,0:0|0:0,0:0:0:0:
463,177,68347,5,2,0:0:0:0:
402,90,68515,1,2,0:0:0:0:
307,136,68682,2,0,P|254:137|203:127,1,105.000004005432,8|0,0:0|0:0,0:0:0:0:
214,225,69017,5,0,0:0:0:0:
178,235,69101,1,0,0:0:0:0:
140,235,69185,1,0,0:0:0:0:
105,224,69269,1,0,0:0:0:0:
74,203,69353,1,0,0:0:0:0:
50,174,69436,1,0,0:0:0:0:
36,139,69520,1,0,0:0:0:0:
33,102,69604,1,0,0:0:0:0:
45,71,69688,2,0,P|88:43|139:41,1,105.000004005432
214,225,70023,5,0,0:0:0:0:
271,46,70191,1,0,0:0:0:0:
296,189,70358,5,0,0:0:0:0:
320,219,70442,1,0,0:0:0:0:
354,232,70526,1,0,0:0:0:0:
387,237,70610,1,0,0:0:0:0:
425,232,70693,1,8,0:0:0:0:
296,189,71029,5,0,0:0:0:0:
272,219,71112,1,0,0:0:0:0:
238,231,71196,1,0,0:0:0:0:
205,237,71280,1,0,0:0:0:0:
167,232,71364,1,8,0:0:0:0:
296,331,71699,5,0,0:0:0:0:
296,189,71867,1,0,0:0:0:0:
296,331,72034,1,8,0:0:0:0:
295,84,72369,2,0,L|295:188,1,105.000004005432
215,268,72705,5,0,0:0:0:0:
380,203,72872,1,0,0:0:0:0:
211,175,73040,5,0,0:0:0:0:
172,183,73124,1,0,0:0:0:0:
142,207,73207,1,0,0:0:0:0:
124,242,73291,1,0,0:0:0:0:
126,281,73375,2,0,P|147:327|192:354,1,105.000004005432,8|0,0:0|0:0,0:0:0:0:
325,324,73710,5,0,0:0:0:0:
346,290,73794,1,0,0:0:0:0:
350,251,73878,1,0,0:0:0:0:
338,214,73962,1,0,0:0:0:0:
310,185,74045,2,0,P|263:166|211:174,1,105.000004005432,8|0,0:0|0:0,0:0:0:0:
247,272,74381,2,0,P|130:234|127:111,1,262.5
254,13,75051,5,0,0:0:0:0:
284,26,75219,1,0,0:0:0:0:
314,35,75386,1,0,0:0:0:0:
343,47,75554,1,0,0:0:0:0:
436,93,75721,2,0,P|447:196|399:289,1,210.000008010865,8|0,0:0|0:0,0:0:0:0:
205,369,76392,5,2,0:0:0:0:
219,265,76559,1,2,0:0:0:0:
301,330,76727,1,10,0:0:0:0:
365,176,77062,5,0,0:0:0:0:
345,144,77146,1,0,0:0:0:0:
318,117,77230,1,0,0:0:0:0:
286,98,77313,1,0,0:0:0:0:
251,86,77397,1,0,0:0:0:0:
214,83,77481,1,0,0:0:0:0:
177,88,77565,1,0,0:0:0:0:
142,102,77649,1,0,0:0:0:0:
109,130,77732,2,0,P|77:170|64:221,1,105.000004005432
61,364,78068,6,0,P|114:362|166:354,1,105.000004005432,8|0,0:0|0:0,0:0:0:0:
267,328,78403,1,2,0:0:0:0:
375,330,78570,1,2,0:0:0:0:
465,292,78738,2,0,P|435:251|387:231,1,105.000004005432,8|0,0:0|0:0,0:0:0:0:
282,235,79073,1,2,0:0:0:0:
177,247,79241,1,2,0:0:0:0:
73,225,79408,2,0,P|96:178|139:148,1,105.000004005432,8|0,0:0|0:0,0:0:0:0:
262,119,79744,5,0,0:0:0:0:
299,115,79827,1,0,0:0:0:0:
336,118,79911,1,0,0:0:0:0:
373,126,79995,1,0,0:0:0:0:
407,140,80079,1,0,0:0:0:0:
439,160,80163,1,0,0:0:0:0:
468,184,80246,1,0,0:0:0:0:
492,213,80330,1,0,0:0:0:0:
506,250,80414,2,0,P|515:301|502:352,1,105.000004005432
393,356,80749,5,0,0:0:0:0:
323,202,80917,1,0,0:0:0:0:
183,289,81084,5,0,0:0:0:0:
158,258,81167,1,0,0:0:0:0:
149,220,81251,1,0,0:0:0:0:
157,182,81335,1,0,0:0:0:0:
182,152,81419,1,8,0:0:0:0:
183,289,81755,5,0,0:0:0:0:
214,314,81838,1,0,0:0:0:0:
252,323,81922,1,0,0:0:0:0:
290,315,82006,1,0,0:0:0:0:
320,290,82090,1,8,0:0:0:0:
384,111,82425,5,0,0:0:0:0:
287,46,82593,1,0,0:0:0:0:
274,160,82760,1,8,0:0:0:0:
369,358,83096,2,0,P|416:336|446:294,1,105.000004005432
384,111,83431,5,0,0:0:0:0:
337,254,83598,1,0,0:0:0:0:
369,358,83766,5,0,0:0:0:0:
407,343,83850,1,0,0:0:0:0:
432,315,83933,1,0,0:0:0:0:
444,279,84017,1,0,0:0:0:0:
436,240,84101,2,0,P|408:198|359:179,1,105.000004005432,8|0,0:0|0:0,0:0:0:0:
204,230,84436,5,0,0:0:0:0:
188,266,84520,1,0,0:0:0:0:
190,305,84604,1,0,0:0:0:0:
209,341,84688,1,0,0:0:0:0:
240,365,84771,2,0,P|289:376|339:361,1,105.000004005432,8|0,0:0|0:0,0:0:0:0:
256,192,85107,12,0,86112,0:0:0:0:
369,31,86448,6,0,L|479:43,1,105.000004005432,2|2,0:0|0:0,0:0:0:0:
144,150,87118,2,0,L|34:162,1,105.000004005432,2|2,0:0|0:0,0:0:0:0:
367,269,87788,2,0,L|477:281,2,105.000004005432,2|2|2,0:0|0:0|0:0,0:0:0:0:
251,257,88794,1,8,0:0:0:0:
143,31,89129,6,0,L|33:43,1,105.000004005432,2|2,0:0|0:0,0:0:0:0:
368,150,89799,2,0,L|478:162,1,105.000004005432,2|2,0:0|0:0,0:0:0:0:
145,269,90469,2,0,L|35:281,2,105.000004005432,2|2|2,0:0|0:0|0:0,0:0:0:0:
261,257,91475,1,8,0:0:0:0:
368,10,91811,6,0,P|438:19|499:52,1,140,2|2,0:0|0:0,0:0:0:0:
166,141,92481,2,0,P|103:168|35:240,1,140,2|2,0:0|0:0,0:0:0:0:
311,254,93151,2,0,P|359:305|373:372,1,140,2|2,0:0|0:0,0:0:0:0:
168,383,93822,1,2,0:0:0:0:
212,199,94157,1,8,0:0:0:0:
144,10,94492,6,0,P|74:19|13:52,1,140,2|2,0:0|0:0,0:0:0:0:
346,141,95162,2,0,P|409:168|477:240,1,140,2|2,0:0|0:0,0:0:0:0:
201,254,95832,2,0,P|153:305|139:372,1,140,2|2,0:0|0:0,0:0:0:0:
344,383,96503,1,2,0:0:0:0:
300,199,96838,1,8,0:0:0:0:
96,64,97174,5,0,0:0:0:0:
208,64,97509,1,0,0:0:0:0:
208,160,97844,5,0,0:0:0:0:
312,64,98179,1,0,0:0:0:0:
312,168,98515,5,0,0:0:0:0:
424,168,98850,1,0,0:0:0:0:
424,64,99185,5,0,0:0:0:0:
312,168,99520,1,0,0:0:0:0:
138,324,99855,5,0,0:0:0:0:
123,211,100191,1,0,0:0:0:0:
196,6,100526,5,0,0:0:0:0:
211,119,100862,1,0,0:0:0:0:
341,302,101196,5,0,0:0:0:0:
326,189,101532,1,0,0:0:0:0:
413,0,101867,5,0,0:0:0:0:
428,113,102203,1,0,0:0:0:0:
465,257,102537,5,0,0:0:0:0:
353,257,102872,1,0,0:0:0:0:
353,161,103207,5,0,0:0:0:0:
249,257,103542,1,0,0:0:0:0:
249,153,103878,5,0,0:0:0:0:
137,153,104213,1,0,0:0:0:0:
137,257,104548,5,0,0:0:0:0:
249,153,104883,1,0,0:0:0:0:
249,257,105219,5,2,0:0:0:0:
486,87,105554,1,8,0:0:0:0:
249,257,105889,1,2,0:0:0:0:
248,7,106224,1,8,0:0:0:0:
249,257,106559,1,2,0:0:0:0:
40,75,106894,1,8,0:0:0:0:
16,227,107230,5,0,0:0:0:0:
43,325,107397,1,0,0:0:0:0:
125,381,107565,2,0,B|183:364|186:304,1,105.000004005432
183,157,107900,6,0,P|276:113|380:123,1,210.000008010865,2|2,0:0|0:0,0:0:0:0:
383,271,108570,2,0,P|289:314|185:304,1,210.000008010865,2|2,0:0|0:0,0:0:0:0:
56,102,109241,2,0,P|143:166|35:174,1,280,2|2,0:0|0:0,0:0:0:0:
88,150,110246,6,0,L|160:153,1,70
305,163,110582,6,0,P|416:207|452:284,1,210.000008010865,2|2,0:0|0:0,0:0:0:0:
287,368,111252,2,0,P|176:324|140:247,1,210.000008010865,2|2,0:0|0:0,0:0:0:0:
292,107,111922,2,0,P|351:196|247:167,1,280,2|2,0:0|0:0,0:0:0:0:
305,163,112928,6,0,L|371:190,1,70
511,283,113263,2,0,P|428:344|325:341,1,210.000008010865,2|2,0:0|0:0,0:0:0:0:
457,197,113934,2,0,P|413:293|312:342,1,210.000008010865,2|2,0:0|0:0,0:0:0:0:
366,149,114604,1,0,0:0:0:0:
366,149,114772,1,0,0:0:0:0:
366,149,114939,2,0,P|312:237|323:339,1,210.000008010865,2|2,0:0|0:0,0:0:0:0:
511,283,115610,1,0,0:0:0:0:
423,160,115777,1,0,0:0:0:0:
265,153,115945,2,0,P|262:256|322:339,1,210.000008010865,2|2,0:0|0:0,0:0:0:0:
511,283,116615,5,0,0:0:0:0:
500,168,116782,1,0,0:0:0:0:
400,109,116950,1,2,0:0:0:0:
256,192,117286,12,0,118291,0:0:0:0:
145,258,118626,5,0,0:0:0:0:
205,343,118962,1,4,0:0:0:0:
322,324,119297,1,0,0:0:0:0:
322,324,119464,1,0,0:0:0:0:
322,324,119632,1,4,0:0:0:0:
144,259,119967,2,0,P|163:219|204:200,1,70
273,173,120302,1,0,0:0:0:0:
464,252,120638,2,0,P|448:287|421:303,1,70
322,324,120973,1,0,0:0:0:0:
179,201,121308,5,0,0:0:0:0:
206,302,121644,1,4,0:0:0:0:
322,324,121979,1,0,0:0:0:0:
322,324,122146,1,0,0:0:0:0:
322,324,122314,1,4,0:0:0:0:
177,202,122649,2,0,P|208:171|253:168,1,70
328,165,122984,1,0,0:0:0:0:
480,305,123320,2,0,P|452:333|422:339,1,70
335,286,123654,6,0,P|317:316|318:351,1,70
480,305,123989,5,0,0:0:0:0:
480,305,124157,1,0,0:0:0:0:
480,305,124325,1,4,0:0:0:0:
417,177,124660,5,0,0:0:0:0:
417,177,124827,1,0,0:0:0:0:
417,177,124995,1,4,0:0:0:0:
249,216,125330,6,0,P|216:226|177:222,1,70
204,130,125665,2,0,P|214:95|240:62,1,70
302,136,126001,2,0,P|339:189|328:271,1,140,4|0,0:0|0:0,0:0:0:0:
248,307,126503,1,0,0:0:0:0:
148,325,126671,2,0,P|83:271|79:194,1,140,4|0,0:0|0:0,0:0:0:0:
233,67,127341,2,0,L|152:42,1,70
64,111,127677,2,0,L|145:136,1,70,4|0,0:0|0:0,0:0:0:0:
237,159,128012,5,0,0:0:0:0:
262,165,128095,1,0,0:0:0:0:
287,172,128179,1,0,0:0:0:0:
312,180,128263,1,0,0:0:0:0:
337,188,128347,1,0,0:0:0:0:
362,197,128430,1,0,0:0:0:0:
386,206,128514,1,0,0:0:0:0:
476,242,128682,6,0,P|468:285|438:316,1,87.5,8|8,0:0|0:0,0:0:0:0:
344,296,129017,2,0,P|301:287|270:257,1,87.5,8|8,0:0|0:0,0:0:0:0:
386,206,129353,5,2,0:0:0:0:
386,206,129688,1,2,0:0:0:0:
344,296,130023,5,2,0:0:0:0:
344,296,130358,1,2,0:0:0:0:
184,357,130693,5,6,0:0:0:0:
0,103,131699,6,0,P|53:100|94:92,1,87.5,8|8,0:0|0:0,0:0:0:0:
189,69,132034,5,2,0:0:0:0:
189,69,132369,1,2,0:0:0:0:
113,1,132705,5,2,0:0:0:0:
113,1,133040,1,2,0:0:0:0:
47,172,133375,5,6,0:0:0:0:
482,12,134381,5,8,0:0:0:0:
482,12,134548,1,8,0:0:0:0:
325,119,134716,2,0,P|394:189|479:198,1,175,2|2,0:0|0:0,0:0:0:0:
303,200,135386,2,0,P|397:226|475:191,1,175,2|2,0:0|0:0,0:0:0:0:
383,57,136056,1,0,0:0:0:0:
383,57,136224,1,0,0:0:0:0:
383,57,136392,2,0,P|448:114|466:199,1,175,2|2,0:0|0:0,0:0:0:0:
303,200,137062,1,0,0:0:0:0:
336,75,137230,1,0,0:0:0:0:
464,34,137397,2,0,P|491:115|464:198,1,175,2|2,0:0|0:0,0:0:0:0:
303,200,138068,5,0,0:0:0:0:
336,75,138235,1,0,0:0:0:0:
464,34,138403,1,2,0:0:0:0:
466,198,138738,2,0,P|384:226|303:200,1,175,4|0,0:0|0:0,0:0:0:0:
126,123,139408,5,2,0:0:0:0:
83,209,139576,1,2,0:0:0:0:
47,298,139744,1,2,0:0:0:0:
2,383,139911,1,2,0:0:0:0:
2,383,140079,2,2,P|3:301|-3:208,1,175,2|0,0:0|0:0,0:0:0:0:
111,0,140749,2,2,P|109:80|116:174,1,175,2|0,0:0|0:0,0:0:0:0:
3,294,141420,2,2,P|165:336|280:215,1,350,2|0,0:0|0:0,0:0:0:0:
116,175,142425,6,2,P|160:170|202:160,1,87.5,2|0,0:0|0:0,0:0:0:0:
341,124,142760,2,2,P|425:105|512:117,1,175,2|0,0:0|0:0,0:0:0:0:
324,268,143431,2,2,P|239:286|152:274,1,175,2|0,0:0|0:0,0:0:0:0:
115,174,144101,2,2,P|230:53|392:95,1,350,2|0,0:0|0:0,0:0:0:0:
512,285,145107,5,2,0:0:0:0:
512,285,145274,1,2,0:0:0:0:
416,300,145442,2,2,P|328:305|241:297,1,175,2|8,0:0|0:0,0:0:0:0:
240,297,146112,2,2,P|154:288|66:293,1,175,2|8,0:0|0:0,0:0:0:0:
66,294,146783,2,2,P|58:207|67:120,1,175,2|8,0:0|0:0,0:0:0:0:
67,120,147453,1,8,0:0:0:0:
66,120,147788,6,2,P|110:116|154:117,1,87.5,2|8,0:0|0:0,0:0:0:0:
153,116,148124,2,2,P|241:125|328:117,1,175,2|8,0:0|0:0,0:0:0:0:
327,117,148794,2,2,P|371:112|414:120,1,87.5,2|8,0:0|0:0,0:0:0:0:
414,120,149129,1,8,0:0:0:0:
256,192,149464,12,4,153487,0:0:0:0:
