osu file format v14

[General]
AudioFilename: audio.mp3
AudioLeadIn: 0
PreviewTime: 183015
Countdown: 0
SampleSet: Soft
StackLeniency: 0.4
Mode: 0
LetterboxInBreaks: 0
WidescreenStoryboard: 1

[Editor]
DistanceSpacing: 0.7
BeatDivisor: 4
GridSize: 4
TimelineZoom: 2.199999

[Metadata]
Title:Demystify Feast
TitleUnicode:Demystify Feast
Artist:ZUN
ArtistUnicode:ZUN
Creator:fnql
Version:Halfslashed's Lunatic
Source:東方萃夢想 ~ Immaterial and Missing Power.
Tags:東方Project touhou project suimusou th7.5 team shanghai alice twilight frontier ZUN's Music Collection vol.5 大空魔術 ~ Magical Astronomy Oozora Majutsu halfslashed video game instrumental
BeatmapID:4151988
BeatmapSetID:1978790

[Difficulty]
HPDrainRate:5
CircleSize:4
OverallDifficulty:8
ApproachRate:8
SliderMultiplier:1.6
SliderTickRate:2

[Events]
//Background and Video events
0,0,"Shrine BG.jpg",0,0
//Break Periods
2,138122,146061
//Storyboard Layer 0 (Background)
//Storyboard Layer 1 (Fail)
//Storyboard Layer 2 (Pass)
//Storyboard Layer 3 (Foreground)
//Storyboard Layer 4 (Overlay)
//Storyboard Sound Samples

[TimingPoints]
145,370.37037037037,4,2,1,30,1,0
2367,-100,3,2,1,40,0,0
4590,-100,3,2,1,30,0,0
6812,-100,3,2,1,40,0,0
9034,-90.9090909090909,3,2,1,35,0,0
11256,-90.9090909090909,3,2,1,45,0,0
13479,-90.9090909090909,3,2,1,35,0,0
15701,-90.9090909090909,3,2,1,45,0,0
17922,-80,3,2,1,45,0,0
21071,-100,3,2,1,50,0,0
46070,-90.9090909090909,3,2,1,35,0,0
48292,-90.9090909090909,3,2,1,45,0,0
50514,-90.9090909090909,3,2,1,35,0,0
52736,-90.9090909090909,3,2,1,45,0,0
54958,-80,3,2,1,45,0,0
58107,-100,3,2,1,50,0,0
83107,-125,4,2,1,20,0,0
86070,-100,4,2,1,50,0,0
89033,-100,4,2,1,20,0,0
89218,-100,4,2,1,25,0,0
89403,-100,4,2,1,30,0,0
89589,-100,4,2,1,35,0,0
89774,-100,4,2,1,40,0,0
89959,-100,4,2,1,45,0,0
90515,-80,4,2,1,50,0,0
91996,-100,4,2,1,50,0,0
92644,-100,4,2,1,20,0,0
93292,-100,4,2,1,50,0,0
93478,-80,4,2,1,50,0,0
97922,-100,4,2,1,50,0,0
99403,-80,4,2,1,50,0,0
101996,-80,4,2,1,50,0,0
102366,-100,4,2,1,50,0,0
103107,-90.9090909090909,4,2,1,50,0,0
104218,-90.9090909090909,4,2,1,50,0,0
104589,-90.9090909090909,4,2,1,50,0,0
104774,-90.9090909090909,4,2,1,50,0,0
104959,-90.9090909090909,4,2,1,50,0,0
105144,-90.9090909090909,4,2,1,50,0,0
105329,-100,4,2,1,50,0,0
106070,-90.9090909090909,4,2,1,50,0,0
107181,-90.9090909090909,4,2,1,50,0,0
107552,-90.9090909090909,4,2,1,50,0,0
107737,-90.9090909090909,4,2,1,50,0,0
107922,-90.9090909090909,4,2,1,50,0,0
108107,-90.9090909090909,4,2,1,50,0,0
108292,-100,4,2,1,50,0,0
109033,-90.9090909090909,4,2,1,50,0,0
110144,-100,4,2,1,50,0,0
110515,-100,4,2,1,50,0,0
110700,-100,4,2,1,50,0,0
110885,-100,4,2,1,50,0,0
111070,-100,4,2,1,50,0,0
111255,-100,4,2,1,50,0,0
111996,-90.9090909090909,4,2,1,50,0,0
112737,-80,4,2,1,50,0,0
114218,-100,4,2,1,50,0,0
119403,-80,4,2,1,50,0,0
120144,-100,4,2,1,50,0,0
120885,-100,4,2,1,50,0,0
121070,-100,4,2,1,50,0,0
121441,-100,4,2,1,50,0,0
122737,-80,4,2,1,50,0,0
123107,-100,4,2,1,50,0,0
124589,-80,4,2,1,50,0,0
126070,-71.4285714285714,4,2,1,60,0,1
136441,-71.4285714285714,4,2,1,60,0,1
137922,-71.4285714285714,4,2,1,60,0,0
146811,-80,3,2,1,45,0,0
149960,-100,3,2,1,50,0,0
174959,-125,4,2,1,20,0,0
177922,-100,4,2,1,50,0,0
180885,-100,4,2,1,20,0,0
181070,-100,4,2,1,25,0,0
181255,-100,4,2,1,30,0,0
181441,-100,4,2,1,35,0,0
181626,-100,4,2,1,40,0,0
181811,-100,4,2,1,45,0,0
182367,-71.4285714285714,4,2,1,50,0,0
183107,-80,4,2,1,50,0,0
184589,-100,4,2,1,50,0,0
185237,-100,4,2,1,20,0,0
185885,-100,4,2,1,50,0,0
186070,-80,4,2,1,50,0,0
190515,-100,4,2,1,50,0,0
191996,-80,4,2,1,50,0,0
194589,-80,4,2,1,50,0,0
194959,-100,4,2,1,50,0,0
195700,-90.9090909090909,4,2,1,50,0,0
196811,-100,4,2,1,50,0,0
197182,-100,4,2,1,50,0,0
197367,-100,4,2,1,50,0,0
197552,-100,4,2,1,50,0,0
197737,-100,4,2,1,50,0,0
197922,-100,4,2,1,50,0,0
198663,-90.9090909090909,4,2,1,50,0,0
199774,-100,4,2,1,50,0,0
200145,-100,4,2,1,50,0,0
200330,-100,4,2,1,50,0,0
200515,-100,4,2,1,50,0,0
200700,-100,4,2,1,50,0,0
200885,-100,4,2,1,50,0,0
201626,-90.9090909090909,4,2,1,50,0,0
202737,-100,4,2,1,50,0,0
203108,-100,4,2,1,50,0,0
203293,-100,4,2,1,50,0,0
203478,-100,4,2,1,50,0,0
203663,-100,4,2,1,50,0,0
203848,-100,4,2,1,50,0,0
204589,-90.9090909090909,4,2,1,50,0,0
205330,-80,4,2,1,50,0,0
206811,-100,4,2,1,50,0,0
211996,-80,4,2,1,50,0,0
212737,-100,4,2,1,50,0,0
213478,-90.9090909090909,4,2,1,50,0,0
213663,-80,4,2,1,50,0,0
214034,-100,4,2,1,50,0,0
215330,-80,4,2,1,50,0,0
218663,-71.4285714285714,4,2,1,60,0,1
224496,-71.4285714285714,4,2,1,20,0,1
224589,-71.4285714285714,4,2,1,60,0,1
230145,-71.4285714285714,4,2,1,60,0,1
230515,-71.4285714285714,4,2,1,70,0,1
235700,-66.6666666666667,4,2,1,70,0,1
236441,-71.4285714285714,4,2,1,70,0,1
239033,-66.6666666666667,4,2,1,70,0,1
239404,-71.4285714285714,4,2,1,70,0,1
240885,-66.6666666666667,4,2,1,70,0,1
242367,-100,4,2,1,40,0,0
244589,-100,4,2,1,30,0,0
245330,-100,4,2,1,40,0,0
247552,-100,4,2,1,30,0,0
248293,-100,4,2,1,40,0,0
250515,-100,4,2,1,30,0,0
251256,-100,4,2,1,40,0,0
253478,-100,4,2,1,50,0,0
254219,-100,4,2,1,60,0,0
260144,-80,4,2,1,70,0,0

[Colours]
Combo1 : 255,106,111
Combo2 : 198,0,5

[HitObjects]
72,164,145,5,2,0:2:0:0:
148,136,330,1,0,0:2:0:0:
224,112,515,1,0,0:2:0:0:
300,88,700,1,0,0:2:0:0:
372,116,885,2,0,L|380:204,1,80,0|0,0:2|0:2,0:0:0:0:
364,316,1256,5,0,0:2:0:0:
288,288,1441,1,0,0:2:0:0:
212,264,1626,1,0,0:2:0:0:
136,240,1811,1,0,0:2:0:0:
64,268,1996,2,0,L|56:356,1,80,0|0,0:2|0:2,0:0:0:0:
176,336,2367,5,2,0:2:0:0:
212,264,2552,1,0,0:2:0:0:
168,196,2737,1,0,0:2:0:0:
204,124,2922,1,0,0:2:0:0:
260,180,3107,2,0,L|312:264,1,80,0|0,0:2|0:2,0:0:0:0:
404,260,3478,5,0,0:2:0:0:
368,188,3663,1,0,0:2:0:0:
412,120,3848,1,0,0:2:0:0:
376,48,4033,1,0,0:2:0:0:
320,104,4219,2,0,L|268:188,1,80,0|0,0:2|0:2,0:0:0:0:
288,292,4589,5,2,0:2:0:0:
328,220,4774,1,0,0:2:0:0:
400,180,4959,1,0,0:2:0:0:
480,164,5144,1,0,0:2:0:0:
472,240,5330,2,0,P|440:272|392:284,1,80,0|0,0:2|0:2,0:0:0:0:
288,292,5700,5,0,0:2:0:0:
248,220,5885,1,0,0:2:0:0:
176,180,6070,1,0,0:2:0:0:
96,164,6256,1,0,0:2:0:0:
104,240,6441,2,0,P|136:272|184:284,1,80,0|0,0:2|0:2,0:0:0:0:
268,216,6811,5,2,0:2:0:0:
344,193,6996,1,0,0:2:0:0:
347,113,7182,1,0,0:2:0:0:
268,100,7367,1,0,0:2:0:0:
214,160,7552,2,0,P|235:195|279:219,1,80,0|0,0:2|0:2,0:0:0:0:
384,260,7922,5,0,0:2:0:0:
460,237,8107,1,0,0:2:0:0:
463,157,8293,1,0,0:2:0:0:
384,144,8478,1,2,0:2:0:0:
330,204,8663,2,0,P|351:239|395:263,1,80,2|2,0:2|0:2,0:0:0:0:
252,280,9033,5,6,0:2:0:0:
240,192,9219,1,0,0:2:0:0:
304,132,9404,1,0,0:2:0:0:
392,128,9589,1,0,0:2:0:0:
468,172,9774,2,0,L|412:264,1,88.000002685547,0|0,0:2|0:2,0:0:0:0:
304,304,10144,5,0,0:2:0:0:
316,216,10330,1,0,0:2:0:0:
252,156,10515,1,0,0:2:0:0:
164,152,10700,1,0,0:2:0:0:
88,196,10885,2,0,L|144:288,1,88.000002685547,0|0,0:2|0:2,0:0:0:0:
248,336,11256,5,2,0:2:0:0:
264,248,11441,1,0,0:2:0:0:
284,160,11626,1,0,0:2:0:0:
304,72,11811,1,0,0:2:0:0:
284,160,11996,2,0,L|264:256,1,88.000002685547,0|0,0:2|0:2,0:0:0:0:
148,308,12367,5,0,0:2:0:0:
164,220,12552,1,0,0:2:0:0:
184,132,12737,1,0,0:2:0:0:
204,44,12922,1,0,0:2:0:0:
184,132,13107,2,0,L|164:228,1,88.000002685547,0|0,0:2|0:2,0:0:0:0:
108,340,13478,5,2,0:2:0:0:
192,356,13663,1,0,0:2:0:0:
228,280,13848,1,0,0:2:0:0:
166,218,14033,1,0,0:2:0:0:
88,256,14219,2,0,P|91:304|130:363,1,88.000002685547,0|0,0:2|0:2,0:0:0:0:
228,280,14589,5,0,0:2:0:0:
312,296,14774,1,0,0:2:0:0:
348,220,14959,1,0,0:2:0:0:
286,158,15144,1,0,0:2:0:0:
208,196,15330,2,0,P|211:244|250:303,1,88.000002685547,0|0,0:2|0:2,0:0:0:0:
348,220,15700,5,2,0:2:0:0:
400,148,15885,1,0,0:2:0:0:
376,64,16070,1,0,0:2:0:0:
304,12,16256,1,0,0:2:0:0:
256,88,16441,2,0,P|224:124|164:144,1,88.000002685547,0|0,0:2|0:2,0:0:0:0:
104,240,16811,5,0,0:2:0:0:
52,168,16996,1,0,0:2:0:0:
76,84,17182,1,0,0:2:0:0:
148,32,17367,1,0,0:2:0:0:
204,100,17552,2,0,P|232:133|271:152,1,88.000002685547,0|0,0:2|0:2,0:0:0:0:
412,208,17922,6,0,L|324:120,1,100,4|0,0:2|0:2,0:2:0:0:
428,124,18293,1,0,0:2:0:0:
504,60,18478,1,0,0:2:0:0:
428,124,18663,2,0,L|340:208,1,100,0|0,0:2|0:2,0:0:0:0:
308,336,19033,6,0,L|388:256,1,100,2|0,0:2|0:2,0:2:0:0:
292,252,19404,1,0,0:2:0:0:
212,192,19589,1,0,0:2:0:0:
292,252,19774,2,0,L|384:336,1,100,0|0,0:2|0:2,0:0:0:0:
220,352,20144,6,0,L|180:244,1,100,2|0,0:2|0:2,0:2:0:0:
172,160,20515,1,0,0:2:0:0:
256,108,20700,1,0,0:2:0:0:
328,180,20885,1,0,0:2:0:0:
279,247,21070,5,2,0:2:0:0:
259,243,21163,1,2,0:2:0:0:
239,241,21256,1,4,0:2:0:0:
219,239,21348,1,0,0:2:0:0:
199,235,21441,1,0,0:2:0:0:
179,233,21533,1,0,0:2:0:0:
159,231,21626,1,4,0:2:0:0:
139,228,21719,1,0,0:2:0:0:
120,225,21811,1,0,0:2:0:0:
100,223,21904,1,0,0:2:0:0:
79,223,21996,2,0,L|55:279,3,40,12|8|8|8,1:2|1:2|1:2|1:2,0:0:0:0:
61,300,22367,6,0,L|73:388,1,80,4|0,1:2|0:2,0:0:0:0:
177,320,22737,1,2,1:2:0:0:
157,324,22830,1,2,0:2:0:0:
137,328,22922,1,2,0:2:0:0:
254,303,23107,1,0,1:2:0:0:
273,187,23293,1,2,0:2:0:0:
273,187,23478,5,0,1:2:0:0:
346,281,23663,1,2,0:2:0:0:
337,159,23848,2,0,L|414:125,1,80,2|0,1:2|0:2,0:2:0:0:
407,246,24219,1,2,1:2:0:0:
400,228,24311,1,2,0:2:0:0:
392,213,24404,1,2,0:2:0:0:
273,187,24589,5,0,1:2:0:0:
224,296,24774,1,2,0:2:0:0:
147,201,24959,1,0,1:2:0:0:
104,313,25144,1,2,0:2:0:0:
224,296,25330,2,0,L|306:303,1,80,6|0,1:2|0:2,0:2:0:0:
273,187,25700,5,2,1:2:0:0:
272,206,25793,1,2,0:2:0:0:
269,226,25885,1,2,0:2:0:0:
281,107,26070,1,0,1:2:0:0:
400,145,26256,1,2,0:2:0:0:
400,145,26441,1,0,1:2:0:0:
373,28,26626,1,2,0:2:0:0:
281,107,26811,6,0,L|207:157,1,80,2|0,1:2|0:2,0:2:0:0:
190,33,27182,1,2,1:2:0:0:
201,49,27274,1,2,0:2:0:0:
212,66,27367,1,2,0:2:0:0:
146,166,27552,1,0,1:2:0:0:
47,233,27737,1,2,0:2:0:0:
259,326,27922,5,0,1:2:0:0:
359,259,28107,1,2,0:2:0:0:
400,145,28293,6,0,L|323:168,1,80,6|0,1:2|0:2,0:2:0:0:
324,48,28663,1,2,1:2:0:0:
330,67,28756,1,2,0:2:0:0:
336,86,28848,1,2,0:2:0:0:
239,157,29033,1,0,1:2:0:0:
302,258,29219,1,2,0:2:0:0:
302,258,29404,5,0,1:2:0:0:
198,319,29589,1,2,0:2:0:0:
88,273,29774,2,0,L|43:206,1,80,2|0,1:2|0:2,0:2:0:0:
162,184,30144,1,2,1:2:0:0:
145,192,30237,1,2,0:2:0:0:
128,202,30330,1,2,0:2:0:0:
239,157,30515,5,0,1:2:0:0:
289,48,30700,1,2,0:2:0:0:
386,120,30885,1,0,1:2:0:0:
439,23,31070,1,2,0:2:0:0:
453,143,31256,2,0,L|471:255,1,80,6|0,1:2|0:2,0:2:0:0:
343,204,31626,5,2,1:2:0:0:
362,201,31719,1,2,0:2:0:0:
382,197,31811,1,2,0:2:0:0:
264,223,31996,1,0,1:2:0:0:
150,248,32182,1,2,0:2:0:0:
150,248,32367,1,0,1:2:0:0:
127,130,32552,1,2,0:2:0:0:
147,244,32737,6,0,L|193:328,1,80,2|0,1:2|0:2,0:2:0:0:
264,223,33107,1,2,1:2:0:0:
247,233,33200,1,2,0:2:0:0:
230,243,33293,1,2,0:2:0:0:
339,194,33478,1,0,1:2:0:0:
281,299,33663,1,8,0:2:0:0:
127,130,33848,5,8,0:2:0:0:
185,26,34033,1,0,0:0:0:0:
305,36,34219,6,0,P|343:46|372:73,1,80,6|10,1:2|0:2,0:0:0:0:
279,150,34589,1,2,1:2:0:0:
290,132,34682,1,2,0:2:0:0:
300,115,34774,1,10,0:2:0:0:
241,219,34959,1,2,1:2:0:0:
348,273,35144,1,10,0:2:0:0:
364,282,35237,1,10,0:2:0:0:
382,292,35330,1,2,1:2:0:0:
399,303,35422,1,2,0:2:0:0:
416,312,35515,1,10,0:2:0:0:
297,325,35700,6,0,P|262:339|214:336,1,80,2|10,1:2|0:2,0:0:0:0:
241,219,36070,1,2,1:2:0:0:
237,199,36162,1,2,0:2:0:0:
234,179,36255,1,10,0:2:0:0:
231,159,36347,1,2,0:2:0:0:
228,139,36441,5,2,1:2:0:0:
56,88,36626,1,10,0:2:0:0:
162,31,36811,1,2,1:2:0:0:
121,186,36996,1,10,0:2:0:0:
155,304,37182,2,0,P|180:333|219:337,1,80,2|10,1:2|0:2,0:0:0:0:
241,219,37552,5,2,1:2:0:0:
232,237,37644,1,2,0:2:0:0:
222,253,37737,1,10,0:2:0:0:
276,144,37922,1,2,1:2:0:0:
161,172,38107,1,10,0:2:0:0:
152,190,38200,1,10,0:2:0:0:
145,208,38292,1,2,1:2:0:0:
137,227,38385,1,0,0:2:0:0:
130,245,38478,1,10,0:2:0:0:
87,133,38663,6,0,P|85:95|111:48,1,80,2|8,1:2|0:2,0:2:0:0:
210,110,39033,1,2,1:2:0:0:
228,114,39125,1,2,0:2:0:0:
248,118,39218,1,10,0:2:0:0:
267,123,39310,1,0,0:0:0:0:
287,127,39403,1,2,1:2:0:0:
232,237,39589,1,10,0:2:0:0:
304,202,39774,5,2,1:2:0:0:
152,150,39959,1,10,0:2:0:0:
84,248,40144,6,0,P|69:287|78:329,1,80,6|8,1:2|0:2,0:2:0:0:
190,294,40515,1,2,1:2:0:0:
170,292,40607,1,2,0:2:0:0:
151,290,40700,1,10,0:2:0:0:
270,302,40885,1,2,1:2:0:0:
245,185,41070,1,10,0:2:0:0:
225,182,41163,1,10,0:2:0:0:
205,179,41255,5,2,1:2:0:0:
185,177,41348,1,2,0:2:0:0:
166,175,41441,1,10,0:2:0:0:
244,85,41626,2,0,P|273:59|311:47,1,80,2|8,1:2|0:2,0:2:0:0:
334,163,41996,1,2,1:2:0:0:
323,146,42089,1,2,0:2:0:0:
312,130,42182,1,10,0:2:0:0:
370,236,42367,5,2,1:2:0:0:
270,302,42552,1,10,0:2:0:0:
245,185,42737,1,2,1:2:0:0:
141,247,42922,1,10,0:2:0:0:
147,124,43107,2,0,P|169:89|217:69,1,80,6|8,1:2|0:2,0:2:0:0:
245,185,43478,5,2,1:2:0:0:
234,169,43570,1,2,0:2:0:0:
221,154,43663,1,10,0:2:0:0:
286,255,43848,1,2,1:2:0:0:
404,277,44033,1,10,0:2:0:0:
394,258,44126,1,10,0:2:0:0:
384,242,44218,1,2,1:2:0:0:
374,226,44311,1,0,0:2:0:0:
363,210,44404,1,10,0:2:0:0:
314,101,44589,6,0,P|281:77|242:70,1,80,2|8,1:2|0:2,0:2:0:0:
236,175,44959,1,2,1:2:0:0:
228,193,45051,1,2,0:2:0:0:
220,211,45144,1,10,0:2:0:0:
211,230,45236,1,2,0:2:0:0:
202,248,45330,1,2,1:2:0:0:
188,370,45515,1,10,0:2:0:0:
425,238,45700,5,2,1:2:0:0:
314,186,45885,1,10,0:2:0:0:
263,307,46070,5,6,0:2:0:0:
342,268,46256,1,0,0:2:0:0:
425,238,46441,1,0,0:2:0:0:
507,207,46626,1,0,0:2:0:0:
474,292,46811,2,0,L|421:381,1,88.000002685547,0|0,0:2|0:2,0:0:0:0:
342,268,47182,5,0,0:2:0:0:
260,234,47367,1,0,0:2:0:0:
175,209,47552,1,0,0:2:0:0:
90,184,47737,1,0,0:2:0:0:
117,271,47922,2,0,L|176:356,1,88.000002685547,0|0,0:2|0:2,0:0:0:0:
260,234,48293,5,2,0:2:0:0:
194,176,48478,1,0,0:2:0:0:
261,118,48663,1,0,0:2:0:0:
182,76,48848,1,0,0:2:0:0:
124,142,49033,2,0,L|129:233,1,88.000002685547,0|0,0:2|0:2,0:0:0:0:
261,233,49404,5,0,0:2:0:0:
325,176,49589,1,0,0:2:0:0:
261,118,49774,1,0,0:2:0:0:
338,76,49959,1,0,0:2:0:0:
396,142,50144,2,0,L|389:232,1,88.000002685547,0|0,0:2|0:2,0:0:0:0:
285,312,50515,5,2,0:2:0:0:
198,293,50700,1,0,0:2:0:0:
261,233,50885,1,0,0:2:0:0:
174,215,51070,1,0,0:2:0:0:
243,158,51256,2,0,P|290:158|320:186,1,88.000002685547,0|0,0:2|0:2,0:0:0:0:
352,312,51626,5,0,0:2:0:0:
439,293,51811,1,0,0:2:0:0:
376,233,51996,1,0,0:2:0:0:
463,215,52181,1,0,0:2:0:0:
394,158,52367,2,0,P|347:158|317:186,1,88.000002685547,0|0,0:2|0:2,0:0:0:0:
264,304,52737,5,2,0:2:0:0:
186,257,52922,1,0,0:2:0:0:
168,170,53107,1,0,0:2:0:0:
220,98,53293,1,0,0:2:0:0:
305,120,53478,2,0,P|287:156|240:181,1,88.000002685547,0|0,0:2|0:2,0:0:0:0:
184,293,53848,5,0,0:2:0:0:
106,246,54033,1,0,0:2:0:0:
88,159,54218,1,0,0:2:0:0:
140,87,54404,1,0,0:2:0:0:
225,109,54589,2,0,P|207:145|160:170,1,88.000002685547,0|0,0:2|0:2,0:0:0:0:
165,322,54959,6,0,P|126:296|105:241,1,100,6|0,0:2|0:2,0:2:0:0:
208,228,55330,1,0,0:2:0:0:
309,211,55515,1,0,0:2:0:0:
405,248,55700,2,0,P|376:287|309:316,1,100,0|0,0:2|0:2,0:0:0:0:
396,176,56070,6,0,P|435:150|456:95,1,100,2|0,0:2|0:2,0:2:0:0:
353,82,56441,1,0,0:2:0:0:
252,65,56626,1,0,0:2:0:0:
156,102,56811,2,0,P|185:141|252:170,1,100,0|0,0:2|0:2,0:0:0:0:
348,252,57182,6,0,P|388:219|391:163,1,100,2|0,0:2|0:2,0:2:0:0:
353,82,57552,1,0,1:2:0:0:
252,65,57737,1,8,0:2:0:0:
173,128,57922,1,8,0:2:0:0:
162,206,58107,5,2,0:2:0:0:
175,218,58200,1,2,0:2:0:0:
190,232,58293,1,4,0:2:0:0:
205,246,58385,1,0,0:2:0:0:
218,260,58478,1,0,0:2:0:0:
233,273,58570,1,0,0:2:0:0:
248,287,58663,1,4,0:2:0:0:
263,300,58756,1,0,0:2:0:0:
277,314,58848,1,0,0:2:0:0:
292,328,58941,1,0,0:2:0:0:
304,344,59033,2,0,L|352:344,3,40,12|8|8|8,0:2|0:2|0:2|0:2,0:0:0:0:
344,344,59404,6,0,P|392:332|420:312,1,80,2|10,1:2|0:2,0:0:0:0:
336,224,59774,1,2,1:2:0:0:
343,242,59867,1,2,0:2:0:0:
350,261,59959,1,10,0:2:0:0:
304,148,60144,1,0,1:2:0:0:
264,40,60330,1,10,0:2:0:0:
264,40,60422,1,2,0:2:0:0:
224,156,60607,1,2,0:2:0:0:
224,156,60700,1,10,0:2:0:0:
176,266,60885,6,0,P|140:283|88:273,1,80,0|8,1:2|0:2,0:2:0:0:
126,162,61256,1,0,1:2:0:0:
129,182,61348,1,0,0:2:0:0:
131,202,61441,1,8,0:2:0:0:
133,222,61533,1,0,0:2:0:0:
135,241,61626,5,0,1:2:0:0:
224,156,61811,1,8,0:2:0:0:
305,241,61996,1,0,1:2:0:0:
394,156,62181,1,8,0:2:0:0:
341,49,62367,2,0,P|303:36|263:39,1,80,6|10,1:2|0:2,0:2:0:0:
286,158,62737,5,2,1:2:0:0:
289,138,62830,1,2,0:2:0:0:
291,118,62922,1,10,0:2:0:0:
233,223,63107,1,0,1:2:0:0:
118,212,63293,1,10,0:2:0:0:
118,212,63385,1,2,0:2:0:0:
213,135,63570,1,2,0:2:0:0:
213,135,63663,1,10,0:2:0:0:
134,45,63848,6,0,P|97:28|58:27,1,80,0|8,1:2|0:2,0:2:0:0:
66,144,64219,1,0,1:2:0:0:
71,125,64311,1,0,0:2:0:0:
76,105,64404,1,8,0:2:0:0:
80,87,64496,1,0,0:2:0:0:
86,66,64589,1,0,1:2:0:0:
231,203,64774,1,8,0:2:0:0:
286,257,64959,5,0,1:2:0:0:
145,115,65144,1,8,0:2:0:0:
248,53,65330,6,0,P|283:36|323:38,1,80,6|10,1:2|0:2,0:2:0:0:
306,158,65700,1,2,1:2:0:0:
301,140,65793,1,2,0:2:0:0:
296,120,65885,1,10,0:2:0:0:
330,235,66070,1,0,1:2:0:0:
217,270,66256,1,10,0:2:0:0:
217,270,66348,1,2,0:2:0:0:
139,186,66533,1,2,0:2:0:0:
139,186,66626,1,10,0:2:0:0:
195,80,66811,6,0,P|224:53|277:32,1,80,0|8,1:2|0:2,0:2:0:0:
291,152,67182,1,0,1:2:0:0:
278,135,67274,1,0,0:2:0:0:
267,120,67367,1,8,0:2:0:0:
255,102,67459,1,0,0:2:0:0:
243,87,67552,5,0,1:2:0:0:
369,115,67737,1,8,0:2:0:0:
243,87,67922,1,0,1:2:0:0:
369,115,68107,1,8,0:2:0:0:
441,226,68293,2,0,P|429:264|400:291,1,80,6|10,1:2|0:2,0:2:0:0:
323,202,68663,5,2,1:2:0:0:
338,212,68756,1,2,0:2:0:0:
354,223,68848,1,10,0:2:0:0:
254,157,69033,1,0,1:2:0:0:
369,115,69219,1,10,0:2:0:0:
369,115,69312,1,2,0:2:0:0:
484,74,69497,1,2,0:2:0:0:
484,74,69589,1,10,0:2:0:0:
471,193,69774,6,0,P|477:231|465:268,1,80,2|10,1:2|0:2,0:2:0:0:
354,223,70144,2,0,L|317:219,14,20,0|0|0|0|0|0|0|0|0|0|0|0|0|0|0,1:2|1:2|1:2|1:2|1:2|1:2|1:2|1:2|1:2|1:2|1:2|1:2|1:2|1:2|1:2,1:2:0:0:
314,221,70885,5,4,1:2:0:0:
212,158,71070,1,0,0:0:0:0:
197,277,71256,6,0,L|131:323,1,80,6|10,1:2|0:2,0:0:0:0:
99,205,71626,1,2,1:2:0:0:
110,221,71719,1,2,0:2:0:0:
121,238,71811,1,10,0:2:0:0:
212,158,71996,1,2,1:2:0:0:
331,128,72182,1,10,0:2:0:0:
331,128,72274,1,10,0:2:0:0:
445,173,72459,1,2,0:2:0:0:
445,173,72552,1,10,0:2:0:0:
331,128,72737,6,0,L|257:96,1,80,2|10,1:2|0:2,0:0:0:0:
256,212,73107,1,2,1:2:0:0:
263,192,73200,1,2,0:2:0:0:
270,173,73293,1,10,0:2:0:0:
277,154,73385,1,10,0:2:0:0:
283,136,73478,5,2,0:2:0:0:
359,230,73663,1,2,0:2:0:0:
249,278,73848,1,10,0:2:0:0:
325,372,74033,1,10,0:2:0:0:
416,293,74219,2,0,L|512:265,1,80,6|10,1:2|0:2,0:0:0:0:
420,170,74589,5,2,1:2:0:0:
426,189,74682,1,2,0:2:0:0:
430,209,74774,1,10,0:2:0:0:
397,94,74959,1,2,1:2:0:0:
326,191,75144,1,10,0:2:0:0:
326,191,75237,1,10,0:2:0:0:
254,102,75422,1,2,0:2:0:0:
254,102,75515,1,10,0:2:0:0:
152,163,75700,6,0,L|142:253,1,80,2|10,1:2|0:2,0:2:0:0:
259,217,76070,1,2,1:2:0:0:
239,214,76163,1,2,0:2:0:0:
219,212,76256,1,10,0:2:0:0:
199,211,76348,1,10,0:2:0:0:
179,209,76441,1,2,0:2:0:0:
237,312,76626,1,2,0:2:0:0:
218,70,76811,5,2,1:2:0:0:
323,14,76996,1,10,0:2:0:0:
330,134,77182,6,0,L|348:227,1,80,6|10,1:2|0:2,0:2:0:0:
446,150,77552,1,2,1:2:0:0:
426,155,77644,1,2,0:2:0:0:
406,159,77737,1,10,0:2:0:0:
429,277,77922,1,2,1:2:0:0:
340,357,78107,1,10,0:2:0:0:
340,357,78200,1,10,0:2:0:0:
265,270,78385,1,2,0:2:0:0:
265,270,78478,1,10,0:2:0:0:
180,354,78663,6,0,L|96:316,1,80,0|8,1:2|0:2,0:0:0:0:
190,235,79033,1,2,1:2:0:0:
182,252,79126,1,2,0:2:0:0:
175,271,79219,1,10,0:2:0:0:
166,290,79311,1,10,0:2:0:0:
159,308,79404,5,2,0:2:0:0:
74,206,79589,1,2,0:2:0:0:
184,157,79774,1,2,1:2:0:0:
89,81,79959,1,10,0:2:0:0:
198,34,80144,2,0,L|285:79,1,80,6|10,1:2|0:2,0:0:0:0:
184,157,80515,5,2,1:2:0:0:
193,138,80607,1,2,0:2:0:0:
202,121,80700,1,10,0:2:0:0:
148,228,80885,1,2,1:2:0:0:
267,264,81070,1,10,0:2:0:0:
267,264,81163,1,10,0:2:0:0:
384,230,81348,1,2,0:2:0:0:
384,230,81441,1,10,0:2:0:0:
459,135,81626,6,0,L|409:37,1,80,2|10,0:2|0:2,0:2:0:0:
342,152,81996,1,2,1:2:0:0:
361,144,82089,1,2,0:2:0:0:
378,135,82182,1,10,0:2:0:0:
397,125,82274,1,10,0:2:0:0:
414,118,82367,1,2,0:2:0:0:
472,241,82552,1,10,0:2:0:0:
326,306,82737,5,2,0:2:0:0:
262,185,82922,1,10,0:2:0:0:
288,60,83107,6,0,L|209:94,1,64,0|0,0:2|0:2,0:0:0:0:
206,151,83478,1,2,0:2:0:0:
206,151,83570,1,2,0:2:0:0:
206,151,83663,1,2,0:2:0:0:
262,185,83848,1,0,0:2:0:0:
208,220,84033,2,0,L|253:280,1,64,2|0,0:2|0:0,0:0:0:0:
224,331,84404,1,2,0:2:0:0:
289,334,84589,6,0,L|332:277,1,64,0|0,0:2|0:2,0:0:0:0:
384,251,84959,1,2,0:2:0:0:
384,251,85052,1,2,0:2:0:0:
384,251,85144,1,2,0:2:0:0:
384,251,85237,1,0,0:0:0:0:
384,251,85330,1,0,0:2:0:0:
448,264,85515,2,0,L|490:202,1,64,2|0,0:2|0:0,0:2:0:0:
502,149,85885,1,2,0:2:0:0:
464,80,86070,6,0,L|436:120,3,40,6|2|2|2,0:2|0:2|0:2|0:2,0:0:0:0:
432,132,86441,1,2,0:2:0:0:
421,148,86533,1,2,0:2:0:0:
410,165,86626,1,2,0:2:0:0:
399,182,86719,1,2,0:2:0:0:
388,199,86811,1,2,0:2:0:0:
377,215,86904,1,2,0:2:0:0:
366,232,86996,1,2,0:2:0:0:
355,249,87089,1,2,0:2:0:0:
345,266,87182,1,2,0:2:0:0:
334,283,87274,1,2,0:2:0:0:
323,299,87367,1,2,0:2:0:0:
312,316,87459,1,2,0:2:0:0:
300,332,87552,6,0,L|240:332,3,40,2|2|2|2,0:2|0:2|0:2|0:2,0:0:0:0:
240,332,87922,1,2,0:2:0:0:
220,332,88015,1,2,0:2:0:0:
200,332,88107,1,2,0:2:0:0:
180,332,88200,1,2,0:2:0:0:
160,333,88293,1,2,0:2:0:0:
140,333,88385,1,2,0:2:0:0:
120,333,88478,1,10,0:2:0:0:
100,334,88570,1,10,0:2:0:0:
80,336,88663,2,0,L|60:296,3,40,10|10|10|0,0:2|0:2|0:2|0:0,0:0:0:0:
72,260,89033,5,2,0:2:0:0:
97,260,89126,1,2,0:2:0:0:
117,245,89219,1,2,0:2:0:0:
143,245,89311,1,2,0:2:0:0:
163,230,89404,1,2,0:2:0:0:
189,230,89496,1,2,0:2:0:0:
208,215,89589,1,2,0:2:0:0:
234,215,89682,1,2,0:2:0:0:
254,200,89774,1,6,0:2:0:0:
280,200,89867,1,2,0:2:0:0:
300,185,89959,1,2,0:2:0:0:
325,185,90052,1,2,0:2:0:0:
345,171,90144,2,0,L|373:195,6,20,2|0|0|0|0|0|0,0:2|0:2|0:2|0:2|0:2|0:2|0:2,0:2:0:0:
384,204,90515,5,6,0:2:0:0:
257,123,90700,1,2,0:2:0:0:
275,273,90885,1,2,0:2:0:0:
64,60,91256,6,0,L|128:68,2,50,2|2|2,0:2|0:2|0:2,0:0:0:0:
80,160,91626,1,0,0:2:0:0:
100,256,91811,1,0,0:2:0:0:
168,212,91996,5,2,0:2:0:0:
232,260,92182,1,2,0:2:0:0:
320,264,92367,1,0,0:2:0:0:
320,264,92459,1,0,0:2:0:0:
320,264,92552,2,0,P|240:128|116:96,1,280,0|0,0:2|0:0,0:0:0:0:
92,108,93293,5,6,0:2:0:0:
184,276,93663,5,2,0:2:0:0:
268,328,93848,1,2,0:2:0:0:
380,340,94033,1,0,0:2:0:0:
484,320,94219,1,2,0:2:0:0:
484,320,94311,1,2,0:2:0:0:
484,320,94404,1,2,0:2:0:0:
428,232,94589,5,2,0:2:0:0:
312,276,94774,1,2,0:2:0:0:
256,192,94959,1,2,0:2:0:0:
256,192,95052,12,0,96256,0:2:0:0:
331,157,96441,5,6,0:2:0:0:
472,124,96626,1,2,0:2:0:0:
380,249,96811,1,2,0:2:0:0:
448,60,97182,6,0,L|384:68,2,50,2|2|2,0:2|0:2|0:2,0:0:0:0:
432,160,97552,1,0,0:2:0:0:
412,256,97737,1,0,0:2:0:0:
296,292,97922,5,2,0:2:0:0:
224,324,98107,1,2,0:2:0:0:
192,264,98293,1,0,0:2:0:0:
192,264,98385,1,0,0:2:0:0:
192,264,98478,2,0,P|319:221|440:269,1,240,0|0,0:2|0:0,0:0:0:0:
432,264,99126,1,0,0:0:0:0:
444,280,99219,1,2,0:2:0:0:
323,116,99589,5,2,0:2:0:0:
256,192,99774,1,0,0:2:0:0:
160,169,99959,1,0,0:2:0:0:
108,256,100144,1,2,0:2:0:0:
108,256,100237,1,2,0:2:0:0:
108,256,100330,1,2,0:2:0:0:
208,280,100515,5,2,0:2:0:0:
332,256,100700,1,2,0:2:0:0:
256,192,100885,1,2,0:2:0:0:
256,192,100978,12,0,101812,0:2:0:0:
244,176,101996,6,0,L|244:216,4,25,0|0|0|0|0,0:2|0:2|0:2|0:2|0:2,0:2:0:0:
348,116,102367,6,0,L|384:160,2,40,4|0|8,1:2|0:0|0:2,0:2:0:0:
252,180,102737,1,0,1:2:0:0:
252,180,102830,1,0,1:2:0:0:
252,180,102922,1,8,0:2:0:0:
148,260,103107,5,0,1:2:0:0:
279,283,103293,1,8,0:2:0:0:
289,263,103385,1,8,0:2:0:0:
300,244,103478,1,0,1:2:0:0:
310,224,103570,1,0,0:2:0:0:
321,205,103663,1,8,0:2:0:0:
332,186,103756,1,0,0:0:0:0:
340,168,103848,6,0,P|343:129|318:85,1,88.000002685547,0|8,1:2|0:2,0:2:0:0:
251,29,104219,2,0,L|207:81,3,44.0000013427735,0|0|8|8,1:2|0:2|0:2|0:2,0:0:0:0:
178,96,104589,1,0,0:2:0:0:
155,109,104682,1,8,0:2:0:0:
166,136,104774,1,0,0:2:0:0:
143,149,104867,1,8,0:2:0:0:
154,176,104959,1,0,1:2:0:0:
131,189,105052,1,0,0:0:0:0:
142,216,105144,1,8,0:2:0:0:
119,229,105237,1,0,0:0:0:0:
101,265,105330,6,0,L|159:300,2,40,4|0|8,1:2|0:0|0:2,0:0:0:0:
40,174,105700,1,0,1:2:0:0:
40,174,105793,1,0,1:2:0:0:
40,174,105885,1,8,0:2:0:0:
62,44,106070,5,0,1:2:0:0:
145,147,106256,1,8,0:2:0:0:
158,165,106348,1,8,0:2:0:0:
172,182,106441,1,0,1:2:0:0:
185,200,106533,1,0,0:2:0:0:
197,218,106626,1,8,0:2:0:0:
209,236,106719,1,0,0:0:0:0:
223,254,106811,6,0,P|266:209|266:182,1,88.000002685547,0|8,1:2|0:2,0:2:0:0:
304,104,107182,2,0,L|329:160,3,44.0000013427735,0|0|8|8,1:2|0:2|0:2|0:2,0:0:0:0:
367,178,107552,1,0,0:2:0:0:
388,196,107644,1,8,0:2:0:0:
373,218,107737,1,0,0:2:0:0:
394,237,107830,1,8,0:2:0:0:
380,260,107922,1,0,1:2:0:0:
400,277,108015,1,0,0:0:0:0:
386,302,108107,1,8,0:2:0:0:
406,319,108200,1,0,0:0:0:0:
413,360,108293,6,0,L|472:335,2,40,4|0|8,1:2|0:0|0:2,0:2:0:0:
300,348,108663,1,0,1:2:0:0:
300,348,108756,1,0,1:2:0:0:
300,348,108848,1,8,0:2:0:0:
324,216,109033,5,0,1:2:0:0:
192,228,109219,1,8,0:2:0:0:
184,208,109311,1,8,0:2:0:0:
176,188,109404,1,0,1:2:0:0:
169,166,109496,1,0,0:2:0:0:
163,145,109589,1,8,0:2:0:0:
156,124,109682,1,0,0:0:0:0:
150,103,109774,6,0,P|167:63|216:61,1,88.000002685547,0|8,1:2|0:2,0:2:0:0:
256,120,110144,2,0,L|288:160,3,40,0|0|8|8,1:2|0:2|0:2|0:2,0:0:0:0:
304,160,110515,1,0,0:2:0:0:
325,150,110607,1,8,0:2:0:0:
335,165,110700,1,0,0:2:0:0:
357,155,110793,1,8,0:2:0:0:
367,170,110885,1,0,1:2:0:0:
388,160,110978,1,0,0:0:0:0:
398,175,111070,1,8,0:2:0:0:
420,165,111163,1,0,0:0:0:0:
445,133,111256,6,0,L|480:89,2,40,4|0|8,1:2|0:0|0:2,0:2:0:0:
448,260,111626,1,0,1:2:0:0:
448,260,111719,1,0,1:2:0:0:
448,260,111811,1,8,0:2:0:0:
316,276,111996,5,0,1:2:0:0:
204,204,112182,1,8,0:2:0:0:
192,184,112274,1,8,0:2:0:0:
184,164,112367,1,0,1:2:0:0:
174,144,112459,1,0,0:2:0:0:
165,124,112552,1,8,0:2:0:0:
156,104,112644,1,0,0:0:0:0:
144,80,112737,6,0,L|244:104,1,100,4|0,1:2|0:2,0:2:0:0:
384,144,113107,1,4,0:2:0:0:
268,224,113293,1,8,0:2:0:0:
268,224,113385,1,8,0:2:0:0:
268,224,113478,1,0,1:2:0:0:
268,224,113570,1,0,0:0:0:0:
268,224,113663,1,8,0:2:0:0:
268,224,113756,1,8,0:2:0:0:
268,224,113848,2,0,P|244:304|220:320,1,100,4|0,1:2|0:2,0:2:0:0:
120,348,114219,5,2,0:2:0:0:
101,339,114311,1,2,0:2:0:0:
83,331,114404,1,2,0:2:0:0:
65,323,114496,1,2,0:2:0:0:
47,314,114589,1,2,0:2:0:0:
108,84,114959,6,0,L|160:116,3,40,2|0|0|0,0:2|0:2|0:2|0:2,0:0:0:0:
160,116,115330,1,2,0:2:0:0:
177,125,115422,1,0,0:2:0:0:
194,135,115515,1,0,0:2:0:0:
212,145,115607,1,0,0:2:0:0:
228,156,115700,6,0,L|272:184,2,40,2|2|2,0:2|0:2|0:2,0:0:0:0:
364,240,116070,1,2,0:2:0:0:
177,290,116256,1,2,0:2:0:0:
177,290,116348,1,2,0:2:0:0:
56,225,116533,1,2,0:2:0:0:
75,219,116626,1,2,0:2:0:0:
94,212,116719,1,2,0:2:0:0:
113,206,116811,1,2,0:2:0:0:
131,199,116904,6,0,L|173:182,3,40,2|2|2|2,0:2|0:2|0:2|0:2,0:0:0:0:
191,180,117274,2,0,L|274:210,1,80,2|2,0:2|0:2,0:0:0:0:
288,216,117552,1,2,0:2:0:0:
307,222,117644,1,2,0:2:0:0:
325,229,117737,1,2,0:2:0:0:
404,256,117922,6,0,L|436:192,2,40,2|2|2,0:2|0:2|0:2,0:0:0:0:
340,304,118293,1,2,0:2:0:0:
264,276,118478,1,2,0:2:0:0:
192,244,118663,5,2,0:2:0:0:
173,235,118756,1,0,0:2:0:0:
155,227,118848,1,0,0:2:0:0:
137,218,118941,1,0,0:2:0:0:
119,210,119033,1,2,0:2:0:0:
101,202,119126,1,0,0:2:0:0:
83,193,119219,1,0,0:2:0:0:
64,185,119311,1,0,0:2:0:0:
44,176,119404,6,0,L|80:116,4,50,2|2|2|2|2,0:2|0:2|0:2|0:2|0:2,0:0:0:0:
128,48,120144,5,4,0:2:0:0:
142,59,120237,1,0,0:2:0:0:
158,72,120330,1,0,0:2:0:0:
174,84,120422,1,0,0:2:0:0:
189,96,120515,1,0,0:2:0:0:
204,109,120607,1,0,0:2:0:0:
220,121,120700,1,0,0:2:0:0:
236,134,120793,1,0,0:0:0:0:
250,146,120885,6,0,L|251:203,4,40,2|0|2|0|0,0:2|0:2|0:2|0:2|0:2,0:2:0:0:
324,112,121441,1,2,0:2:0:0:
324,112,121533,1,0,0:2:0:0:
324,112,121626,2,0,L|356:88,1,40,2|0,0:2|0:0,0:0:0:0:
368,164,121811,2,0,L|422:145,1,40,2|2,0:2|0:2,0:0:0:0:
398,225,121996,2,0,L|436:215,1,40,2|2,0:2|0:2,0:0:0:0:
417,290,122182,2,0,L|456:289,1,40,2|2,0:2|0:2,0:0:0:0:
460,352,122367,1,2,0:2:0:0:
460,352,122459,1,2,0:2:0:0:
460,352,122552,1,2,0:2:0:0:
460,352,122644,1,2,0:2:0:0:
460,352,122737,6,0,L|472:288,3,50,2|0|8|0,0:2|0:2|0:2|0:2,0:2:0:0:
460,284,123107,5,4,1:2:0:0:
440,286,123200,1,0,0:2:0:0:
420,289,123293,1,8,0:2:0:0:
400,291,123385,1,0,0:2:0:0:
380,294,123478,1,0,1:2:0:0:
360,296,123570,1,0,0:2:0:0:
340,299,123663,1,8,0:2:0:0:
321,301,123756,1,0,0:2:0:0:
301,304,123848,1,0,1:2:0:0:
281,306,123941,1,8,0:2:0:0:
261,309,124033,1,8,0:2:0:0:
241,311,124126,1,8,0:2:0:0:
222,316,124219,2,0,L|188:260,3,40,0|0|8|0,1:2|0:2|0:2|0:2,0:0:0:0:
163,276,124589,5,0,1:2:0:0:
139,246,124682,1,0,0:2:0:0:
152,211,124774,1,8,0:2:0:0:
185,193,124867,1,0,0:2:0:0:
221,202,124959,5,0,1:2:0:0:
250,225,125052,1,0,0:2:0:0:
257,261,125144,1,8,0:2:0:0:
276,293,125237,1,8,0:2:0:0:
307,313,125330,5,0,1:2:0:0:
343,318,125422,1,8,0:2:0:0:
377,304,125515,1,8,0:2:0:0:
404,278,125607,1,0,0:2:0:0:
424,246,125700,6,0,L|449:279,6,25,0|0|8|0|8|0|8,1:2|0:2|0:2|0:2|0:2|0:2|0:2,0:2:0:0:
439,265,126070,5,4,1:2:0:0:
436,104,126256,1,8,0:2:0:0:
304,208,126441,2,0,L|352:248,2,55.9999982910157,0|8|8,1:2|0:2|0:2,0:0:0:0:
180,112,126811,1,0,1:2:0:0:
180,112,126904,1,0,1:2:0:0:
180,112,126996,1,8,0:2:0:0:
128,212,127182,1,0,1:2:0:0:
88,316,127367,1,8,0:2:0:0:
240,240,127552,5,0,1:2:0:0:
376,344,127737,1,8,0:2:0:0:
372,176,127922,2,0,L|320:204,3,55.9999982910157,0|8|8|8,1:2|0:2|0:2|0:2,0:0:0:0:
300,216,128293,5,0,1:2:0:0:
275,229,128385,1,8,0:2:0:0:
251,243,128478,1,0,0:2:0:0:
226,257,128570,1,8,0:2:0:0:
202,271,128663,1,0,1:2:0:0:
178,284,128756,1,0,0:0:0:0:
178,284,128848,6,0,P|121:186|161:90,1,223.999993164063,8|8,0:2|0:2,0:2:0:0:
304,180,129404,1,0,1:2:0:0:
468,132,129589,1,8,0:2:0:0:
304,84,129774,2,0,L|244:56,2,55.9999982910157,0|0|8,1:2|1:2|0:2,0:0:0:0:
380,168,130144,1,0,1:2:0:0:
320,264,130330,1,8,0:2:0:0:
296,156,130515,5,0,1:2:0:0:
448,76,130700,1,8,0:2:0:0:
284,48,130885,1,0,1:2:0:0:
263,66,130978,1,8,0:2:0:0:
242,85,131070,1,8,0:2:0:0:
221,104,131163,1,8,0:2:0:0:
200,123,131256,1,0,1:2:0:0:
180,141,131348,1,8,0:2:0:0:
159,160,131441,1,0,0:2:0:0:
138,179,131533,1,8,0:2:0:0:
120,200,131626,2,0,L|64:256,3,55.9999982910157,0|0|8|0,1:2|0:0|0:2|0:0,0:0:0:0:
60,264,131996,5,4,1:2:0:0:
84,96,132182,1,8,0:2:0:0:
220,204,132367,2,0,L|164:248,2,55.9999982910157,0|8|8,1:2|1:2|0:2,0:0:0:0:
352,116,132737,1,0,1:2:0:0:
352,116,132830,1,0,1:2:0:0:
352,116,132922,1,8,0:2:0:0:
388,220,133107,1,0,1:2:0:0:
428,324,133293,1,8,0:2:0:0:
436,156,133478,5,0,1:2:0:0:
300,256,133663,1,8,0:2:0:0:
152,336,133848,2,0,L|176:272,3,55.9999982910157,0|8|8|8,1:2|0:2|0:2|0:2,0:0:0:0:
180,256,134219,1,0,1:2:0:0:
189,229,134311,1,8,0:2:0:0:
199,203,134404,1,0,0:2:0:0:
209,177,134496,1,8,0:2:0:0:
219,151,134589,1,0,1:2:0:0:
269,53,134774,6,0,P|377:61|453:152,1,223.999993164063,8|8,0:2|0:2,0:2:0:0:
312,240,135330,1,0,1:2:0:0:
156,176,135515,1,8,0:2:0:0:
80,96,135700,2,0,L|28:32,2,55.9999982910157,0|8|8,1:2|0:2|0:2,0:0:0:0:
168,244,136070,1,0,1:2:0:0:
336,216,136256,1,8,0:2:0:0:
256,192,136441,6,0,L|256:236,30,27.9999991455078,0|0|0|0|0|0|0|0|0|0|0|0|0|0|0|0|0|0|0|0|0|0|0|0|0|0|0|0|0|0|0,1:2|1:2|1:2|1:2|1:2|1:2|1:2|1:2|1:2|1:2|1:2|1:2|1:2|1:2|1:2|1:2|1:2|1:2|1:2|1:2|1:2|1:2|1:2|1:2|1:2|1:2|1:2|1:2|1:2|1:2|1:2,1:2:0:0:
255,248,137922,5,6,0:2:0:0:
120,244,146811,6,0,L|72:140,1,100,6|0,0:2|0:0,0:0:0:0:
156,88,147182,1,0,0:0:0:0:
252,112,147367,1,0,0:0:0:0:
348,140,147552,2,0,L|292:232,1,100
436,280,147922,6,0,L|492:188,1,100,2|0,0:2|0:0,0:0:0:0:
472,88,148293,1,0,0:0:0:0:
372,104,148478,1,0,0:0:0:0:
280,148,148663,2,0,L|280:264,1,100
156,244,149033,6,0,L|156:140,1,100,2|0,0:2|0:0,0:0:0:0:
220,64,149404,1,0,1:2:0:0:
320,88,149589,1,8,0:2:0:0:
416,112,149774,1,4,1:2:0:0:
404,192,149959,5,2,0:2:0:0:
384,198,150052,1,2,0:2:0:0:
365,204,150144,1,4,0:2:0:0:
346,210,150237,1,0,0:2:0:0:
327,216,150330,1,0,0:2:0:0:
308,222,150422,1,0,0:2:0:0:
289,228,150515,1,4,1:2:0:0:
270,234,150607,1,8,0:2:0:0:
251,240,150700,1,8,0:2:0:0:
232,246,150793,1,8,0:2:0:0:
216,256,150885,2,0,L|160:280,3,40,4|8|8|8,0:2|0:2|0:2|0:2,0:2:0:0:
160,280,151256,6,0,L|72:320,1,80,6|10,1:2|0:2,0:0:0:0:
84,196,151626,1,2,1:2:0:0:
91,214,151719,1,2,0:2:0:0:
99,232,151811,1,10,0:2:0:0:
211,190,151996,1,0,1:2:0:0:
136,102,152182,1,10,0:2:0:0:
136,102,152274,1,2,0:2:0:0:
247,49,152459,1,2,0:2:0:0:
247,49,152552,1,10,0:2:0:0:
347,113,152737,6,0,L|331:221,1,80,0|8,1:2|0:2,0:2:0:0:
455,173,153107,1,0,1:2:0:0:
435,169,153200,1,0,0:2:0:0:
415,166,153293,1,8,0:2:0:0:
395,163,153385,1,0,0:2:0:0:
375,160,153478,5,0,1:2:0:0:
256,146,153663,1,8,0:2:0:0:
244,265,153848,1,0,1:2:0:0:
124,252,154033,1,8,0:2:0:0:
136,131,154219,2,0,L|184:34,1,80,6|10,1:2|0:2,0:2:0:0:
256,146,154589,5,2,1:2:0:0:
239,136,154682,1,2,0:2:0:0:
221,127,154774,1,10,0:2:0:0:
328,186,154959,1,0,1:2:0:0:
244,265,155144,1,10,0:2:0:0:
244,265,155237,1,2,0:2:0:0:
130,217,155422,1,2,0:2:0:0:
130,217,155515,1,10,0:2:0:0:
124,116,155700,6,0,L|108:32,1,80,0|8,1:2|0:2,0:2:0:0:
224,64,156070,1,0,1:2:0:0:
204,68,156163,1,0,0:2:0:0:
184,72,156256,1,8,0:2:0:0:
165,77,156348,1,0,0:2:0:0:
145,81,156441,1,0,1:2:0:0:
168,200,156626,1,8,0:2:0:0:
365,178,156811,5,0,1:2:0:0:
342,59,156996,1,8,0:2:0:0:
293,170,157182,6,0,L|234:224,1,80,6|10,1:2|0:2,0:2:0:0:
343,266,157552,1,2,1:2:0:0:
329,250,157644,1,2,0:2:0:0:
316,237,157737,1,10,0:2:0:0:
427,192,157922,1,0,1:2:0:0:
338,120,158107,1,10,0:2:0:0:
338,120,158200,1,2,0:2:0:0:
229,165,158385,1,2,0:2:0:0:
229,165,158478,1,10,0:2:0:0:
203,282,158663,6,0,L|127:310,1,80,0|8,1:2|0:2,0:2:0:0:
132,190,159033,1,0,1:2:0:0:
138,208,159126,1,0,0:2:0:0:
145,227,159219,1,8,0:2:0:0:
152,246,159311,1,0,0:2:0:0:
159,265,159404,5,0,1:2:0:0:
229,165,159589,1,8,0:2:0:0:
148,76,159774,1,0,1:2:0:0:
241,0,159959,1,8,0:2:0:0:
324,87,160144,2,0,L|355:180,1,80,6|10,1:2|0:2,0:2:0:0:
229,165,160515,5,2,1:2:0:0:
248,155,160607,1,2,0:2:0:0:
265,147,160700,1,10,0:2:0:0:
160,206,160885,1,0,1:2:0:0:
275,251,161070,1,10,0:2:0:0:
275,251,161163,1,2,0:2:0:0:
178,325,161348,1,2,0:2:0:0:
178,325,161441,1,10,0:2:0:0:
160,206,161626,6,0,L|83:182,1,80,2|10,1:2|0:2,0:2:0:0:
155,84,161996,2,0,L|166:55,14,20,0|0|0|0|0|0|0|0|0|0|0|0|0|0|0,1:2|1:2|1:2|1:2|1:2|1:2|1:2|1:2|1:2|1:2|1:2|1:2|1:2|1:2|1:2,1:2:0:0:
173,43,162737,5,4,1:2:0:0:
292,25,162922,1,0,0:0:0:0:
229,127,163107,6,0,P|238:163|282:217,1,80,6|10,1:2|0:2,0:2:0:0:
347,115,163478,1,2,1:2:0:0:
329,124,163570,1,2,0:2:0:0:
311,133,163663,1,10,0:2:0:0:
420,82,163848,1,2,1:2:0:0:
468,197,164033,1,10,0:2:0:0:
468,197,164126,1,10,0:2:0:0:
364,252,164311,1,2,0:2:0:0:
364,252,164404,1,10,0:2:0:0:
261,199,164589,6,0,P|221:199|181:219,1,80,2|8,1:2|0:2,0:2:0:0:
253,315,164959,1,2,1:2:0:0:
247,295,165052,1,2,0:2:0:0:
242,276,165144,1,10,0:2:0:0:
237,257,165237,1,10,0:2:0:0:
231,237,165330,5,2,0:2:0:0:
309,147,165515,1,2,0:2:0:0:
364,252,165700,1,2,1:2:0:0:
468,197,165885,1,10,0:2:0:0:
381,115,166070,6,0,P|355:82|304:60,1,80,6|10,1:2|0:2,0:2:0:0:
280,177,166441,1,2,1:2:0:0:
294,162,166533,1,2,0:2:0:0:
309,147,166626,1,10,0:2:0:0:
209,81,166811,1,2,1:2:0:0:
172,174,166996,1,10,0:2:0:0:
172,174,167089,1,10,0:2:0:0:
74,114,167274,1,2,0:2:0:0:
74,114,167367,1,10,0:2:0:0:
62,232,167552,6,0,P|86:264|131:293,1,80,0|8,1:2|0:2,0:2:0:0:
171,180,167922,1,2,1:2:0:0:
157,193,168015,1,2,0:2:0:0:
144,207,168107,1,10,0:2:0:0:
129,222,168200,1,10,0:2:0:0:
115,237,168293,1,2,0:2:0:0:
122,359,168478,1,2,0:2:0:0:
58,310,168663,5,2,1:2:0:0:
249,295,168848,1,10,0:2:0:0:
384,264,169033,6,0,P|424:256|472:232,1,80,6|10,1:2|0:2,0:2:0:0:
384,144,169404,1,2,1:2:0:0:
390,162,169496,1,2,0:2:0:0:
397,181,169589,1,10,0:2:0:0:
361,67,169774,1,2,1:2:0:0:
286,163,169959,1,10,0:2:0:0:
286,163,170052,1,10,0:2:0:0:
217,71,170237,1,2,0:2:0:0:
217,71,170330,1,10,0:2:0:0:
150,171,170515,6,0,P|138:211|142:261,1,80,0|8,1:2|0:2,0:2:0:0:
256,225,170885,1,2,1:2:0:0:
237,223,170978,1,2,0:2:0:0:
217,220,171070,1,10,0:2:0:0:
197,216,171163,1,10,0:2:0:0:
176,215,171256,5,2,0:2:0:0:
279,154,171441,1,2,0:2:0:0:
323,264,171626,1,2,1:2:0:0:
418,190,171811,1,10,0:2:0:0:
323,264,171996,2,0,P|290:286|250:292,1,80,6|10,1:2|0:2,0:2:0:0:
243,172,172367,5,2,1:2:0:0:
249,192,172459,1,2,0:2:0:0:
254,210,172552,1,10,0:2:0:0:
371,180,172737,1,2,1:2:0:0:
356,65,172922,1,10,0:2:0:0:
356,65,173015,1,10,0:2:0:0:
242,54,173200,1,2,0:2:0:0:
242,54,173293,1,10,0:2:0:0:
243,172,173478,6,0,L|176:215,1,80,0|8,1:2|0:2,0:2:0:0:
147,97,173848,1,2,1:2:0:0:
159,114,173941,1,2,0:2:0:0:
169,132,174033,1,10,0:2:0:0:
179,147,174126,1,10,0:2:0:0:
188,165,174219,1,2,0:2:0:0:
80,221,174404,1,2,0:2:0:0:
379,164,174589,5,2,1:2:0:0:
487,108,174774,1,10,0:2:0:0:
449,197,174959,6,0,L|409:257,1,64,0|0,0:2|0:2,0:0:0:0:
361,277,175330,1,2,0:2:0:0:
361,277,175422,1,2,0:2:0:0:
361,277,175515,1,2,0:2:0:0:
301,297,175700,1,0,0:2:0:0:
241,313,175885,2,0,L|175:315,1,64,2|0,0:2|0:0,0:0:0:0:
116,292,176256,1,2,0:2:0:0:
120,196,176441,6,0,L|184:152,1,64,0|0,0:2|0:2,0:0:0:0:
231,222,176811,1,2,0:2:0:0:
231,222,176904,1,2,0:2:0:0:
231,222,176996,1,2,0:2:0:0:
231,222,177089,1,0,0:0:0:0:
231,222,177182,1,0,0:2:0:0:
296,223,177367,2,0,L|291:149,1,64,2|0,0:2|0:0,0:2:0:0:
288,96,177737,1,2,0:2:0:0:
220,52,177922,6,0,L|220:112,3,40,6|2|2|2,0:2|0:2|0:2|0:2,0:0:0:0:
220,112,178293,1,2,0:2:0:0:
220,132,178385,1,2,0:2:0:0:
220,152,178478,1,2,0:2:0:0:
220,172,178570,1,2,0:2:0:0:
220,192,178663,1,2,0:2:0:0:
220,212,178756,1,2,0:2:0:0:
220,232,178848,1,2,0:2:0:0:
220,252,178941,1,2,0:2:0:0:
220,272,179033,1,2,0:2:0:0:
220,292,179126,1,2,0:2:0:0:
220,312,179219,1,2,0:2:0:0:
220,332,179311,1,2,0:2:0:0:
220,352,179404,6,0,L|272:328,3,40,2|2|2|2,0:2|0:2|0:2|0:2,0:0:0:0:
276,328,179774,1,2,0:2:0:0:
294,319,179867,1,2,0:2:0:0:
312,311,179959,1,2,0:2:0:0:
330,303,180052,1,2,0:2:0:0:
349,295,180144,1,2,0:2:0:0:
367,287,180237,1,2,0:2:0:0:
385,279,180330,1,10,0:2:0:0:
403,270,180422,1,10,0:2:0:0:
422,264,180515,2,0,L|420:216,3,40,10|10|10|0,0:2|0:2|0:2|0:0,0:0:0:0:
408,184,180885,5,2,0:2:0:0:
382,187,180978,1,2,0:2:0:0:
363,169,181070,1,2,0:2:0:0:
336,172,181163,1,2,0:2:0:0:
317,154,181256,1,2,0:2:0:0:
290,157,181348,1,2,0:2:0:0:
272,139,181441,1,2,0:2:0:0:
245,142,181533,1,2,0:2:0:0:
226,124,181626,1,6,0:2:0:0:
199,127,181719,1,2,0:2:0:0:
180,109,181811,1,2,0:2:0:0:
154,112,181904,1,2,0:2:0:0:
135,95,181996,2,0,L|107:119,6,20,2|0|0|0|0|0|0,0:2|0:2|0:2|0:2|0:2|0:2|0:2,0:2:0:0:
169,50,182367,6,0,L|220:14,1,55.9999982910157,6|2,0:2|0:2,0:0:0:0:
268,64,182552,2,0,L|324:28,1,55.9999982910157,2|2,0:2|0:2,0:0:0:0:
368,32,182737,2,0,L|368:80,6,27.9999991455078,2|0|0|0|0|0|0,0:2|0:2|0:2|0:2|0:2|0:2|0:2,0:2:0:0:
368,84,183107,5,6,0:2:0:0:
220,52,183293,1,2,0:2:0:0:
240,200,183478,1,2,0:2:0:0:
40,172,183848,6,0,L|32:240,2,50,2|2|2,0:2|0:2|0:2,0:0:0:0:
120,232,184219,1,0,0:2:0:0:
208,272,184404,1,0,0:2:0:0:
324,248,184589,5,2,0:2:0:0:
272,308,184774,1,2,0:2:0:0:
208,272,184959,1,0,0:2:0:0:
208,272,185052,1,0,0:2:0:0:
208,272,185144,2,0,P|288:136|408:108,1,280,0|0,0:2|0:0,0:0:0:0:
440,120,185885,1,6,0:2:0:0:
416,316,186256,5,2,0:2:0:0:
320,344,186441,1,2,0:2:0:0:
248,276,186626,1,0,0:2:0:0:
356,268,186811,1,2,0:2:0:0:
356,268,186904,1,2,0:2:0:0:
356,268,186996,1,2,0:2:0:0:
316,176,187182,5,2,0:2:0:0:
196,212,187367,1,2,0:2:0:0:
256,128,187552,1,2,0:2:0:0:
256,192,187644,12,2,188848,0:2:0:0:
84,120,189033,5,6,0:2:0:0:
232,88,189219,1,2,0:2:0:0:
212,236,189404,1,2,0:2:0:0:
408,176,189774,6,0,L|436:244,2,50,2|2|2,0:2|0:2|0:2,0:0:0:0:
332,240,190144,1,0,0:2:0:0:
248,296,190330,1,0,0:2:0:0:
176,200,190515,5,2,0:2:0:0:
108,240,190700,1,2,0:2:0:0:
56,304,190885,1,0,0:2:0:0:
56,304,190978,1,0,0:2:0:0:
56,304,191070,2,0,P|160:344|280:288,1,240,0|0,0:2|0:0,0:0:0:0:
288,280,191719,1,0,0:0:0:0:
296,260,191811,1,2,0:2:0:0:
96,192,192182,5,2,0:2:0:0:
32,272,192367,1,2,0:2:0:0:
140,264,192552,1,0,0:2:0:0:
212,192,192737,1,2,0:2:0:0:
212,192,192830,1,2,0:2:0:0:
212,192,192922,1,2,0:2:0:0:
312,192,193107,5,2,0:2:0:0:
368,304,193293,1,2,0:2:0:0:
404,208,193478,1,2,0:2:0:0:
256,192,193570,12,0,194496,0:0:0:0:
256,224,194589,6,0,L|256:180,4,25,0|0|0|0|0,0:2|0:2|0:2|0:2|0:2,0:2:0:0:
232,148,194959,6,0,L|192:112,2,40,4|0|8,1:2|0:0|0:2,0:2:0:0:
332,232,195330,1,0,1:2:0:0:
332,232,195422,1,0,1:2:0:0:
332,232,195515,1,8,0:2:0:0:
288,356,195700,5,0,1:2:0:0:
388,272,195885,1,8,0:2:0:0:
404,256,195978,1,8,0:2:0:0:
420,240,196070,1,0,1:2:0:0:
435,224,196163,1,0,0:0:0:0:
451,209,196256,1,8,0:2:0:0:
467,194,196348,1,0,0:0:0:0:
482,178,196441,6,0,P|478:129|424:102,1,88.000002685547,0|8,1:2|0:2,0:2:0:0:
388,156,196811,2,0,L|356:196,3,40,0|0|8|8,1:2|1:2|0:2|0:2,0:0:0:0:
340,197,197182,1,0,1:2:0:0:
319,186,197274,1,8,0:2:0:0:
309,202,197367,1,0,0:2:0:0:
287,191,197459,1,8,0:2:0:0:
277,207,197552,1,0,1:2:0:0:
256,196,197644,1,0,0:0:0:0:
246,212,197737,1,8,0:2:0:0:
224,201,197830,1,0,0:0:0:0:
188,220,197922,6,0,L|113:235,2,40,4|0|8,1:2|0:0|0:2,0:2:0:0:
112,312,198293,1,0,1:2:0:0:
112,312,198385,1,0,1:2:0:0:
112,312,198478,1,8,0:2:0:0:
224,244,198663,5,0,1:2:0:0:
94,223,198848,1,8,0:2:0:0:
89,201,198941,1,8,0:2:0:0:
84,180,199033,1,0,1:2:0:0:
78,158,199126,1,0,0:0:0:0:
73,137,199219,1,8,0:2:0:0:
68,115,199311,1,0,0:0:0:0:
64,92,199404,6,0,P|76:57|137:38,1,88.000002685547,0|8,1:2|0:2,0:2:0:0:
172,96,199774,2,0,L|220:140,3,40,0|0|8|8,1:2|1:2|0:2|0:2,0:0:0:0:
225,132,200144,1,0,1:2:0:0:
220,156,200237,1,8,0:2:0:0:
241,152,200330,1,0,0:2:0:0:
236,176,200422,1,8,0:2:0:0:
261,180,200515,1,0,1:2:0:0:
256,204,200607,1,0,0:0:0:0:
277,200,200700,1,8,0:2:0:0:
272,224,200793,1,0,0:0:0:0:
276,264,200885,6,0,L|264:316,2,40,4|0|8,1:2|0:0|0:2,0:2:0:0:
368,184,201256,1,0,1:2:0:0:
368,184,201348,1,0,1:2:0:0:
368,184,201441,1,8,0:2:0:0:
240,152,201626,5,0,1:2:0:0:
191,275,201811,1,8,0:2:0:0:
210,263,201904,1,8,0:2:0:0:
228,252,201996,1,0,1:2:0:0:
247,241,202089,1,0,0:0:0:0:
266,230,202182,1,8,0:2:0:0:
285,219,202274,1,0,0:0:0:0:
304,208,202367,6,0,P|318:161|289:117,1,88.000002685547,0|8,1:2|0:2,0:2:0:0:
224,144,202737,2,0,L|176:188,3,40,0|0|8|8,1:2|1:2|0:2|0:2,0:0:0:0:
171,179,203107,1,0,1:2:0:0:
176,204,203200,1,8,0:2:0:0:
155,199,203293,1,0,0:2:0:0:
160,224,203385,1,8,0:2:0:0:
135,227,203478,1,0,1:2:0:0:
140,252,203570,1,0,0:0:0:0:
119,247,203663,1,8,0:2:0:0:
124,272,203756,1,0,0:0:0:0:
100,304,203848,6,0,L|72:336,2,40,4|0|8,1:2|0:0|0:2,0:2:0:0:
220,292,204219,1,0,1:2:0:0:
220,292,204311,1,0,1:2:0:0:
220,292,204404,1,8,0:2:0:0:
328,368,204589,5,0,1:2:0:0:
440,300,204774,1,8,0:2:0:0:
436,278,204867,1,8,0:2:0:0:
432,256,204959,1,0,1:2:0:0:
427,234,205052,1,0,0:0:0:0:
423,212,205144,1,8,0:2:0:0:
419,191,205237,1,0,0:0:0:0:
412,168,205330,6,0,L|288:212,1,100,4|0,0:2|0:2,0:2:0:0:
176,252,205700,1,4,0:2:0:0:
316,308,205885,1,8,0:2:0:0:
316,308,205978,1,8,0:2:0:0:
316,308,206070,1,4,1:2:0:0:
316,308,206163,1,0,0:0:0:0:
316,308,206256,1,8,0:2:0:0:
316,308,206348,1,8,0:2:0:0:
316,308,206441,2,0,P|372:264|384:212,1,100,4|0,1:2|0:2,0:2:0:0:
372,120,206811,5,2,0:2:0:0:
355,130,206904,1,2,0:2:0:0:
338,141,206996,1,2,0:2:0:0:
321,152,207089,1,2,0:2:0:0:
304,162,207182,1,2,0:2:0:0:
68,112,207552,6,0,L|116:148,3,40,2|0|0|0,0:2|0:2|0:2|0:2,0:0:0:0:
116,148,207922,1,2,0:2:0:0:
131,160,208015,1,0,0:2:0:0:
147,172,208107,1,0,0:2:0:0:
163,184,208200,1,0,0:2:0:0:
176,196,208293,6,0,L|216:232,2,40,2|2|2,0:2|0:2|0:2,0:0:0:0:
303,96,208663,1,2,0:2:0:0:
334,263,208848,1,2,0:2:0:0:
334,263,208941,1,2,0:2:0:0:
211,268,209126,1,2,0:2:0:0:
191,266,209219,1,2,0:2:0:0:
171,265,209311,1,2,0:2:0:0:
151,263,209404,1,2,0:2:0:0:
131,263,209496,6,0,L|79:262,3,40,2|2|2|2,0:2|0:2|0:2|0:2,0:0:0:0:
71,260,209867,2,0,L|120:169,1,80,2|2,0:2|0:2,0:0:0:0:
119,172,210144,1,2,0:2:0:0:
128,154,210237,1,2,0:2:0:0:
137,136,210330,1,2,0:2:0:0:
244,108,210515,6,0,L|288:136,2,40,2|2|2,0:2|0:2|0:2,0:0:0:0:
188,52,210885,1,2,0:2:0:0:
112,76,211070,1,2,0:2:0:0:
76,148,211256,5,2,0:2:0:0:
71,167,211348,1,0,0:2:0:0:
66,186,211441,1,0,0:2:0:0:
61,206,211533,1,0,0:2:0:0:
56,225,211626,1,2,0:2:0:0:
51,245,211719,1,0,0:2:0:0:
46,264,211811,1,0,0:2:0:0:
42,283,211904,1,0,0:2:0:0:
36,304,211996,6,0,L|52:352,4,50,2|2|2|2|2,0:2|0:2|0:2|0:2|0:2,0:0:0:0:
197,290,212737,5,6,0:2:0:0:
214,281,212830,1,0,0:2:0:0:
232,273,212922,1,0,0:2:0:0:
251,264,213015,1,0,0:2:0:0:
268,255,213107,1,0,0:2:0:0:
287,247,213200,1,0,0:2:0:0:
305,238,213293,1,0,0:2:0:0:
323,231,213385,1,0,0:0:0:0:
338,222,213478,6,0,L|394:194,4,44.0000013427735,2|0|2|0|2,0:2|0:2|0:2|0:2|0:2,0:2:0:0:
272,160,214033,1,2,0:2:0:0:
272,160,214126,1,0,0:2:0:0:
272,160,214219,2,0,L|304:108,1,40,2|0,0:2|0:0,0:0:0:0:
200,128,214404,2,0,L|212:72,1,40,2|2,0:2|0:2,0:0:0:0:
132,120,214589,2,0,L|128:60,1,40,2|2,0:2|0:2,0:0:0:0:
64,128,214774,2,0,L|40:80,1,40,2|2,0:2|0:2,0:0:0:0:
28,188,214959,1,2,0:2:0:0:
28,188,215052,1,2,0:2:0:0:
28,188,215144,1,2,0:2:0:0:
28,188,215237,1,2,0:2:0:0:
28,188,215330,6,0,L|41:258,3,50,2|0|8|0,0:2|0:2|0:2|0:2,0:2:0:0:
56,256,215700,5,4,1:2:0:0:
80,261,215793,1,0,0:2:0:0:
104,266,215885,1,8,0:2:0:0:
129,271,215978,1,0,0:2:0:0:
153,276,216070,1,0,1:2:0:0:
178,281,216163,1,0,1:2:0:0:
202,286,216256,1,8,0:2:0:0:
227,291,216348,1,0,0:2:0:0:
251,297,216441,1,0,1:2:0:0:
276,302,216533,1,8,0:2:0:0:
300,307,216626,1,8,0:2:0:0:
320,312,216719,1,8,0:2:0:0:
344,316,216811,2,0,L|372:268,3,50,0|0|8|0,1:2|0:2|0:2|0:2,0:0:0:0:
406,264,217182,5,0,1:2:0:0:
433,238,217274,1,0,0:2:0:0:
438,201,217367,1,8,0:2:0:0:
422,167,217459,1,0,0:2:0:0:
387,150,217552,5,0,1:2:0:0:
350,156,217644,1,0,0:2:0:0:
333,189,217737,1,8,0:2:0:0:
308,217,217830,1,8,0:2:0:0:
276,236,217922,5,0,1:2:0:0:
238,238,218015,1,0,0:2:0:0:
203,222,218107,1,8,0:2:0:0:
166,231,218200,1,0,0:2:0:0:
132,248,218293,6,0,L|107:281,7,25,8|0|8|0|8|0|8|0,0:2|0:2|0:2|0:2|0:2|0:2|0:2|0:2,0:2:0:0:
104,292,218663,5,4,1:2:0:0:
248,208,218848,1,8,0:2:0:0:
352,340,219033,1,0,1:2:0:0:
152,68,219404,6,0,L|220:36,2,55.9999982910157,0|8|8,1:2|0:2|0:2,0:0:0:0:
200,168,219774,1,0,1:2:0:0:
264,263,219959,1,8,0:2:0:0:
108,320,220144,5,0,1:2:0:0:
276,334,220330,1,8,0:2:0:0:
352,184,220515,2,0,L|320:248,3,55.9999982910157,0|0|8|8,1:2|1:2|0:2|0:2,0:0:0:0:
176,272,220978,1,8,0:2:0:0:
176,272,221070,1,0,0:2:0:0:
176,272,221163,1,8,0:2:0:0:
176,272,221256,1,0,1:2:0:0:
176,272,221348,1,0,0:0:0:0:
176,272,221441,6,0,B|148:152|216:44,1,223.999993164063,8|8,0:2|0:2,0:2:0:0:
304,192,221996,1,0,1:2:0:0:
440,92,222182,1,8,0:2:0:0:
276,124,222367,2,0,L|228:168,2,55.9999982910157,0|8|8,1:2|0:2|0:2,0:0:0:0:
404,256,222737,1,0,1:2:0:0:
260,344,222922,1,8,0:2:0:0:
92,324,223107,5,0,1:2:0:0:
111,303,223200,1,0,0:2:0:0:
131,283,223293,1,8,0:2:0:0:
151,263,223385,1,0,0:2:0:0:
169,242,223478,1,0,1:2:0:0:
189,222,223570,1,0,1:2:0:0:
209,202,223663,1,8,0:2:0:0:
228,182,223756,1,8,0:2:0:0:
248,162,223848,6,0,L|300:104,3,55.9999982910157,0|8|0|8,1:2|0:2|0:2|0:2,0:0:0:0:
308,104,224219,2,0,P|407:82|448:136,1,167.999994873047,0|0,1:2|0:0,0:0:0:0:
444,180,224589,5,4,1:2:0:0:
285,120,224774,1,8,0:2:0:0:
380,260,224959,1,0,1:2:0:0:
156,232,225330,2,0,L|84:200,2,55.9999982910157,0|8|8,1:2|0:2|0:2,0:0:0:0:
256,276,225700,1,0,1:2:0:0:
360,320,225885,1,8,0:2:0:0:
312,160,226070,5,0,1:2:0:0:
160,232,226256,1,8,0:2:0:0:
328,252,226441,1,0,1:2:0:0:
328,252,226533,1,0,1:2:0:0:
328,252,226626,2,0,P|408:184|376:80,1,223.999993164063,8|0,0:2|0:2,0:0:0:0:
352,68,227089,2,0,L|328:136,2,55.9999982910157,8|0|0,0:2|1:2|0:0,0:0:0:0:
324,60,227367,6,0,P|244:128|276:232,1,223.999993164063,8|8,0:2|0:2,0:2:0:0:
388,352,227922,1,0,1:2:0:0:
228,304,228107,1,8,0:2:0:0:
328,164,228293,2,0,L|392:136,2,55.9999982910157,0|8|8,1:2|0:2|0:2,0:0:0:0:
432,200,228663,1,0,1:2:0:0:
332,240,228848,1,8,0:2:0:0:
336,72,229033,5,0,1:2:0:0:
319,94,229126,1,0,0:2:0:0:
303,116,229219,1,8,0:2:0:0:
286,140,229311,1,0,0:2:0:0:
270,162,229404,5,0,1:2:0:0:
254,185,229496,1,0,1:2:0:0:
238,208,229589,1,8,0:2:0:0:
221,230,229682,1,8,0:2:0:0:
205,254,229774,5,0,1:2:0:0:
189,276,229867,1,8,0:2:0:0:
173,299,229959,1,0,0:2:0:0:
156,322,230052,1,8,0:2:0:0:
140,344,230144,6,0,L|104:344,6,27.9999991455078,0|0|8|0|8|0|0,1:2|0:2|0:2|0:2|0:2|0:2|0:2,0:2:0:0:
84,344,230515,5,4,1:2:0:0:
80,316,230607,1,0,0:2:0:0:
77,288,230700,1,8,0:2:0:0:
74,260,230793,1,0,0:2:0:0:
70,232,230885,1,0,1:2:0:0:
232,76,231256,5,0,1:2:0:0:
257,86,231348,1,8,0:2:0:0:
283,96,231441,1,8,0:2:0:0:
309,107,231533,1,0,0:2:0:0:
335,117,231626,1,0,1:2:0:0:
361,128,231719,1,0,0:2:0:0:
387,138,231811,1,8,0:2:0:0:
413,149,231904,1,0,0:0:0:0:
440,160,231996,6,0,L|472:96,2,55.9999982910157,0|0|8,1:2|0:0|0:2,0:2:0:0:
228,88,232367,1,0,1:2:0:0:
192,308,232552,1,8,0:2:0:0:
192,308,232644,1,8,0:2:0:0:
144,208,232830,2,0,L|80:188,2,55.9999982910157,8|0|8,0:2|0:2|0:2,0:0:0:0:
172,216,233107,1,0,1:2:0:0:
198,224,233200,1,0,0:2:0:0:
225,233,233293,1,8,0:2:0:0:
251,242,233385,1,0,0:2:0:0:
278,251,233478,6,0,L|336:276,3,55.9999982910157,4|0|8|0,1:2|0:2|0:2|0:2,0:0:0:0:
356,284,233848,1,0,1:2:0:0:
381,295,233941,1,8,0:2:0:0:
406,307,234033,1,8,0:2:0:0:
412,196,234219,2,0,L|472:224,2,55.9999982910157,0|8|8,1:2|0:2|0:2,0:0:0:0:
336,112,234589,1,0,1:2:0:0:
232,72,234774,1,8,0:2:0:0:
124,116,234959,5,0,1:2:0:0:
119,143,235052,1,0,0:2:0:0:
115,171,235144,1,8,0:2:0:0:
110,198,235237,1,0,0:2:0:0:
106,226,235330,1,0,1:2:0:0:
102,254,235422,1,0,1:2:0:0:
97,281,235515,1,8,0:2:0:0:
93,309,235607,1,8,0:2:0:0:
88,336,235700,6,0,L|156:324,4,60.0000022888184,0|0|8|8|0,1:2|0:2|0:2|0:2|1:2,0:0:0:0:
308,296,236441,5,4,1:2:0:0:
283,281,236533,1,0,0:2:0:0:
259,267,236626,1,8,0:2:0:0:
235,252,236719,1,0,0:2:0:0:
211,238,236811,1,0,1:2:0:0:
187,223,236904,1,0,1:2:0:0:
163,209,236996,1,8,0:2:0:0:
139,195,237089,1,0,0:2:0:0:
115,180,237182,2,0,L|72:252,4,55.9999982910157,0|0|8|0|0,1:2|0:2|0:2|0:2|1:2,0:2:0:0:
192,84,237737,5,8,0:2:0:0:
192,84,237830,1,0,0:0:0:0:
192,84,237922,2,0,L|148:36,1,55.9999982910157,0|0,1:2|0:0,0:2:0:0:
136,124,238107,2,0,L|76:88,1,55.9999982910157,8|0,0:2|0:0,0:0:0:0:
96,180,238293,2,0,L|40:160,1,55.9999982910157,0|0,1:2|1:2,0:0:0:0:
72,244,238478,2,0,L|16:232,1,55.9999982910157,8|8,0:2|0:2,0:0:0:0:
66,311,238663,1,0,1:2:0:0:
66,311,238756,1,0,0:2:0:0:
66,311,238848,1,8,0:2:0:0:
66,311,238941,1,8,0:2:0:0:
66,311,239033,6,0,L|122:351,3,60.0000022888184,0|0|8|0,1:2|0:0|0:2|0:0,0:0:0:0:
146,343,239404,1,4,1:2:0:0:
174,343,239496,1,0,0:2:0:0:
202,343,239589,1,8,0:2:0:0:
230,343,239682,1,0,0:2:0:0:
258,343,239774,1,0,1:2:0:0:
286,343,239867,1,0,1:2:0:0:
314,343,239959,1,8,0:2:0:0:
342,343,240052,1,0,0:2:0:0:
370,343,240144,1,0,1:2:0:0:
398,343,240237,1,8,0:2:0:0:
426,343,240330,1,8,0:2:0:0:
454,343,240422,1,8,0:2:0:0:
482,343,240515,2,0,L|442:295,3,55.9999982910157,0|0|8|0,1:2|0:0|0:2|0:0,0:0:0:0:
426,275,240885,5,0,1:2:0:0:
381,284,240978,1,0,0:2:0:0:
342,260,241070,1,8,0:2:0:0:
336,215,241163,1,0,0:2:0:0:
353,173,241256,5,0,1:2:0:0:
385,141,241348,1,0,1:2:0:0:
385,95,241441,1,8,0:2:0:0:
362,56,241533,1,8,0:2:0:0:
321,35,241626,5,0,1:2:0:0:
275,30,241719,1,8,0:2:0:0:
236,52,241811,1,0,0:2:0:0:
222,94,241904,1,8,0:2:0:0:
221,142,241996,6,0,L|184:160,6,30.0000011444092,8|0|0|0|0|0|0,1:2|1:2|1:2|1:2|1:2|1:2|1:2,1:2:0:0:
194,155,242367,6,0,L|97:202,1,80,4|8,1:2|0:2,0:0:0:0:
71,141,242737,1,2,1:2:0:0:
71,141,242830,1,2,0:2:0:0:
71,141,242922,1,8,0:2:0:0:
56,219,243107,1,0,1:2:0:0:
128,264,243293,1,10,0:2:0:0:
128,264,243386,1,2,0:2:0:0:
193,218,243571,1,2,0:2:0:0:
193,218,243664,1,8,0:2:0:0:
221,142,243848,6,0,L|296:182,1,80,0|8,1:2|0:2,0:0:0:0:
364,215,244219,2,0,L|414:244,3,40,2|2|10|2,1:2|0:2|0:2|0:2,0:0:0:0:
457,274,244589,1,2,1:2:0:0:
457,274,244682,1,0,0:0:0:0:
457,274,244774,1,8,0:2:0:0:
457,274,244867,1,0,0:0:0:0:
457,274,244959,1,8,0:2:0:0:
457,274,245052,1,0,0:0:0:0:
457,274,245144,1,2,1:2:0:0:
450,179,245330,6,0,L|431:85,1,80,4|8,1:2|0:2,0:2:0:0:
368,56,245700,1,2,1:2:0:0:
368,56,245793,1,2,0:2:0:0:
368,56,245885,1,8,0:2:0:0:
292,82,246070,1,0,1:2:0:0:
218,112,246256,1,10,0:2:0:0:
218,112,246348,1,2,0:2:0:0:
146,144,246533,1,2,0:2:0:0:
146,144,246626,1,8,0:2:0:0:
70,170,246811,6,0,L|119:237,1,80,0|8,1:2|0:2,0:0:0:0:
166,301,247182,2,0,L|215:266,3,40,2|2|10|2,1:2|0:2|0:2|0:2,0:0:0:0:
255,278,247552,1,2,1:2:0:0:
255,278,247644,1,0,0:0:0:0:
255,278,247737,1,8,0:2:0:0:
255,278,247830,1,0,0:0:0:0:
255,278,247922,1,8,0:2:0:0:
255,278,248015,1,0,0:0:0:0:
255,278,248107,1,0,1:2:0:0:
322,232,248293,6,0,L|334:321,1,80,4|8,1:2|0:2,0:0:0:0:
415,343,248663,1,2,1:2:0:0:
415,343,248756,1,2,0:2:0:0:
415,343,248848,1,8,0:2:0:0:
457,274,249033,1,0,1:2:0:0:
400,225,249219,1,10,0:2:0:0:
400,225,249311,1,2,0:2:0:0:
322,232,249496,1,2,0:2:0:0:
322,232,249589,1,8,0:2:0:0:
242,244,249774,6,0,L|183:163,1,80,0|8,1:2|0:2,0:2:0:0:
149,113,250144,2,0,L|196:78,3,40,2|2|10|2,1:2|0:2|0:2|0:2,0:0:0:0:
235,87,250515,1,2,1:2:0:0:
235,87,250607,1,0,0:0:0:0:
235,87,250700,1,8,0:2:0:0:
235,87,250793,1,0,0:0:0:0:
235,87,250885,1,0,1:2:0:0:
235,87,250978,1,0,0:0:0:0:
235,87,251070,1,8,0:2:0:0:
305,47,251256,6,0,L|406:20,1,80,4|8,1:2|0:2,0:0:0:0:
434,100,251626,1,2,1:2:0:0:
434,100,251719,1,2,0:2:0:0:
434,100,251811,1,8,0:2:0:0:
358,123,251996,1,0,1:2:0:0:
294,82,252182,1,10,0:2:0:0:
294,82,252274,1,2,0:2:0:0:
223,113,252459,1,2,0:2:0:0:
223,113,252552,1,8,0:2:0:0:
144,92,252737,6,0,L|169:178,1,80,0|8,1:2|0:2,0:2:0:0:
223,113,253107,2,0,L|237:159,3,40,2|2|10|10,1:2|0:2|0:2|0:2,0:0:0:0:
244,193,253478,6,0,L|244:229,14,20,10|0|0|0|0|0|0|0|0|0|0|0|0|0|0,1:2|1:2|1:2|1:2|1:2|1:2|1:2|1:2|1:2|1:2|1:2|1:2|1:2|1:2|1:2,1:2:0:0:
243,234,254219,6,0,L|183:290,1,80,4|8,1:2|0:2,0:2:0:0:
95,322,254589,1,0,1:2:0:0:
76,330,254682,1,0,1:2:0:0:
58,338,254774,1,8,0:2:0:0:
80,220,254959,1,0,1:2:0:0:
113,105,255144,2,0,L|165:117,3,40,8|8|0|0,0:2|0:2|1:2|0:0,0:0:0:0:
193,125,255515,1,8,0:2:0:0:
312,152,255700,6,0,L|240:200,1,80,0|8,1:2|0:2,0:2:0:0:
356,244,256070,1,0,1:2:0:0:
374,252,256163,1,0,1:2:0:0:
392,260,256256,1,8,0:2:0:0:
430,146,256441,1,0,1:2:0:0:
312,152,256626,1,10,0:2:0:0:
312,152,256996,1,10,0:2:0:0:
194,177,257182,6,0,L|266:225,1,80,4|8,1:2|0:2,0:2:0:0:
366,281,257552,1,0,1:2:0:0:
383,290,257644,1,0,1:2:0:0:
401,299,257737,1,8,0:2:0:0:
282,316,257922,1,0,1:2:0:0:
162,336,258107,2,0,L|206:288,3,40,8|8|0|0,0:2|0:2|1:2|0:0,0:0:0:0:
218,276,258478,1,8,0:2:0:0:
100,258,258663,6,0,L|159:192,1,80,0|8,1:2|0:2,0:2:0:0:
239,113,259033,1,0,1:2:0:0:
257,120,259126,1,0,1:2:0:0:
275,128,259219,1,8,0:2:0:0:
383,181,259404,1,0,1:2:0:0:
374,64,259589,1,10,0:2:0:0:
374,64,259959,1,10,0:2:0:0:
275,128,260144,6,0,P|231:168|171:168,1,100,4|8,1:2|0:2,0:2:0:0:
184,59,260515,1,8,1:2:0:0:
195,81,260607,1,8,0:2:0:0:
207,103,260700,1,8,0:2:0:0:
78,179,260885,1,0,1:2:0:0:
160,234,261070,2,0,L|218:267,3,50,0|8|0|0,0:2|0:2|1:2|0:0,0:0:0:0:
246,285,261441,1,8,0:2:0:0:
388,336,261626,6,0,P|440:296|440:244,1,100,0|8,1:2|0:2,0:0:0:0:
444,116,261996,1,8,1:2:0:0:
442,91,262089,1,8,0:2:0:0:
440,66,262182,1,8,0:2:0:0:
348,188,262367,1,0,1:2:0:0:
204,144,262552,1,10,0:2:0:0:
204,144,262922,1,10,0:2:0:0:
68,208,263107,6,0,P|72:260|104:292,1,100,4|8,1:2|0:2,0:2:0:0:
252,336,263478,1,8,1:2:0:0:
276,342,263570,1,8,0:2:0:0:
300,348,263663,1,8,0:2:0:0:
432,272,263848,1,8,1:2:0:0:
308,184,264033,2,0,L|256:224,3,50,8|8|0|0,0:2|0:2|0:2|0:0,0:0:0:0:
232,248,264404,1,8,0:2:0:0:
104,328,264589,6,0,P|60:304|44:260,1,100,0|8,1:2|0:2,0:2:0:0:
84,116,264959,1,8,1:2:0:0:
107,106,265052,1,8,0:2:0:0:
130,97,265144,1,8,0:2:0:0:
153,88,265237,1,8,0:2:0:0:
176,80,265330,2,0,P|260:60|360:112,1,200,8|0,1:2|0:0,0:2:0:0:
368,132,265793,1,0,0:0:0:0:
376,156,265885,1,0,0:0:0:0:
