osu file format v14

[General]
AudioFilename: audio.mp3
AudioLeadIn: 0
PreviewTime: 183015
Countdown: 0
SampleSet: Soft
StackLeniency: 0.7
Mode: 0
LetterboxInBreaks: 0
WidescreenStoryboard: 0

[Editor]
Bookmarks: 101070,242367
DistanceSpacing: 0.7
BeatDivisor: 4
GridSize: 32
TimelineZoom: 2.200006

[Metadata]
Title:Demystify Feast
TitleUnicode:Demystify Feast
Artist:ZUN
ArtistUnicode:ZUN
Creator:fnql
Version:Feast
Source:東方萃夢想 ~ Immaterial and Missing Power.
Tags:東方Project touhou project suimusou th7.5 team shanghai alice twilight frontier ZUN's Music Collection vol.5 大空魔術 ~ Magical Astronomy Oozora Majutsu halfslashed video game instrumental
BeatmapID:4108168
BeatmapSetID:1978790

[Difficulty]
HPDrainRate:5
CircleSize:4
OverallDifficulty:8
ApproachRate:8
SliderMultiplier:1.8
SliderTickRate:2

[Events]
//Background and Video events
0,0,"Hakurei.Reimu.full.2537449.jpg",0,0
//Break Periods
//Storyboard Layer 0 (Background)
//Storyboard Layer 1 (Fail)
//Storyboard Layer 2 (Pass)
//Storyboard Layer 3 (Foreground)
//Storyboard Layer 4 (Overlay)
//Storyboard Sound Samples

[TimingPoints]
145,370.37037037037,4,2,1,100,1,0
145,-125,4,2,1,40,0,0
22367,-100,4,2,1,50,0,0
34219,-83.3333333333333,4,2,1,55,0,0
46070,-125,4,2,1,50,0,0
58107,-100,4,2,1,50,0,0
59404,-83.3333333333333,4,2,1,55,0,0
70144,-133.333333333333,4,2,1,40,0,0
70191,-133.333333333333,4,2,1,42,0,0
70237,-133.333333333333,4,2,1,44,0,0
70283,-133.333333333333,4,2,1,46,0,0
70330,-133.333333333333,4,2,1,48,0,0
70376,-133.333333333333,4,2,1,50,0,0
70422,-133.333333333333,4,2,1,52,0,0
70469,-133.333333333333,4,2,1,54,0,0
70515,-133.333333333333,4,2,1,55,0,0
71256,-76.9230769230769,4,2,1,60,0,0
83107,-100,4,2,1,45,0,0
85515,-200,4,2,1,45,0,0
86070,-100,4,2,1,60,0,0
90515,-100,4,2,1,50,0,0
102367,-71.4285714285714,4,2,1,60,0,0
104219,-100,4,2,1,60,0,0
105330,-71.4285714285714,4,2,1,60,0,0
107182,-100,4,2,1,60,0,0
108293,-71.4285714285714,4,2,1,60,0,0
110144,-100,4,2,1,60,0,0
111256,-71.4285714285714,4,2,1,60,0,0
114219,-100,4,2,1,60,0,0
126070,-71.4285714285714,4,2,1,60,0,0
127922,-100,4,2,1,60,0,0
128848,-71.4285714285714,4,2,1,60,0,0
130885,-100,4,2,1,60,0,0
131996,-71.4285714285714,4,2,1,60,0,0
133848,-100,4,2,1,60,0,0
134774,-71.4285714285714,4,2,1,60,0,0
136441,-71.4285714285714,4,2,1,50,0,0
137182,-71.4285714285714,4,2,1,54,0,0
137228,-71.4285714285714,4,2,1,56,0,0
137274,-71.4285714285714,4,2,1,58,0,0
137320,-71.4285714285714,4,2,1,60,0,0
137367,-71.4285714285714,4,2,1,62,0,0
137413,-71.4285714285714,4,2,1,64,0,0
137459,-71.4285714285714,4,2,1,66,0,0
137506,-71.4285714285714,4,2,1,68,0,0
137552,-71.4285714285714,4,2,1,70,0,0
137922,-100,4,2,1,45,0,0
149404,-100,4,2,1,50,0,0
151256,-83.3333333333333,4,2,1,55,0,0
161996,-83.3333333333333,4,2,1,45,0,0
162043,-83.3333333333333,4,2,1,47,0,0
162089,-83.3333333333333,4,2,1,49,0,0
162135,-83.3333333333333,4,2,1,51,0,0
162182,-83.3333333333333,4,2,1,53,0,0
162228,-83.3333333333333,4,2,1,55,0,0
162274,-83.3333333333333,4,2,1,57,0,0
162320,-83.3333333333333,4,2,1,59,0,0
162367,-83.3333333333333,4,2,1,60,0,0
163107,-76.9230769230769,4,2,1,60,0,0
174959,-100,4,2,1,45,0,0
177367,-200,4,2,1,45,0,0
177737,-100,4,2,1,60,0,0
182367,-100,4,2,1,65,0,0
183107,-100,4,2,1,50,0,0
194589,-71.4285714285714,4,2,1,50,0,0
194959,-71.4285714285714,4,2,1,60,0,1
196811,-100,4,2,1,60,0,1
197922,-71.4285714285714,4,2,1,60,0,1
199774,-100,4,2,1,60,0,1
200885,-71.4285714285714,4,2,1,60,0,1
202737,-100,4,2,1,60,0,1
203848,-71.4285714285714,4,2,1,60,0,1
206811,-71.4285714285714,4,2,1,55,0,1
215700,-71.4285714285714,4,2,1,60,0,1
217182,-71.4285714285714,4,2,1,65,0,1
220515,-100,4,2,1,65,0,1
221441,-71.4285714285714,4,2,1,65,0,1
242367,-100,4,2,1,50,0,0
253478,-100,4,2,1,65,0,0
254219,-71.4285714285714,4,2,1,65,0,1
265330,-666.666666666667,4,2,1,65,0,0

[Colours]
Combo1 : 209,218,254
Combo2 : 191,0,5
Combo3 : 255,223,224
Combo4 : 167,99,99

[HitObjects]
100,319,145,6,0,L|114:209,1,72,2|0,0:2|0:2,0:2:0:0:
122,157,515,1,0,0:2:0:0:
122,157,700,1,0,0:2:0:0:
36,208,885,1,0,0:2:0:0:
36,208,1070,1,0,0:2:0:0:
44,25,1256,6,0,L|29:134,1,72,0|0,0:2|0:2,0:2:0:0:
204,28,1626,1,0,0:2:0:0:
204,28,1811,1,0,0:2:0:0:
126,66,1996,1,0,0:2:0:0:
126,66,2182,1,0,0:2:0:0:
221,253,2367,6,0,P|226:192|209:167,1,72,2|0,0:2|0:2,0:2:0:0:
222,184,2737,1,0,0:2:0:0:
222,184,2922,1,0,0:2:0:0:
141,281,3107,1,0,0:2:0:0:
141,281,3293,1,0,0:2:0:0:
246,348,3478,6,0,P|292:308|334:315,1,72,0|0,0:2|0:2,0:2:0:0:
300,307,3848,1,0,0:2:0:0:
300,307,4033,1,0,0:2:0:0:
392,384,4219,1,0,0:2:0:0:
392,384,4404,1,0,0:2:0:0:
476,228,4589,6,0,P|463:166|475:116,1,72,2|0,0:2|0:2,0:2:0:0:
499,122,4959,1,0,0:2:0:0:
470,116,5144,1,0,0:2:0:0:
441,110,5330,1,0,0:2:0:0:
412,104,5515,1,0,0:2:0:0:
142,190,5700,6,0,L|244:155,1,72,0|0,0:2|0:2,0:2:0:0:
248,134,6070,1,0,0:2:0:0:
248,162,6256,1,0,0:2:0:0:
259,188,6441,1,0,0:2:0:0:
278,208,6626,1,0,0:2:0:0:
240,357,6811,5,2,0:2:0:0:
204,350,6996,1,0,0:2:0:0:
168,343,7182,1,0,0:2:0:0:
132,336,7367,1,0,0:2:0:0:
49,372,7552,1,0,0:2:0:0:
49,372,7737,1,0,0:2:0:0:
58,272,7922,5,0,0:2:0:0:
75,240,8107,1,0,0:2:0:0:
94,209,8293,1,0,0:2:0:0:
109,176,8478,2,0,L|110:123,2,36,2|2|2,0:2|0:2|0:2,0:2:0:0:
25,157,8848,1,2,0:2:0:0:
218,11,9033,5,6,0:2:0:0:
222,68,9219,1,0,0:2:0:0:
226,125,9404,1,0,0:2:0:0:
230,182,9589,1,0,0:2:0:0:
322,233,9774,1,0,0:2:0:0:
322,233,9959,1,0,0:2:0:0:
321,333,10144,5,0,0:2:0:0:
269,309,10330,1,0,0:2:0:0:
217,286,10515,1,0,0:2:0:0:
165,263,10700,1,0,0:2:0:0:
83,306,10885,1,0,0:2:0:0:
83,306,11070,1,0,0:2:0:0:
20,181,11256,5,2,0:2:0:0:
69,187,11441,1,0,0:2:0:0:
112,161,11626,1,0,0:2:0:0:
131,114,11811,1,0,0:2:0:0:
95,27,11996,1,0,0:2:0:0:
95,27,12182,1,0,0:2:0:0:
190,37,12367,5,0,0:2:0:0:
206,84,12552,1,0,0:2:0:0:
250,106,12737,1,0,0:2:0:0:
300,104,12922,1,0,0:2:0:0:
378,59,13107,1,0,0:2:0:0:
378,59,13292,1,0,0:2:0:0:
511,235,13478,5,2,0:2:0:0:
448,217,13663,1,0,0:2:0:0:
385,199,13848,1,0,0:2:0:0:
322,181,14033,1,0,0:2:0:0:
302,275,14219,1,0,0:2:0:0:
373,271,14404,1,0,0:2:0:0:
233,146,14589,5,0,0:2:0:0:
227,210,14774,1,0,0:2:0:0:
221,274,14959,1,0,0:2:0:0:
212,338,15144,1,0,0:2:0:0:
99,326,15330,1,0,0:2:0:0:
141,268,15515,1,0,0:2:0:0:
19,88,15700,5,2,0:2:0:0:
37,157,15885,1,0,0:2:0:0:
106,139,16070,1,0,0:2:0:0:
89,70,16256,1,0,0:2:0:0:
340,0,16441,1,0,0:2:0:0:
210,37,16626,1,0,0:2:0:0:
273,209,16811,5,0,0:2:0:0:
357,174,16996,1,0,0:2:0:0:
323,91,17182,1,0,0:2:0:0:
240,125,17367,1,0,0:2:0:0:
346,358,17552,1,0,0:2:0:0:
307,277,17737,1,0,0:2:0:0:
480,236,17922,6,0,L|381:221,1,72,4|0,0:2|0:2,0:2:0:0:
337,210,18293,1,0,0:2:0:0:
265,199,18478,1,0,0:2:0:0:
194,186,18663,1,0,0:2:0:0:
123,174,18848,1,0,0:2:0:0:
0,144,19033,6,0,L|98:113,1,72,2|0,0:2|0:2,0:2:0:0:
136,98,19404,1,0,0:2:0:0:
203,74,19589,1,0,0:2:0:0:
271,50,19774,1,0,0:2:0:0:
339,27,19959,1,0,0:2:0:0:
376,307,20144,6,0,L|335:247,1,72,2|0,0:2|0:2,0:2:0:0:
291,190,20515,1,0,0:2:0:0:
247,132,20700,1,0,0:2:0:0:
203,74,20885,1,0,0:2:0:0:
152,208,21070,5,2,0:2:0:0:
165,204,21163,1,2,0:2:0:0:
177,210,21256,5,4,0:2:0:0:
188,239,21348,1,0,0:2:0:0:
181,270,21441,1,0,0:2:0:0:
154,288,21533,1,0,0:2:0:0:
121,290,21626,1,4,0:2:0:0:
92,275,21719,1,0,0:2:0:0:
75,247,21811,1,0,0:2:0:0:
74,214,21904,1,0,0:2:0:0:
84,182,21996,1,12,1:2:0:0:
103,156,22089,1,8,1:2:0:0:
104,123,22182,1,8,1:2:0:0:
88,94,22274,1,8,1:2:0:0:
57,82,22367,5,4,1:2:0:0:
229,12,22552,1,0,0:2:0:0:
195,163,22737,1,2,1:2:0:0:
184,128,22830,1,2,0:2:0:0:
173,93,22922,1,2,0:2:0:0:
296,141,23107,5,0,1:2:0:0:
250,254,23293,1,2,0:2:0:0:
296,141,23478,1,0,1:2:0:0:
250,254,23663,1,2,0:2:0:0:
390,348,23848,6,0,L|366:244,1,90,2|0,1:2|0:2,0:2:0:0:
297,148,24219,1,2,1:2:0:0:
333,157,24312,1,2,0:2:0:0:
368,166,24404,1,2,0:2:0:0:
288,33,24589,5,0,1:2:0:0:
219,55,24774,1,2,0:2:0:0:
150,77,24959,1,0,1:2:0:0:
81,99,25144,1,2,0:2:0:0:
21,282,25330,6,0,L|3:167,1,90,6|0,1:2|0:2,0:2:0:0:
95,317,25700,1,2,1:2:0:0:
65,351,25793,1,2,0:2:0:0:
35,384,25885,1,2,0:2:0:0:
307,309,26070,5,0,1:2:0:0:
219,353,26256,1,2,0:2:0:0:
175,264,26441,1,0,1:2:0:0:
264,220,26626,1,2,0:2:0:0:
489,328,26811,6,0,L|380:316,1,90,2|0,1:2|0:2,0:2:0:0:
378,156,27182,1,2,1:2:0:0:
367,190,27274,1,2,0:2:0:0:
356,224,27367,1,2,0:2:0:0:
294,88,27552,5,0,1:2:0:0:
364,72,27737,1,2,0:2:0:0:
434,56,27922,1,0,1:2:0:0:
504,41,28107,1,2,0:2:0:0:
234,0,28293,6,0,L|214:101,1,90,6|0,1:2|0:2,0:2:0:0:
173,203,28663,1,2,1:2:0:0:
207,193,28756,1,2,0:2:0:0:
241,183,28848,1,2,0:2:0:0:
60,113,29033,5,0,1:2:0:0:
104,168,29219,1,2,0:2:0:0:
104,240,29404,1,0,1:2:0:0:
59,296,29589,1,2,0:2:0:0:
171,384,29774,2,0,P|157:327|133:309,1,90,2|0,1:2|0:2,0:2:0:0:
271,207,30144,5,2,1:2:0:0:
264,242,30237,1,2,0:2:0:0:
257,277,30330,1,2,0:2:0:0:
316,369,30515,5,0,1:2:0:0:
414,323,30700,1,2,0:2:0:0:
511,314,30885,1,0,1:2:0:0:
367,254,31070,1,2,0:2:0:0:
424,94,31256,6,0,L|412:201,1,90,6|0,1:2|0:2,0:2:0:0:
319,39,31626,1,2,1:2:0:0:
353,28,31719,1,2,0:2:0:0:
387,18,31811,1,2,0:2:0:0:
299,131,31996,5,0,1:2:0:0:
226,124,32182,1,2,0:2:0:0:
154,118,32367,1,0,1:2:0:0:
82,112,32552,1,2,0:2:0:0:
66,228,32737,6,0,P|32:175|-19:183,1,90,2|0,1:2|0:2,0:2:0:0:
72,336,33107,1,2,1:2:0:0:
97,310,33200,1,2,0:2:0:0:
132,301,33293,1,2,0:2:0:0:
239,384,33478,5,0,1:2:0:0:
227,340,33570,1,8,0:2:0:0:
214,296,33663,1,8,0:2:0:0:
202,252,33756,1,8,0:2:0:0:
190,208,33848,1,8,0:2:0:0:
190,208,34219,5,6,1:2:0:0:
440,270,34404,1,10,0:2:0:0:
311,102,34589,1,2,1:2:0:0:
316,137,34682,1,2,0:2:0:0:
322,172,34774,1,10,0:2:0:0:
284,258,34959,5,2,1:2:0:0:
389,31,35144,1,10,0:2:0:0:
346,24,35237,1,10,0:2:0:0:
303,17,35330,1,2,1:2:0:0:
260,10,35422,1,2,0:2:0:0:
216,5,35515,1,10,0:2:0:0:
127,95,35700,5,2,1:2:0:0:
211,91,35885,1,10,0:2:0:0:
50,50,36070,1,2,1:2:0:0:
44,82,36163,1,2,0:2:0:0:
38,114,36256,1,10,0:2:0:0:
32,145,36348,1,2,0:2:0:0:
26,177,36441,5,2,1:2:0:0:
84,301,36626,1,10,0:2:0:0:
84,301,36719,1,8,0:2:0:0:
84,301,36811,1,2,1:2:0:0:
4,255,36996,1,10,0:2:0:0:
97,384,37182,5,2,1:2:0:0:
269,287,37367,1,10,0:2:0:0:
171,252,37552,1,2,1:2:0:0:
177,288,37644,1,2,0:2:0:0:
186,324,37737,1,10,0:2:0:0:
343,380,37922,5,2,1:2:0:0:
335,336,38015,1,2,0:2:0:0:
347,294,38107,1,10,0:2:0:0:
375,261,38200,1,10,0:2:0:0:
416,248,38293,1,2,1:2:0:0:
458,251,38385,1,0,0:2:0:0:
495,271,38478,2,0,L|489:347,1,53.9999983520508,10|0,0:2|0:2,0:2:0:0:
512,162,38663,6,0,P|426:156|401:134,1,107.999996704102,2|8,1:2|0:2,0:2:0:0:
345,70,39033,1,2,1:2:0:0:
380,56,39126,1,2,0:2:0:0:
415,42,39219,1,10,0:2:0:0:
291,0,39404,5,2,1:2:0:0:
277,169,39589,1,10,0:2:0:0:
250,142,39682,1,0,0:2:0:0:
213,132,39774,1,2,1:2:0:0:
175,133,39867,1,0,0:2:0:0:
144,155,39959,2,0,L|142:87,1,53.9999983520508,10|0,0:2|0:2,0:2:0:0:
105,2,40144,6,0,P|72:52|25:52,1,107.999996704102,6|8,1:2|0:2,0:2:0:0:
0,169,40515,1,2,1:2:0:0:
31,148,40607,1,2,0:2:0:0:
68,146,40700,1,10,0:2:0:0:
139,377,40885,5,2,1:2:0:0:
61,336,41070,1,10,0:2:0:0:
66,298,41163,1,10,0:2:0:0:
89,268,41256,1,2,1:2:0:0:
123,254,41348,1,2,0:2:0:0:
160,255,41441,1,10,0:2:0:0:
242,384,41626,6,0,L|231:263,1,107.999996704102,2|8,1:2|0:2,0:2:0:0:
331,238,41996,1,2,1:2:0:0:
294,225,42089,1,2,0:2:0:0:
271,194,42182,1,10,0:2:0:0:
264,157,42274,1,2,0:2:0:0:
278,122,42367,1,2,1:2:0:0:
384,29,42552,5,10,0:2:0:0:
341,34,42644,1,0,0:2:0:0:
297,39,42737,1,2,1:2:0:0:
254,44,42830,1,0,0:2:0:0:
211,50,42922,1,10,0:2:0:0:
119,118,43107,6,0,L|146:-11,1,107.999996704102,6|8,1:2|0:2,0:2:0:0:
4,173,43478,1,2,1:2:0:0:
40,181,43570,1,2,0:2:0:0:
76,189,43663,1,10,0:2:0:0:
209,235,43848,5,2,1:2:0:0:
172,226,43941,1,2,0:2:0:0:
135,236,44033,1,10,0:2:0:0:
109,263,44126,1,10,0:2:0:0:
100,299,44219,1,2,1:2:0:0:
110,335,44311,1,0,0:2:0:0:
138,360,44404,2,0,P|171:366|193:359,1,53.9999983520508,10|0,0:2|0:2,0:2:0:0:
270,186,44589,2,0,L|253:292,1,107.999996704102,2|8,1:2|0:2,0:2:0:0:
317,384,44959,5,2,1:2:0:0:
317,346,45052,1,2,0:2:0:0:
334,313,45144,1,10,0:2:0:0:
367,294,45237,1,2,0:2:0:0:
404,294,45330,1,2,1:2:0:0:
503,332,45515,5,10,0:2:0:0:
489,291,45607,1,0,0:2:0:0:
475,249,45700,1,2,1:2:0:0:
461,207,45793,1,0,0:2:0:0:
447,166,45885,1,10,0:2:0:0:
496,75,46070,6,0,L|391:86,1,72,6|0,0:2|0:2,0:2:0:0:
289,151,46441,2,0,L|394:140,1,72,0|0,0:2|0:2,0:2:0:0:
422,88,46811,1,0,0:2:0:0:
337,48,46996,1,0,0:2:0:0:
210,228,47182,6,0,P|204:170|212:141,1,72,0|0,0:2|0:2,0:2:0:0:
241,7,47552,2,0,P|247:65|239:94,1,72,0|0,0:2|0:2,0:2:0:0:
200,156,47922,1,0,0:2:0:0:
136,94,48107,1,0,0:2:0:0:
105,264,48293,6,0,L|112:179,1,72,2|0,0:2|0:2,0:2:0:0:
40,133,48663,2,0,L|33:218,1,72,0|0,0:2|0:2,0:2:0:0:
24,294,49033,1,0,0:2:0:0:
24,294,49219,1,0,0:2:0:0:
259,268,49404,6,0,L|180:274,1,72,0|0,0:2|0:2,0:2:0:0:
143,355,49774,2,0,L|222:349,1,72,0|0,0:2|0:2,0:2:0:0:
302,352,50144,1,0,0:2:0:0:
302,352,50330,1,0,0:2:0:0:
353,189,50515,6,0,L|347:277,1,72,2|0,0:2|0:2,0:2:0:0:
405,384,50885,2,0,L|411:296,1,72,0|0,0:2|0:2,0:2:0:0:
512,229,51256,1,0,0:2:0:0:
491,316,51441,1,0,0:2:0:0:
419,76,51626,6,0,L|519:72,1,72,0|0,0:2|0:2,0:2:0:0:
446,166,51996,2,0,L|346:170,1,72,0|0,0:2|0:2,0:2:0:0:
279,97,52367,1,0,0:2:0:0:
335,24,52552,1,0,0:2:0:0:
292,305,52737,6,0,L|295:203,1,72,2|0,0:2|0:2,0:2:0:0:
217,179,53107,2,0,L|214:281,1,72,0|0,0:2|0:2,0:2:0:0:
213,345,53478,1,0,0:2:0:0:
213,345,53663,1,0,0:2:0:0:
0,204,53848,6,0,P|58:188|75:200,1,72,0|0,0:2|0:2,0:2:0:0:
113,257,54219,2,0,P|55:273|38:261,1,72,0|0,0:2|0:2,0:2:0:0:
141,182,54589,1,0,0:2:0:0:
141,182,54774,1,0,0:2:0:0:
90,369,54959,6,0,L|170:354,1,72,6|0,0:2|0:2,0:2:0:0:
217,346,55330,1,0,0:2:0:0:
273,337,55515,1,0,0:2:0:0:
329,328,55700,1,0,0:2:0:0:
385,319,55885,1,0,0:2:0:0:
510,384,56070,6,0,L|484:305,1,72,2|0,0:2|0:2,0:2:0:0:
466,261,56441,1,0,0:2:0:0:
445,207,56626,1,0,0:2:0:0:
424,153,56811,1,0,0:2:0:0:
403,99,56996,1,0,0:2:0:0:
480,24,57182,6,0,P|431:17|409:-5,1,72,2|0,0:2|0:2,0:2:0:0:
343,32,57552,1,0,1:2:0:0:
341,35,57644,1,8,0:2:0:0:
339,38,57737,1,8,0:2:0:0:
337,41,57830,1,8,0:2:0:0:
335,44,57922,1,8,0:2:0:0:
288,183,58107,5,2,0:2:0:0:
314,188,58200,1,2,0:2:0:0:
339,179,58293,5,4,0:2:0:0:
325,145,58385,1,0,0:2:0:0:
291,130,58478,1,0,0:2:0:0:
255,128,58570,1,0,0:2:0:0:
220,138,58663,1,4,0:2:0:0:
192,161,58756,1,0,0:2:0:0:
158,174,58848,1,0,0:2:0:0:
121,173,58941,1,0,0:2:0:0:
90,154,59033,1,12,0:2:0:0:
73,121,59126,1,8,0:2:0:0:
76,85,59219,1,8,0:2:0:0:
93,54,59311,1,8,0:2:0:0:
126,39,59404,5,2,1:2:0:0:
0,202,59589,1,10,0:2:0:0:
93,239,59774,1,2,1:2:0:0:
100,275,59866,1,2,0:2:0:0:
108,311,59959,1,10,0:2:0:0:
261,376,60144,5,0,1:2:0:0:
203,288,60330,1,10,0:2:0:0:
210,268,60422,1,2,0:2:0:0:
347,254,60607,1,2,0:2:0:0:
340,274,60699,1,10,0:2:0:0:
475,374,60885,6,0,L|461:264,1,107.999996704102,0|8,1:2|0:2,0:2:0:0:
510,175,61256,1,0,1:2:0:0:
474,176,61348,1,0,0:2:0:0:
441,159,61441,1,8,0:2:0:0:
424,127,61533,1,0,0:2:0:0:
423,90,61626,1,0,1:2:0:0:
512,34,61811,1,8,0:2:0:0:
512,34,61904,1,0,0:2:0:0:
512,34,61996,1,0,1:2:0:0:
295,3,62182,1,8,0:2:0:0:
328,180,62367,6,0,L|340:67,1,107.999996704102,6|10,1:2|0:2,0:2:0:0:
260,219,62737,1,2,1:2:0:0:
260,219,62830,1,2,0:2:0:0:
260,219,62922,1,10,0:2:0:0:
324,283,63107,5,0,1:2:0:0:
114,198,63293,1,10,0:2:0:0:
114,198,63385,1,2,0:2:0:0:
194,133,63570,1,2,0:2:0:0:
194,133,63663,1,10,0:2:0:0:
136,333,63848,6,0,P|56:306|20:313,1,107.999996704102,0|8,1:2|0:2,0:2:0:0:
227,384,64219,1,0,1:2:0:0:
219,341,64311,1,0,0:2:0:0:
210,298,64404,1,8,0:2:0:0:
202,255,64496,1,0,0:2:0:0:
194,212,64589,1,0,1:2:0:0:
369,272,64774,1,8,0:2:0:0:
369,272,64867,1,0,0:2:0:0:
369,272,64959,1,0,1:2:0:0:
300,183,65144,1,8,0:2:0:0:
355,373,65330,6,0,L|481:348,1,107.999996704102,6|10,1:2|0:2,0:2:0:0:
508,210,65700,1,2,1:2:0:0:
474,227,65793,1,2,0:2:0:0:
441,245,65885,1,10,0:2:0:0:
386,171,66070,5,0,1:2:0:0:
486,95,66256,1,10,0:2:0:0:
494,131,66348,1,2,0:2:0:0:
311,91,66533,1,2,0:2:0:0:
319,55,66625,1,10,0:2:0:0:
326,249,66811,6,0,L|210:229,1,107.999996704102,0|8,1:2|0:2,0:2:0:0:
63,292,67181,1,0,1:2:0:0:
99,280,67274,1,0,0:2:0:0:
125,253,67367,1,8,0:2:0:0:
139,217,67459,1,0,0:2:0:0:
135,176,67552,1,0,1:2:0:0:
0,232,67737,1,8,0:2:0:0:
0,232,67830,1,0,0:2:0:0:
0,232,67922,1,0,1:2:0:0:
132,364,68107,1,8,0:2:0:0:
201,268,68293,6,0,L|72:281,1,107.999996704102,6|10,1:2|0:2,0:2:0:0:
260,373,68663,1,2,1:2:0:0:
272,337,68756,1,2,0:2:0:0:
284,301,68848,1,10,0:2:0:0:
348,226,69033,5,0,1:2:0:0:
472,373,69219,1,10,0:2:0:0:
472,373,69311,1,2,0:2:0:0:
376,326,69496,1,2,0:2:0:0:
376,326,69589,1,10,0:2:0:0:
468,240,69774,6,0,P|437:170|458:127,1,107.999996704102,2|10,1:2|0:2,0:2:0:0:
395,3,70144,2,0,L|420:14,16,16.8750006437302,0|0|0|0|0|0|0|0|0|0|0|0|0|0|0|0|4,1:2|1:2|1:2|1:2|1:2|1:2|1:2|1:2|1:2|1:2|1:2|1:2|1:2|1:2|1:2|1:2|1:2,1:2:0:0:
480,66,71256,5,6,1:2:0:0:
296,35,71441,1,10,0:2:0:0:
366,175,71626,1,2,1:2:0:0:
385,138,71719,1,2,0:2:0:0:
383,97,71811,1,10,0:2:0:0:
162,128,71996,5,2,1:2:0:0:
203,127,72089,1,10,0:2:0:0:
244,123,72182,1,10,0:2:0:0:
284,123,72274,1,10,0:2:0:0:
271,252,72459,1,2,0:2:0:0:
248,246,72552,1,10,0:2:0:0:
23,292,72737,5,2,1:2:0:0:
108,66,72922,1,10,0:2:0:0:
148,203,73107,1,2,1:2:0:0:
113,196,73200,1,2,0:2:0:0:
78,189,73293,1,10,0:2:0:0:
43,182,73385,1,10,0:2:0:0:
8,176,73478,1,2,0:2:0:0:
87,384,73663,1,2,0:2:0:0:
120,372,73756,1,8,0:2:0:0:
153,360,73848,1,10,0:2:0:0:
195,281,74033,1,10,0:2:0:0:
382,350,74219,5,6,1:2:0:0:
264,359,74404,1,10,0:2:0:0:
427,202,74589,1,2,1:2:0:0:
464,219,74682,1,2,0:2:0:0:
488,251,74774,1,10,0:2:0:0:
335,238,74959,5,2,1:2:0:0:
341,197,75052,1,10,0:2:0:0:
347,156,75144,1,10,0:2:0:0:
354,115,75237,1,10,0:2:0:0:
430,49,75422,1,2,0:2:0:0:
439,76,75515,1,10,0:2:0:0:
216,36,75700,6,0,L|355:15,1,116.999994644165,2|10,1:2|0:2,0:2:0:0:
199,162,76070,1,2,1:2:0:0:
159,150,76163,1,2,0:2:0:0:
119,138,76256,1,10,0:2:0:0:
79,126,76348,1,10,0:2:0:0:
39,114,76441,1,2,0:2:0:0:
0,19,76626,1,2,0:2:0:0:
0,19,76719,1,8,0:2:0:0:
0,19,76811,1,2,1:2:0:0:
0,246,76996,2,0,P|46:241|81:258,1,58.4999973220826,10|0,0:2|0:2,0:2:0:0:
135,348,77182,6,0,L|150:217,1,116.999994644165,6|10,1:2|0:2,0:2:0:0:
297,321,77552,1,2,1:2:0:0:
257,312,77644,1,2,0:2:0:0:
216,303,77737,1,10,0:2:0:0:
340,240,77922,5,2,1:2:0:0:
380,244,78015,1,10,0:2:0:0:
419,235,78107,1,10,0:2:0:0:
452,211,78200,1,10,0:2:0:0:
508,295,78385,1,2,0:2:0:0:
498,322,78478,1,10,0:2:0:0:
377,144,78663,5,0,1:2:0:0:
482,123,78848,1,8,0:2:0:0:
288,21,79033,1,2,1:2:0:0:
276,60,79126,1,2,0:2:0:0:
265,99,79219,1,10,0:2:0:0:
254,138,79311,1,10,0:2:0:0:
242,177,79404,1,2,0:2:0:0:
126,285,79589,1,2,0:2:0:0:
111,246,79682,1,8,0:2:0:0:
95,208,79774,1,2,1:2:0:0:
154,128,79959,1,10,0:2:0:0:
0,186,80144,5,6,1:2:0:0:
235,290,80330,1,10,0:2:0:0:
114,374,80515,1,2,1:2:0:0:
120,333,80607,1,2,0:2:0:0:
129,293,80700,1,10,0:2:0:0:
348,231,80885,5,2,1:2:0:0:
307,225,80978,1,10,0:2:0:0:
271,204,81070,1,10,0:2:0:0:
252,167,81163,1,10,0:2:0:0:
167,194,81348,1,2,0:2:0:0:
167,194,81441,1,10,0:2:0:0:
306,81,81626,6,0,L|434:100,1,116.999994644165,2|10,0:2|0:2,0:2:0:0:
495,239,81996,1,2,1:2:0:0:
468,207,82089,1,2,0:2:0:0:
428,193,82182,1,10,0:2:0:0:
387,196,82274,1,10,0:2:0:0:
351,215,82367,5,2,0:2:0:0:
398,332,82552,1,10,0:2:0:0:
293,384,82737,1,2,0:2:0:0:
241,278,82922,1,10,0:2:0:0:
351,215,83107,5,0,0:2:0:0:
281,205,83293,1,0,0:2:0:0:
208,199,83477,1,2,0:2:0:0:
208,199,83570,1,2,0:2:0:0:
208,199,83663,1,2,0:2:0:0:
126,192,83848,1,0,0:2:0:0:
54,186,84033,1,2,0:2:0:0:
54,186,84126,1,2,0:2:0:0:
7,264,84311,1,2,0:2:0:0:
7,264,84404,1,2,0:2:0:0:
244,384,84589,5,0,0:2:0:0:
251,312,84774,1,0,0:2:0:0:
263,247,84959,1,2,0:2:0:0:
263,247,85052,1,2,0:2:0:0:
263,247,85144,1,2,0:2:0:0:
265,168,85330,1,0,0:2:0:0:
273,96,85515,2,0,L|281:8,1,67.5,2|0,0:2|0:2,0:2:0:0:
280,10,85885,1,2,0:2:0:0:
449,88,86070,5,6,0:2:0:0:
455,132,86163,1,2,0:2:0:0:
436,173,86256,1,2,0:2:0:0:
399,198,86348,1,2,0:2:0:0:
354,202,86441,1,2,0:2:0:0:
312,189,86533,1,2,0:2:0:0:
275,161,86626,1,2,0:2:0:0:
234,140,86719,1,2,0:2:0:0:
190,130,86811,1,2,0:2:0:0:
144,132,86904,1,2,0:2:0:0:
104,153,86996,1,2,0:2:0:0:
78,190,87089,1,2,0:2:0:0:
71,234,87182,1,2,0:2:0:0:
83,276,87274,1,2,0:2:0:0:
117,305,87367,1,2,0:2:0:0:
161,311,87459,1,2,0:2:0:0:
203,297,87552,1,2,0:2:0:0:
230,261,87644,1,2,0:2:0:0:
237,215,87737,1,2,0:2:0:0:
217,174,87830,1,2,0:2:0:0:
177,152,87922,1,2,0:2:0:0:
146,118,88015,1,2,0:2:0:0:
144,73,88107,1,2,0:2:0:0:
163,32,88200,1,2,0:2:0:0:
204,15,88293,1,2,0:2:0:0:
248,17,88385,1,2,0:2:0:0:
282,46,88478,1,10,0:2:0:0:
322,64,88570,1,10,0:2:0:0:
367,65,88663,1,10,0:2:0:0:
406,42,88756,1,10,0:2:0:0:
421,0,88848,1,10,0:2:0:0:
506,209,89033,5,2,0:2:0:0:
478,219,89126,1,2,0:2:0:0:
451,201,89219,5,2,0:2:0:0:
422,215,89311,1,2,0:2:0:0:
398,193,89404,5,2,0:2:0:0:
368,213,89497,1,2,0:2:0:0:
344,185,89589,5,2,0:2:0:0:
314,212,89682,1,2,0:2:0:0:
291,178,89774,5,6,0:2:0:0:
260,209,89867,1,2,0:2:0:0:
237,170,89959,5,2,0:2:0:0:
206,207,90052,1,2,0:2:0:0:
176,168,90144,2,0,L|157:200,6,22.5,2|0|0|0|0|0|0,0:2|0:2|0:2|0:2|0:2|0:2|0:2,0:2:0:0:
27,213,90515,5,6,0:2:0:0:
256,192,90700,1,2,0:2:0:0:
485,171,90885,1,2,0:2:0:0:
390,223,91256,5,2,0:2:0:0:
371,191,91349,1,2,0:2:0:0:
373,154,91442,1,2,0:2:0:0:
393,65,91626,1,0,0:2:0:0:
310,259,91811,1,0,0:2:0:0:
435,293,91996,5,2,0:2:0:0:
242,343,92182,1,2,0:2:0:0:
291,159,92367,1,0,0:2:0:0:
291,159,92459,1,0,0:2:0:0:
291,159,92552,1,0,0:2:0:0:
291,159,93293,5,6,0:2:0:0:
17,226,93663,1,2,0:2:0:0:
107,318,93848,2,0,P|99:256|111:227,1,90,2|0,0:2|0:2,0:2:0:0:
71,144,94219,1,2,0:2:0:0:
71,144,94311,1,2,0:2:0:0:
71,144,94404,1,2,0:2:0:0:
283,16,94589,5,2,0:2:0:0:
256,192,94774,1,2,0:2:0:0:
229,368,94959,1,2,0:2:0:0:
256,192,95144,12,0,96070,0:2:0:0:
256,192,96256,5,0,0:2:0:0:
229,368,96441,5,6,0:2:0:0:
256,192,96626,1,2,0:2:0:0:
283,16,96811,1,2,0:2:0:0:
316,103,97182,5,2,0:2:0:0:
280,105,97274,1,2,0:2:0:0:
243,106,97367,1,2,0:2:0:0:
361,195,97552,1,0,0:2:0:0:
406,28,97737,1,0,0:2:0:0:
512,132,97922,5,2,0:2:0:0:
415,113,98107,1,2,0:2:0:0:
367,295,98293,1,0,0:2:0:0:
401,287,98385,1,0,0:2:0:0:
436,279,98478,1,0,0:2:0:0:
436,279,99219,5,2,0:2:0:0:
78,320,99589,1,2,0:2:0:0:
161,267,99774,1,0,0:2:0:0:
161,365,99959,1,0,0:2:0:0:
40,235,100144,5,2,0:2:0:0:
38,194,100237,1,2,0:2:0:0:
36,153,100330,1,2,0:2:0:0:
105,96,100515,1,2,0:2:0:0:
21,62,100700,1,2,0:2:0:0:
256,192,100885,5,2,0:2:0:0:
256,192,101070,12,0,101811,0:2:0:0:
371,178,101996,6,0,L|367:205,4,22.5,0|0|0|0|0,0:2|0:2|0:2|0:2|0:2,0:2:0:0:
242,335,102367,2,0,P|327:314|366:348,1,125.999996154785,4|8,1:2|0:2,0:2:0:0:
160,381,102737,1,0,1:2:0:0:
164,330,102830,1,0,1:2:0:0:
166,280,102922,1,8,0:2:0:0:
0,208,103107,5,0,1:2:0:0:
38,229,103200,1,8,0:2:0:0:
82,233,103293,1,8,0:2:0:0:
123,218,103385,1,8,0:2:0:0:
154,186,103478,1,0,1:2:0:0:
163,143,103570,1,0,0:2:0:0:
155,99,103663,1,8,0:2:0:0:
42,0,103848,6,0,L|189:17,1,125.999996154785,0|8,1:2|0:2,0:2:0:0:
273,0,104219,1,0,1:2:0:0:
265,53,104311,1,0,0:2:0:0:
259,102,104404,1,8,0:2:0:0:
254,146,104496,1,8,0:2:0:0:
249,186,104589,1,0,0:2:0:0:
244,222,104682,1,8,0:2:0:0:
240,253,104774,1,0,0:2:0:0:
237,279,104867,1,8,0:2:0:0:
235,301,104959,1,0,1:2:0:0:
308,378,105144,1,8,0:2:0:0:
476,288,105330,5,4,1:2:0:0:
409,379,105515,1,8,0:2:0:0:
373,169,105700,1,0,1:2:0:0:
421,182,105793,1,0,1:2:0:0:
469,195,105885,1,8,0:2:0:0:
467,42,106070,5,0,1:2:0:0:
423,49,106163,1,8,0:2:0:0:
379,57,106256,1,8,0:2:0:0:
335,65,106348,1,8,0:2:0:0:
291,73,106441,1,0,1:2:0:0:
247,81,106533,1,0,0:2:0:0:
203,89,106626,1,8,0:2:0:0:
267,251,106811,6,0,P|197:200|206:153,1,125.999996154785,0|8,1:2|0:2,0:2:0:0:
122,23,107182,1,0,1:2:0:0:
70,38,107274,1,0,0:2:0:0:
40,78,107367,1,8,0:2:0:0:
43,122,107459,1,8,0:2:0:0:
63,156,107552,1,0,0:2:0:0:
92,176,107644,1,8,0:2:0:0:
106,203,107737,1,0,0:2:0:0:
107,230,107830,1,8,0:2:0:0:
97,250,107922,1,0,1:2:0:0:
185,301,108107,1,8,0:2:0:0:
21,384,108293,6,0,P|84:351|151:375,1,125.999996154785,4|8,1:2|0:2,0:2:0:0:
288,359,108663,1,0,1:2:0:0:
272,310,108756,1,0,1:2:0:0:
257,262,108848,1,8,0:2:0:0:
271,123,109033,5,0,1:2:0:0:
280,166,109126,1,8,0:2:0:0:
310,198,109219,1,8,0:2:0:0:
351,212,109311,1,8,0:2:0:0:
395,210,109404,1,0,1:2:0:0:
430,184,109496,1,0,0:2:0:0:
447,143,109589,1,8,0:2:0:0:
512,362,109774,6,0,L|488:222,1,125.999996154785,0|8,1:2|0:2,0:2:0:0:
456,33,110144,1,0,1:2:0:0:
406,55,110237,1,0,0:2:0:0:
352,62,110330,1,8,0:2:0:0:
307,62,110422,1,8,0:2:0:0:
266,59,110515,1,0,0:2:0:0:
230,50,110607,1,8,0:2:0:0:
200,39,110700,1,0,0:2:0:0:
177,22,110793,1,8,0:2:0:0:
162,6,110885,1,0,1:2:0:0:
147,168,111070,1,8,0:2:0:0:
0,76,111256,6,0,L|142:92,1,125.999996154785,4|8,1:2|0:2,0:2:0:0:
126,255,111626,1,0,1:2:0:0:
80,231,111719,1,0,1:2:0:0:
34,209,111811,1,8,0:2:0:0:
117,384,111996,5,0,1:2:0:0:
137,344,112089,1,8,0:2:0:0:
172,317,112182,1,8,0:2:0:0:
214,306,112274,1,8,0:2:0:0:
258,304,112367,1,0,1:2:0:0:
301,310,112459,1,0,0:2:0:0:
340,329,112552,1,8,0:2:0:0:
464,365,112737,6,0,P|418:286|426:253,1,125.999996154785,4|0,1:2|0:2,0:2:0:0:
506,220,113107,2,0,L|329:195,1,125.999996154785,4|8,0:2|0:2,0:2:0:0:
369,194,113385,1,8,0:2:0:0:
369,194,113478,1,0,1:2:0:0:
292,106,113663,5,8,0:2:0:0:
292,106,113756,1,8,0:2:0:0:
292,106,113848,2,0,P|365:94|392:47,1,125.999996154785,4|0,1:2|0:2,0:2:0:0:
219,18,114219,5,2,0:2:0:0:
206,69,114311,1,2,0:2:0:0:
194,122,114404,1,2,0:2:0:0:
182,174,114496,1,2,0:2:0:0:
170,227,114589,1,2,0:2:0:0:
35,384,114960,5,2,0:2:0:0:
58,345,115052,1,0,0:2:0:0:
65,300,115145,1,0,0:2:0:0:
61,255,115237,1,0,0:2:0:0:
42,235,115330,1,2,0:2:0:0:
74,250,115422,1,0,0:2:0:0:
109,255,115515,1,0,0:2:0:0:
143,245,115607,1,0,0:2:0:0:
169,220,115700,5,2,0:2:0:0:
144,193,115793,1,2,0:2:0:0:
110,181,115885,1,2,0:2:0:0:
270,208,116070,1,2,0:2:0:0:
230,358,116256,1,2,0:2:0:0:
221,332,116348,1,2,0:2:0:0:
419,289,116533,5,2,0:2:0:0:
425,324,116626,1,2,0:2:0:0:
409,356,116719,1,2,0:2:0:0:
375,369,116811,1,2,0:2:0:0:
339,362,116904,1,2,0:2:0:0:
315,336,116996,1,2,0:2:0:0:
310,300,117089,1,2,0:2:0:0:
325,267,117182,1,2,0:2:0:0:
352,244,117274,1,2,0:2:0:0:
368,212,117367,1,2,0:2:0:0:
376,177,117459,1,2,0:2:0:0:
368,141,117552,1,2,0:2:0:0:
350,110,117644,1,2,0:2:0:0:
316,95,117737,1,2,0:2:0:0:
193,27,117922,5,2,0:2:0:0:
229,21,118015,1,2,0:2:0:0:
265,15,118107,1,2,0:2:0:0:
301,9,118200,1,2,0:2:0:0:
337,3,118293,1,2,0:2:0:0:
280,181,118478,1,2,0:2:0:0:
175,110,118663,5,2,0:2:0:0:
139,114,118756,1,0,0:2:0:0:
104,105,118848,1,0,0:2:0:0:
80,77,118941,1,0,0:2:0:0:
72,42,119033,1,2,0:2:0:0:
90,73,119126,1,0,0:2:0:0:
89,109,119219,1,0,0:2:0:0:
79,143,119311,1,0,0:2:0:0:
55,170,119404,1,2,0:2:0:0:
99,171,119496,1,2,0:2:0:0:
134,199,119589,1,2,0:2:0:0:
149,241,119682,1,2,0:2:0:0:
139,284,119774,1,2,0:2:0:0:
28,368,120144,5,4,0:2:0:0:
73,365,120237,1,0,0:2:0:0:
118,362,120330,1,0,0:2:0:0:
162,359,120422,1,0,0:2:0:0:
207,356,120515,1,0,0:2:0:0:
251,353,120607,1,0,0:2:0:0:
296,350,120700,1,0,0:2:0:0:
409,384,120885,6,0,L|388:309,1,45,2|0,0:2|0:2,0:2:0:0:
448,285,121070,2,0,L|427:210,1,45,2|0,0:2|0:2,0:2:0:0:
493,190,121256,1,0,0:2:0:0:
493,190,121348,1,2,0:2:0:0:
493,190,121441,2,0,L|472:115,1,45,2|0,0:2|0:2,0:2:0:0:
508,49,121626,5,2,0:2:0:0:
400,75,121811,1,2,0:2:0:0:
365,84,121904,1,2,0:2:0:0:
329,78,121996,1,2,0:2:0:0:
297,59,122089,1,2,0:2:0:0:
263,46,122182,1,2,0:2:0:0:
227,46,122274,1,2,0:2:0:0:
194,61,122367,1,2,0:2:0:0:
179,93,122459,1,2,0:2:0:0:
181,129,122552,1,2,0:2:0:0:
204,156,122644,1,2,0:2:0:0:
239,164,122737,2,0,P|243:196|237:220,3,45,2|0|8|0,0:2|0:2|0:2|0:2,0:2:0:0:
265,307,123107,5,4,1:2:0:0:
229,313,123200,1,0,0:2:0:0:
196,329,123293,1,8,0:2:0:0:
170,355,123385,1,0,0:2:0:0:
150,384,123478,5,0,1:2:0:0:
126,357,123571,1,0,0:2:0:0:
97,337,123664,1,8,0:2:0:0:
61,327,123756,1,0,0:2:0:0:
25,334,123848,5,0,1:2:0:0:
37,299,123941,1,8,0:2:0:0:
40,264,124034,1,8,0:2:0:0:
30,228,124126,1,8,0:2:0:0:
3,202,124219,5,0,1:2:0:0:
34,182,124312,1,0,0:2:0:0:
60,157,124405,1,8,0:2:0:0:
74,123,124497,1,0,0:2:0:0:
64,79,124589,5,0,1:2:0:0:
94,111,124682,1,0,0:2:0:0:
136,126,124774,1,8,0:2:0:0:
181,130,124867,1,0,0:2:0:0:
225,127,124959,1,0,1:2:0:0:
268,114,125052,1,0,0:2:0:0:
306,92,125144,1,8,0:2:0:0:
326,51,125237,1,8,0:2:0:0:
326,5,125330,5,0,1:2:0:0:
291,33,125422,1,8,0:2:0:0:
275,75,125515,1,8,0:2:0:0:
281,120,125607,1,0,0:2:0:0:
309,155,125700,2,0,L|344:145,1,22.5,0|0,1:2|0:2,0:2:0:0:
342,184,125793,2,0,L|376:178,1,22.5,8|0,0:2|0:2,0:2:0:0:
365,221,125885,2,0,L|400:219,1,22.5,8|0,0:2|0:2,0:2:0:0:
369,265,125978,2,0,L|400:268,1,22.5,8|0,0:2|0:2,0:2:0:0:
349,304,126070,5,4,1:2:0:0:
194,273,126256,1,8,0:2:0:0:
40,243,126441,1,0,1:2:0:0:
40,243,126533,1,8,0:2:0:0:
40,243,126626,1,8,0:2:0:0:
77,384,126811,5,0,1:2:0:0:
92,351,126904,1,0,1:2:0:0:
104,317,126996,1,8,0:2:0:0:
185,362,127182,1,0,1:2:0:0:
5,322,127367,1,8,0:2:0:0:
41,137,127552,6,0,L|175:111,1,125.999996154785,0|8,1:2|0:2,0:2:0:0:
241,4,127922,1,0,1:2:0:0:
228,52,128015,1,8,0:2:0:0:
236,95,128107,1,8,0:2:0:0:
263,125,128200,1,8,0:2:0:0:
298,131,128293,1,0,1:2:0:0:
328,125,128385,1,8,0:2:0:0:
348,107,128478,1,0,0:2:0:0:
355,85,128570,1,8,0:2:0:0:
346,68,128663,1,0,1:2:0:0:
512,163,128848,6,0,L|374:186,1,125.999996154785,8|4,0:2|1:2,0:2:0:0:
455,311,129219,1,8,0:2:0:0:
286,321,129404,2,0,P|354:267|399:287,1,125.999996154785,0|8,1:2|0:2,0:2:0:0:
201,299,129774,5,0,1:2:0:0:
212,342,129867,1,0,1:2:0:0:
223,384,129959,1,8,0:2:0:0:
108,320,130144,1,0,1:2:0:0:
184,173,130330,1,8,0:2:0:0:
0,238,130515,6,0,P|77:227|131:237,1,125.999996154785,0|8,1:2|0:2,0:2:0:0:
200,94,130885,1,0,1:2:0:0:
175,45,130978,1,8,0:2:0:0:
130,23,131070,1,8,0:2:0:0:
85,27,131163,1,8,0:2:0:0:
52,51,131256,1,0,1:2:0:0:
38,84,131348,1,8,0:2:0:0:
41,115,131441,1,0,0:2:0:0:
54,138,131533,1,8,0:2:0:0:
73,149,131626,1,0,1:2:0:0:
343,106,131811,1,8,0:2:0:0:
281,16,131996,5,4,1:2:0:0:
256,192,132182,1,8,0:2:0:0:
230,367,132367,1,0,1:2:0:0:
230,367,132459,1,8,1:2:0:0:
230,367,132552,1,8,0:2:0:0:
143,292,132737,5,0,1:2:0:0:
179,284,132830,1,0,1:2:0:0:
215,274,132922,1,8,0:2:0:0:
149,200,133107,1,0,1:2:0:0:
107,377,133293,1,8,0:2:0:0:
297,309,133478,6,0,P|352:296|415:327,1,125.999996154785,0|8,1:2|0:2,0:2:0:0:
495,384,133848,1,0,1:2:0:0:
487,330,133941,1,8,0:2:0:0:
479,281,134033,1,8,0:2:0:0:
472,236,134126,1,8,0:2:0:0:
466,195,134219,1,0,1:2:0:0:
461,159,134311,1,8,0:2:0:0:
456,127,134404,1,0,0:2:0:0:
452,100,134496,1,8,0:2:0:0:
449,77,134589,1,0,1:2:0:0:
389,0,134774,6,0,P|328:62|288:52,1,125.999996154785,8|4,0:2|1:2,0:2:0:0:
144,37,135144,1,8,0:2:0:0:
209,211,135330,2,0,L|222:84,1,125.999996154785,0|8,1:2|0:2,0:2:0:0:
0,98,135700,1,0,1:2:0:0:
35,107,135793,1,8,0:2:0:0:
71,117,135885,1,8,0:2:0:0:
107,127,135978,1,8,0:2:0:0:
142,138,136070,1,0,1:2:0:0:
206,219,136256,1,8,0:2:0:0:
17,352,136441,6,0,L|14:320,30,31.4999990386963,0|0|0|0|0|0|0|0|0|0|0|0|0|0|0|0|0|0|0|0|0|0|0|0|0|0|0|0|0|0|0,1:2|1:2|1:2|1:2|1:2|1:2|1:2|1:2|1:2|1:2|1:2|1:2|1:2|1:2|1:2|1:2|1:2|1:2|1:2|1:2|1:2|1:2|1:2|1:2|1:2|1:2|1:2|1:2|1:2|1:2|1:2,1:2:0:0:
23,369,137922,6,0,L|119:353,1,90,6|0,0:2|0:2,0:2:0:0:
201,374,138293,2,0,L|184:282,1,90,0|0,0:2|0:2,0:2:0:0:
101,263,138663,1,0,0:2:0:0:
101,263,138848,1,0,0:2:0:0:
263,238,139033,6,0,L|359:222,1,90,0|0,0:2|0:2,0:2:0:0:
430,178,139404,2,0,L|446:266,1,90,0|0,0:2|0:2,0:2:0:0:
367,312,139774,1,0,0:2:0:0:
367,312,139959,1,0,0:2:0:0:
349,143,140144,6,0,L|338:46,1,90,2|0,0:2|0:2,0:2:0:0:
411,2,140515,2,0,L|421:98,1,90,0|0,0:2|0:2,0:2:0:0:
430,178,140885,1,0,0:2:0:0:
502,124,141070,1,0,0:2:0:0:
321,10,141256,6,0,L|420:1,1,90,0|0,0:2|0:2,0:2:0:0:
341,93,141626,2,0,L|242:102,1,90,0|0,0:2|0:2,0:2:0:0:
149,106,141996,1,0,0:2:0:0:
196,18,142182,1,0,0:2:0:0:
191,234,142367,6,0,P|154:200|96:214,1,90,2|0,0:2|0:2,0:2:0:0:
35,246,142737,2,0,P|72:280|130:266,1,90,0|0,0:2|0:2,0:2:0:0:
44,163,143107,1,0,0:2:0:0:
44,163,143293,1,0,0:2:0:0:
134,364,143478,6,0,P|170:335|220:333,1,90,0|0,0:2|0:2,0:2:0:0:
278,282,143848,2,0,P|242:253|192:251,1,90,0|0,0:2|0:2,0:2:0:0:
294,372,144219,1,0,0:2:0:0:
294,372,144404,1,0,0:2:0:0:
399,384,144589,6,0,L|381:293,1,90,2|0,0:2|0:2,0:2:0:0:
370,252,144959,1,0,0:2:0:0:
360,198,145144,1,0,0:2:0:0:
350,144,145330,1,0,0:2:0:0:
340,90,145515,1,0,0:2:0:0:
293,0,145700,5,0,0:2:0:0:
267,57,145885,1,0,0:2:0:0:
211,87,146070,1,0,0:2:0:0:
148,79,146256,1,0,0:2:0:0:
113,177,146441,1,0,0:2:0:0:
113,177,146626,1,0,0:2:0:0:
34,31,146811,5,6,0:2:0:0:
24,84,147922,5,2,0:2:0:0:
12,136,149033,5,2,0:2:0:0:
7,153,149404,5,0,1:2:0:0:
42,151,149496,1,8,0:2:0:0:
74,165,149589,1,8,0:2:0:0:
99,191,149682,1,8,0:2:0:0:
106,226,149774,1,4,1:2:0:0:
86,344,149959,5,2,0:2:0:0:
55,352,150052,1,2,0:2:0:0:
24,344,150144,5,4,0:2:0:0:
51,314,150237,1,0,0:2:0:0:
90,304,150330,1,0,0:2:0:0:
129,310,150422,1,0,0:2:0:0:
161,333,150515,1,4,1:2:0:0:
200,341,150607,1,8,0:2:0:0:
239,332,150700,1,8,0:2:0:0:
272,309,150793,1,8,0:2:0:0:
286,271,150885,2,0,L|321:273,1,22.5,4|0,0:2|0:2,0:2:0:0:
281,226,150978,2,0,L|316:222,1,22.5,8|0,0:2|0:2,0:2:0:0:
259,192,151070,2,0,L|287:166,1,22.5,8|0,0:2|0:2,0:2:0:0:
222,174,151163,2,0,L|231:144,1,22.5,8|0,0:2|0:2,0:2:0:0:
181,174,151256,5,6,1:2:0:0:
356,135,151441,1,10,0:2:0:0:
278,0,151626,1,2,1:2:0:0:
272,40,151719,1,2,0:2:0:0:
266,79,151811,1,10,0:2:0:0:
83,146,151996,5,0,1:2:0:0:
156,65,152182,1,10,0:2:0:0:
156,65,152274,1,2,0:2:0:0:
0,99,152459,1,2,0:2:0:0:
0,99,152552,1,10,0:2:0:0:
74,262,152737,6,0,L|93:125,1,107.999996704102,0|8,1:2|0:2,0:2:0:0:
17,373,153107,1,0,1:2:0:0:
54,365,153200,1,0,0:2:0:0:
91,358,153293,1,8,0:2:0:0:
127,351,153385,1,0,0:2:0:0:
164,344,153478,1,0,1:2:0:0:
204,253,153663,5,8,0:2:0:0:
204,253,153756,1,0,0:2:0:0:
204,253,153848,1,0,1:2:0:0:
278,384,154033,1,8,0:2:0:0:
302,144,154219,6,0,L|165:130,1,107.999996704102,6|10,1:2|0:2,0:2:0:0:
301,252,154589,1,2,1:2:0:0:
337,240,154682,1,2,0:2:0:0:
372,228,154774,1,10,0:2:0:0:
512,249,154959,5,0,1:2:0:0:
444,332,155144,1,10,0:2:0:0:
448,353,155237,1,2,0:2:0:0:
485,149,155422,1,2,0:2:0:0:
481,128,155515,1,10,0:2:0:0:
328,76,155700,6,0,L|450:60,1,107.999996704102,0|8,1:2|0:2,0:2:0:0:
260,0,156070,1,0,1:2:0:0:
254,37,156163,1,0,0:2:0:0:
248,74,156256,1,8,0:2:0:0:
242,111,156348,1,0,0:2:0:0:
236,148,156441,1,0,1:2:0:0:
281,237,156626,1,8,0:2:0:0:
281,237,156719,1,0,0:2:0:0:
281,237,156811,1,0,1:2:0:0:
150,145,156996,1,8,0:2:0:0:
148,301,157182,6,0,P|223:289|253:321,1,107.999996704102,6|10,1:2|0:2,0:2:0:0:
90,382,157552,1,2,1:2:0:0:
77,346,157644,1,2,0:2:0:0:
64,310,157737,1,10,0:2:0:0:
97,223,157922,5,0,1:2:0:0:
192,210,158107,1,10,0:2:0:0:
192,210,158200,1,2,0:2:0:0:
48,143,158385,1,2,0:2:0:0:
48,143,158478,1,10,0:2:0:0:
158,0,158663,6,0,L|146:110,1,107.999996704102,0|8,1:2|0:2,0:2:0:0:
320,159,159033,1,0,1:2:0:0:
281,156,159126,1,0,0:2:0:0:
250,134,159219,1,8,0:2:0:0:
237,98,159311,1,0,0:2:0:0:
245,61,159404,1,0,1:2:0:0:
319,265,159589,1,8,0:2:0:0:
319,265,159682,1,0,0:2:0:0:
319,265,159774,1,0,1:2:0:0:
398,100,159959,1,8,0:2:0:0:
492,219,160144,6,0,L|364:189,1,107.999996704102,6|10,1:2|0:2,0:2:0:0:
416,365,160515,1,2,1:2:0:0:
408,328,160607,1,2,0:2:0:0:
400,290,160700,1,10,0:2:0:0:
502,315,160885,5,0,1:2:0:0:
231,328,161070,1,10,0:2:0:0:
236,348,161163,1,2,0:2:0:0:
313,281,161348,1,2,0:2:0:0:
308,261,161441,1,10,0:2:0:0:
116,203,161626,6,0,L|233:183,1,107.999996704102,2|10,1:2|0:2,0:2:0:0:
338,162,161996,2,0,L|341:197,16,26.9999991760254,0|0|0|0|0|0|0|0|0|0|0|0|0|0|0|0|4,1:2|1:2|1:2|1:2|1:2|1:2|1:2|1:2|1:2|1:2|1:2|1:2|1:2|1:2|1:2|1:2|1:2,1:2:0:0:
419,6,163107,6,0,L|401:138,1,116.999994644165,6|10,1:2|0:2,0:2:0:0:
382,256,163478,1,2,1:2:0:0:
426,243,163570,1,2,0:2:0:0:
470,228,163663,1,10,0:2:0:0:
378,357,163848,5,2,1:2:0:0:
340,341,163941,1,10,0:2:0:0:
302,325,164033,1,10,0:2:0:0:
263,309,164126,1,10,0:2:0:0:
181,368,164311,1,2,0:2:0:0:
181,368,164404,2,0,P|181:321|187:297,1,58.4999973220826,10|0,0:2|0:2,0:2:0:0:
239,191,164589,6,0,P|157:231|126:217,1,116.999994644165,2|8,1:2|0:2,0:2:0:0:
73,134,164959,1,2,1:2:0:0:
64,174,165052,1,2,0:2:0:0:
55,213,165144,1,10,0:2:0:0:
46,253,165237,1,10,0:2:0:0:
37,293,165330,1,2,0:2:0:0:
99,369,165515,1,2,0:2:0:0:
99,369,165607,1,8,0:2:0:0:
99,369,165700,1,2,1:2:0:0:
209,193,165885,1,10,0:2:0:0:
274,299,166070,6,0,P|216:288|155:283,1,116.999994644165,6|10,1:2|0:2,0:2:0:0:
338,374,166441,1,2,1:2:0:0:
353,336,166533,1,2,0:2:0:0:
370,300,166626,1,10,0:2:0:0:
493,272,166811,5,2,1:2:0:0:
453,260,166904,1,10,0:2:0:0:
424,231,166996,1,10,0:2:0:0:
413,191,167089,1,10,0:2:0:0:
456,59,167274,1,2,0:2:0:0:
470,78,167367,2,0,P|481:104|483:133,1,58.4999973220826,10|0,0:2|0:2,0:2:0:0:
274,90,167552,6,0,L|417:96,1,116.999994644165,0|8,1:2|0:2,0:2:0:0:
192,5,167922,1,2,1:2:0:0:
196,45,168015,1,2,0:2:0:0:
200,85,168107,1,10,0:2:0:0:
205,125,168200,1,10,0:2:0:0:
210,165,168293,1,2,0:2:0:0:
254,296,168478,1,2,0:2:0:0:
219,275,168570,1,8,0:2:0:0:
177,272,168663,1,2,1:2:0:0:
98,344,168848,2,0,P|86:321|84:281,1,58.4999973220826,10|0,0:2|0:2,0:2:0:0:
6,175,169033,6,0,L|128:192,1,116.999994644165,6|10,1:2|0:2,0:2:0:0:
242,200,169404,1,2,1:2:0:0:
210,165,169496,1,2,0:2:0:0:
205,118,169589,1,10,0:2:0:0:
118,6,169774,5,2,1:2:0:0:
153,27,169867,1,10,0:2:0:0:
192,35,169959,1,10,0:2:0:0:
233,32,170052,1,10,0:2:0:0:
328,181,170237,1,2,0:2:0:0:
328,181,170330,1,10,0:2:0:0:
424,73,170515,6,0,L|300:94,1,116.999994644165,0|8,1:2|0:2,0:2:0:0:
266,265,170885,1,2,1:2:0:0:
306,262,170978,1,2,0:2:0:0:
343,278,171070,1,10,0:2:0:0:
371,307,171163,1,10,0:2:0:0:
381,346,171256,1,2,0:2:0:0:
183,311,171441,1,2,0:2:0:0:
189,270,171533,1,8,0:2:0:0:
195,228,171626,1,2,1:2:0:0:
150,151,171811,1,10,0:2:0:0:
0,239,171996,6,0,L|124:223,1,116.999994644165,6|10,1:2|0:2,0:2:0:0:
166,55,172367,1,2,1:2:0:0:
120,65,172459,1,2,0:2:0:0:
74,75,172552,1,10,0:2:0:0:
227,162,172737,5,2,1:2:0:0:
257,134,172830,1,10,0:2:0:0:
270,95,172922,1,10,0:2:0:0:
270,53,173015,1,10,0:2:0:0:
364,8,173200,1,2,0:2:0:0:
386,14,173293,2,0,L|451:29,1,58.4999973220826,10|0,0:2|0:2,0:2:0:0:
495,190,173478,6,0,P|432:180|367:231,1,116.999994644165,0|8,1:2|0:2,0:2:0:0:
341,361,173848,1,2,1:2:0:0:
325,329,173941,1,2,0:2:0:0:
297,307,174033,1,10,0:2:0:0:
263,295,174126,1,10,0:2:0:0:
227,295,174219,1,2,0:2:0:0:
252,255,174311,1,8,0:2:0:0:
256,208,174404,1,2,0:2:0:0:
240,164,174496,1,8,0:2:0:0:
203,134,174589,1,2,1:2:0:0:
322,74,174774,1,10,0:2:0:0:
250,0,174959,5,0,0:2:0:0:
178,6,175144,1,0,0:2:0:0:
106,15,175330,1,2,0:2:0:0:
106,15,175422,1,2,0:2:0:0:
106,15,175515,1,2,0:2:0:0:
33,18,175700,1,0,0:2:0:0:
9,112,175885,1,2,0:2:0:0:
9,112,175978,1,2,0:2:0:0:
89,160,176163,1,2,0:2:0:0:
89,160,176256,1,2,0:2:0:0:
0,273,176441,5,0,0:2:0:0:
89,265,176626,1,0,0:2:0:0:
178,258,176811,1,2,0:2:0:0:
178,258,176904,1,2,0:2:0:0:
178,258,176996,1,2,0:2:0:0:
266,251,177182,1,0,0:2:0:0:
356,245,177367,2,0,L|441:239,1,67.5,2|0,0:2|0:2,0:2:0:0:
468,237,177737,1,2,0:2:0:0:
508,33,177922,5,6,0:2:0:0:
495,81,178015,1,2,0:2:0:0:
456,111,178107,1,2,0:2:0:0:
406,115,178200,1,2,0:2:0:0:
357,102,178293,1,2,0:2:0:0:
326,63,178385,1,2,0:2:0:0:
283,37,178478,1,2,0:2:0:0:
234,32,178570,1,2,0:2:0:0:
185,42,178663,1,2,0:2:0:0:
146,72,178756,1,2,0:2:0:0:
127,117,178848,1,2,0:2:0:0:
126,166,178941,1,2,0:2:0:0:
144,211,179033,1,2,0:2:0:0:
184,239,179126,1,2,0:2:0:0:
231,253,179219,1,2,0:2:0:0:
279,245,179311,1,2,0:2:0:0:
317,213,179404,5,2,0:2:0:0:
276,185,179496,1,2,0:2:0:0:
226,185,179589,1,2,0:2:0:0:
185,213,179682,1,2,0:2:0:0:
165,258,179774,1,2,0:2:0:0:
171,307,179867,1,2,0:2:0:0:
203,344,179959,1,2,0:2:0:0:
250,358,180052,1,2,0:2:0:0:
298,353,180144,1,2,0:2:0:0:
336,321,180237,1,2,0:2:0:0:
364,280,180330,1,10,0:2:0:0:
409,262,180422,1,10,0:2:0:0:
458,269,180515,1,10,0:2:0:0:
498,297,180607,1,10,0:2:0:0:
512,344,180700,1,10,0:2:0:0:
512,167,180885,5,2,0:2:0:0:
489,175,180978,1,2,0:2:0:0:
458,157,181070,5,2,0:2:0:0:
433,169,181163,1,2,0:2:0:0:
405,147,181256,5,2,0:2:0:0:
379,166,181349,1,2,0:2:0:0:
351,137,181441,5,2,0:2:0:0:
325,162,181534,1,2,0:2:0:0:
298,127,181626,5,6,0:2:0:0:
270,157,181719,1,2,0:2:0:0:
244,119,181811,5,2,0:2:0:0:
216,154,181904,1,2,0:2:0:0:
186,109,181996,2,0,L|158:139,6,22.5,2|0|0|0|0|0|0,0:2|0:2|0:2|0:2|0:2|0:2|0:2,0:2:0:0:
35,324,182367,5,6,0:2:0:0:
105,311,182459,1,2,0:2:0:0:
175,298,182552,1,2,0:2:0:0:
245,286,182644,1,2,0:2:0:0:
315,270,182737,2,0,L|315:238,6,22.5,2|0|0|0|0|0|0,0:2|0:2|0:2|0:2|0:2|0:2|0:2,0:2:0:0:
485,241,183107,5,6,0:2:0:0:
256,192,183293,1,2,0:2:0:0:
27,143,183478,1,2,0:2:0:0:
149,254,183848,5,2,0:2:0:0:
141,209,183941,1,2,0:2:0:0:
134,164,184033,1,2,0:2:0:0:
65,288,184219,1,0,0:2:0:0:
219,333,184404,1,0,0:2:0:0:
378,229,184589,5,2,0:2:0:0:
270,230,184774,1,2,0:2:0:0:
407,334,184959,1,0,0:2:0:0:
451,323,185052,1,0,0:2:0:0:
494,313,185144,1,0,0:2:0:0:
494,313,185885,5,6,0:2:0:0:
512,82,186256,1,2,0:2:0:0:
414,118,186442,2,0,L|318:106,1,90,2|0,0:2|0:2,0:2:0:0:
208,45,186811,1,2,0:2:0:0:
243,39,186904,1,2,0:2:0:0:
278,34,186996,1,2,0:2:0:0:
463,207,187182,5,2,0:2:0:0:
256,192,187367,1,2,0:2:0:0:
48,176,187552,1,2,0:2:0:0:
256,192,187737,12,0,188663,0:2:0:0:
186,279,188848,5,2,0:2:0:0:
222,377,189033,5,6,0:2:0:0:
256,192,189219,1,2,0:2:0:0:
290,7,189404,1,2,0:2:0:0:
399,118,189774,5,2,0:2:0:0:
354,110,189867,1,2,0:2:0:0:
309,102,189959,1,2,0:2:0:0:
405,214,190144,1,0,0:2:0:0:
486,58,190330,1,0,0:2:0:0:
512,230,190515,5,2,0:2:0:0:
334,294,190700,1,2,0:2:0:0:
469,384,190885,1,0,0:2:0:0:
453,341,190978,1,0,0:2:0:0:
438,298,191070,1,0,0:2:0:0:
438,298,191811,5,2,0:2:0:0:
76,338,192182,1,2,0:2:0:0:
195,380,192367,2,0,P|171:315|186:275,1,90,2|0,0:2|0:2,0:2:0:0:
98,206,192737,1,2,0:2:0:0:
133,197,192830,1,2,0:2:0:0:
161,175,192922,1,2,0:2:0:0:
222,7,193107,5,2,0:2:0:0:
256,192,193292,1,2,0:2:0:0:
290,377,193478,1,2,0:2:0:0:
256,192,193663,12,0,194404,0:2:0:0:
356,218,194589,6,0,L|352:249,4,31.4999990386963,0|0|0|0|0,0:2|0:2|0:2|0:2|0:2,0:2:0:0:
489,176,194959,2,0,L|332:135,1,125.999996154785,4|8,1:2|0:2,0:2:0:0:
251,201,195330,1,0,1:2:0:0:
278,159,195422,1,0,1:2:0:0:
282,108,195515,1,8,0:2:0:0:
394,18,195700,5,0,1:2:0:0:
343,21,195793,1,8,0:2:0:0:
293,24,195885,1,8,0:2:0:0:
242,28,195978,1,8,0:2:0:0:
192,32,196070,1,0,1:2:0:0:
147,129,196256,1,8,0:2:0:0:
24,55,196441,6,0,L|49:191,1,125.999996154785,0|8,1:2|0:2,0:2:0:0:
16,294,196811,1,0,1:2:0:0:
63,258,196904,1,0,1:2:0:0:
116,254,196996,1,8,0:2:0:0:
161,274,197089,1,8,0:2:0:0:
196,302,197182,1,0,1:2:0:0:
233,315,197274,1,8,0:2:0:0:
269,315,197367,1,0,0:2:0:0:
297,302,197459,1,8,0:2:0:0:
310,278,197552,1,0,1:2:0:0:
377,356,197737,1,8,0:2:0:0:
408,250,197922,6,0,P|379:173|402:128,1,125.999996154785,4|8,1:2|0:2,0:2:0:0:
474,68,198293,1,0,1:2:0:0:
427,50,198385,1,0,1:2:0:0:
379,32,198478,1,8,0:2:0:0:
174,104,198663,5,0,1:2:0:0:
216,92,198756,1,8,0:2:0:0:
259,97,198848,1,8,0:2:0:0:
294,123,198941,1,8,0:2:0:0:
310,163,199033,1,0,1:2:0:0:
215,299,199219,1,8,0:2:0:0:
312,384,199404,6,0,L|298:257,1,125.999996154785,0|8,1:2|0:2,0:2:0:0:
96,273,199774,1,0,1:2:0:0:
150,251,199867,1,0,1:2:0:0:
178,205,199959,1,8,0:2:0:0:
174,155,200052,1,8,0:2:0:0:
148,118,200144,1,0,1:2:0:0:
112,98,200237,1,8,0:2:0:0:
87,71,200330,1,0,0:2:0:0:
81,40,200422,1,8,0:2:0:0:
94,21,200515,1,0,1:2:0:0:
31,162,200700,1,8,0:2:0:0:
225,48,200885,6,0,L|359:68,1,125.999996154785,4|8,1:2|0:2,0:2:0:0:
316,222,201256,1,0,1:2:0:0:
275,192,201348,1,0,1:2:0:0:
265,142,201441,1,8,0:2:0:0:
412,185,201626,5,0,1:2:0:0:
406,228,201719,1,8,0:2:0:0:
401,271,201811,1,8,0:2:0:0:
396,315,201904,1,8,0:2:0:0:
391,358,201996,1,0,1:2:0:0:
507,290,202182,1,8,0:2:0:0:
328,111,202367,6,0,L|453:96,1,125.999996154785,0|8,1:2|0:2,0:2:0:0:
234,29,202737,1,0,1:2:0:0:
251,85,202830,1,0,1:2:0:0:
234,135,202922,1,8,0:2:0:0:
192,156,203015,1,8,0:2:0:0:
151,152,203107,1,0,1:2:0:0:
121,130,203200,1,8,0:2:0:0:
113,99,203293,1,0,0:2:0:0:
119,72,203385,1,8,0:2:0:0:
133,55,203478,1,0,1:2:0:0:
2,93,203663,1,8,0:2:0:0:
36,288,203848,6,0,L|51:163,1,125.999996154785,4|8,1:2|0:2,0:2:0:0:
38,381,204219,1,0,1:2:0:0:
78,351,204311,1,0,1:2:0:0:
127,342,204404,1,8,0:2:0:0:
257,370,204589,5,0,1:2:0:0:
232,332,204682,1,8,0:2:0:0:
227,288,204774,1,8,0:2:0:0:
242,246,204867,1,8,0:2:0:0:
278,221,204959,1,0,1:2:0:0:
197,154,205144,1,8,0:2:0:0:
394,110,205330,6,0,L|368:253,1,125.999996154785,4|0,0:2|0:2,0:2:0:0:
314,305,205700,2,0,P|391:269|428:284,1,125.999996154785,4|8,0:2|0:2,0:2:0:0:
426,301,205978,1,8,0:2:0:0:
426,301,206070,1,4,1:2:0:0:
512,362,206256,1,8,0:2:0:0:
512,362,206348,1,8,0:2:0:0:
512,362,206441,2,0,L|493:204,1,125.999996154785,4|0,1:2|0:2,0:2:0:0:
473,51,206811,5,2,0:2:0:0:
452,75,206904,1,2,0:2:0:0:
413,96,206996,1,2,0:2:0:0:
356,101,207089,1,2,0:2:0:0:
289,80,207182,1,2,0:2:0:0:
108,14,207552,5,2,0:2:0:0:
111,57,207644,1,0,0:2:0:0:
103,100,207737,1,0,0:2:0:0:
78,136,207830,1,0,0:2:0:0:
44,164,207922,1,2,0:2:0:0:
92,179,208015,1,0,0:2:0:0:
123,217,208107,1,0,0:2:0:0:
131,266,208200,1,0,0:2:0:0:
115,314,208293,5,2,0:2:0:0:
60,327,208385,1,2,0:2:0:0:
12,295,208478,1,2,0:2:0:0:
268,325,208663,5,2,0:2:0:0:
192,383,208848,1,2,0:2:0:0:
192,383,208941,1,2,0:2:0:0:
427,332,209126,5,2,0:2:0:0:
383,323,209219,1,2,0:2:0:0:
356,287,209311,1,2,0:2:0:0:
356,242,209404,1,2,0:2:0:0:
380,205,209496,1,2,0:2:0:0:
422,194,209589,1,2,0:2:0:0:
460,172,209682,1,2,0:2:0:0:
481,134,209774,1,2,0:2:0:0:
476,89,209867,1,2,0:2:0:0:
447,55,209959,1,2,0:2:0:0:
404,44,210052,1,2,0:2:0:0:
362,57,210144,1,2,0:2:0:0:
337,93,210237,1,2,0:2:0:0:
341,137,210330,1,2,0:2:0:0:
59,78,210515,5,2,0:2:0:0:
102,81,210607,1,2,0:2:0:0:
146,84,210700,1,2,0:2:0:0:
190,87,210793,1,2,0:2:0:0:
233,90,210885,1,2,0:2:0:0:
278,3,211070,1,2,0:2:0:0:
262,184,211256,5,2,0:2:0:0:
219,195,211348,1,0,0:2:0:0:
185,224,211441,1,0,0:2:0:0:
170,265,211533,1,0,0:2:0:0:
175,308,211626,5,2,0:2:0:0:
154,261,211719,1,0,0:2:0:0:
108,240,211811,1,0,0:2:0:0:
57,239,211904,1,0,0:2:0:0:
9,254,211996,5,2,0:2:0:0:
13,310,212089,1,2,0:2:0:0:
45,356,212182,1,2,0:2:0:0:
95,381,212274,1,2,0:2:0:0:
151,384,212367,1,2,0:2:0:0:
375,376,212737,5,6,0:2:0:0:
340,348,212830,1,0,0:2:0:0:
325,306,212922,1,0,0:2:0:0:
328,261,213015,1,0,0:2:0:0:
354,226,213107,1,0,0:2:0:0:
395,211,213200,1,0,0:2:0:0:
438,216,213293,1,0,0:2:0:0:
512,142,213478,6,0,L|436:138,1,62.9999980773926,2|0,0:2|0:2,0:2:0:0:
375,129,213663,2,0,L|299:125,1,62.9999980773926,2|0,0:2|0:2,0:2:0:0:
240,120,213848,1,2,0:2:0:0:
240,120,213941,1,2,0:2:0:0:
240,120,214033,2,0,L|164:116,1,62.9999980773926,2|0,0:2|0:2,0:2:0:0:
146,24,214219,5,2,0:2:0:0:
94,131,214404,1,2,0:2:0:0:
73,169,214496,1,2,0:2:0:0:
77,213,214589,1,2,0:2:0:0:
109,243,214682,1,2,0:2:0:0:
152,247,214774,1,2,0:2:0:0:
193,263,214867,1,2,0:2:0:0:
216,300,214959,1,2,0:2:0:0:
210,343,215052,1,2,0:2:0:0:
181,376,215144,1,2,0:2:0:0:
134,383,215237,1,2,0:2:0:0:
93,365,215330,2,0,P|79:329|86:298,3,62.9999980773926,2|0|8|0,0:2|0:2|0:2|0:2,0:2:0:0:
303,348,215700,5,4,1:2:0:0:
329,312,215793,1,0,0:2:0:0:
370,298,215885,1,8,0:2:0:0:
414,299,215978,1,0,0:2:0:0:
452,320,216070,5,0,1:2:0:0:
432,280,216163,1,0,1:2:0:0:
435,235,216256,1,8,0:2:0:0:
447,192,216348,1,0,0:2:0:0:
476,158,216441,5,0,1:2:0:0:
434,143,216533,1,8,0:2:0:0:
398,117,216626,1,8,0:2:0:0:
379,76,216719,1,8,0:2:0:0:
379,32,216811,5,0,1:2:0:0:
338,49,216904,1,0,0:2:0:0:
295,59,216996,1,8,0:2:0:0:
250,59,217089,1,0,0:2:0:0:
205,51,217182,5,0,1:2:0:0:
239,87,217274,1,0,0:2:0:0:
254,135,217367,1,8,0:2:0:0:
247,184,217459,1,0,0:2:0:0:
217,224,217552,1,0,1:2:0:0:
172,246,217644,1,0,0:2:0:0:
121,244,217737,1,8,0:2:0:0:
77,218,217830,1,8,0:2:0:0:
61,170,217922,5,0,1:2:0:0:
109,157,218014,1,0,0:2:0:0:
162,176,218107,1,8,0:2:0:0:
196,219,218199,1,0,0:2:0:0:
198,276,218292,2,0,L|248:284,1,31.4999990386963,8|0,0:2|0:2,0:2:0:0:
171,324,218385,2,0,L|208:354,1,31.4999990386963,8|0,0:2|0:2,0:2:0:0:
122,350,218477,2,0,L|139:389,1,31.4999990386963,8|0,0:2|0:2,0:2:0:0:
65,343,218570,2,0,L|58:392,1,31.4999990386963,8|0,0:2|0:2,0:2:0:0:
19,309,218663,5,4,1:2:0:0:
260,341,218848,1,8,0:2:0:0:
500,375,219033,1,0,1:2:0:0:
498,368,219126,1,0,1:2:0:0:
496,361,219219,1,8,0:2:0:0:
392,179,219404,5,0,1:2:0:0:
390,229,219496,1,8,0:2:0:0:
388,279,219589,1,8,0:2:0:0:
508,177,219774,1,0,1:2:0:0:
420,19,219959,1,8,0:2:0:0:
247,117,220144,6,0,L|398:96,1,125.999996154785,0|8,1:2|0:2,0:2:0:0:
214,11,220515,1,0,1:2:0:0:
210,33,220607,1,0,1:2:0:0:
199,58,220700,1,8,0:2:0:0:
179,82,220793,1,8,0:2:0:0:
146,97,220885,1,0,1:2:0:0:
105,99,220978,1,8,0:2:0:0:
61,90,221070,1,0,0:2:0:0:
25,54,221163,1,8,0:2:0:0:
13,0,221256,1,0,1:2:0:0:
48,295,221441,6,0,P|56:232|50:156,1,125.999996154785,8|4,0:2|1:2,0:2:0:0:
126,368,221811,1,8,0:2:0:0:
271,266,221996,2,0,B|218:275|191:263|136:271,1,125.999996154785,0|8,1:2|0:2,0:2:0:0:
376,182,222367,1,0,1:2:0:0:
362,229,222459,1,8,0:2:0:0:
348,277,222552,1,8,0:2:0:0:
335,325,222644,1,8,0:2:0:0:
320,373,222737,1,0,1:2:0:0:
449,353,222922,1,8,0:2:0:0:
503,232,223107,5,0,1:2:0:0:
464,197,223200,1,0,0:2:0:0:
448,148,223293,1,8,0:2:0:0:
458,98,223385,1,0,0:2:0:0:
496,65,223478,1,0,1:2:0:0:
448,81,223570,1,0,1:2:0:0:
398,87,223663,1,8,0:2:0:0:
347,84,223756,1,8,0:2:0:0:
298,70,223848,1,0,1:2:0:0:
299,38,223941,1,8,0:2:0:0:
317,12,224033,1,0,0:2:0:0:
347,5,224126,1,8,0:2:0:0:
377,13,224219,1,0,1:2:0:0:
170,74,224404,1,8,0:2:0:0:
270,269,224589,5,4,1:2:0:0:
270,224,224682,1,0,0:2:0:0:
242,189,224774,1,8,0:2:0:0:
201,170,224867,1,0,0:2:0:0:
157,167,224959,1,0,1:2:0:0:
118,188,225052,1,0,1:2:0:0:
88,219,225144,1,8,0:2:0:0:
43,222,225237,1,0,0:2:0:0:
7,195,225330,5,0,1:2:0:0:
41,158,225422,1,8,0:2:0:0:
54,109,225515,1,8,0:2:0:0:
0,25,225700,1,0,1:2:0:0:
252,113,225885,1,8,0:2:0:0:
241,15,226070,2,0,P|167:20|132:98,1,125.999996154785,0|8,1:2|0:2,0:2:0:0:
180,258,226441,5,0,1:2:0:0:
220,240,226533,1,0,1:2:0:0:
264,244,226626,1,8,0:2:0:0:
300,269,226719,1,8,0:2:0:0:
323,305,226811,1,0,1:2:0:0:
358,330,226904,1,8,0:2:0:0:
401,327,226996,1,0,0:2:0:0:
433,296,227089,1,8,0:2:0:0:
430,251,227182,1,0,1:2:0:0:
468,37,227367,6,0,L|443:168,1,125.999996154785,8|4,0:2|1:2,0:2:0:0:
512,230,227737,1,8,0:2:0:0:
367,119,227922,2,0,P|286:93|216:115,1,125.999996154785,0|8,1:2|0:2,0:2:0:0:
170,243,228293,1,0,1:2:0:0:
163,193,228385,1,8,0:2:0:0:
156,142,228478,1,8,0:2:0:0:
147,92,228570,1,8,0:2:0:0:
137,43,228663,1,0,1:2:0:0:
256,274,228848,1,8,0:2:0:0:
35,367,229033,5,0,1:2:0:0:
70,330,229126,1,0,0:2:0:0:
119,318,229219,1,8,0:2:0:0:
168,325,229311,1,0,0:2:0:0:
212,349,229404,1,0,1:2:0:0:
257,370,229496,1,0,1:2:0:0:
306,380,229589,1,8,0:2:0:0:
355,371,229682,1,8,0:2:0:0:
392,337,229774,1,0,1:2:0:0:
399,286,229867,1,8,0:2:0:0:
380,239,229959,1,0,0:2:0:0:
337,211,230052,1,8,0:2:0:0:
286,208,230144,2,0,L|280:249,6,31.4999990386963,0|0|8|0|8|0|0,1:2|0:2|0:2|0:2|0:2|0:2|0:2,0:2:0:0:
238,143,230515,5,4,1:2:0:0:
300,134,230607,1,0,0:2:0:0:
362,126,230700,1,8,0:2:0:0:
424,118,230793,1,0,0:2:0:0:
486,110,230885,1,0,1:2:0:0:
179,0,231256,5,0,1:2:0:0:
187,49,231348,1,8,0:2:0:0:
175,98,231441,1,8,0:2:0:0:
144,137,231533,1,0,0:2:0:0:
96,153,231626,1,0,1:2:0:0:
45,154,231719,1,0,0:2:0:0:
1,128,231811,1,8,0:2:0:0:
8,378,231996,6,0,L|31:244,1,125.999996154785,0|8,1:2|0:2,0:2:0:0:
231,364,232367,1,0,1:2:0:0:
187,366,232459,1,0,1:2:0:0:
151,339,232552,1,8,0:2:0:0:
177,296,232644,1,8,0:2:0:0:
226,283,232737,1,0,1:2:0:0:
275,292,232830,1,8,0:2:0:0:
318,317,232922,1,0,0:2:0:0:
366,329,233015,1,8,0:2:0:0:
413,313,233107,1,0,1:2:0:0:
439,270,233200,1,0,0:2:0:0:
439,219,233293,1,8,0:2:0:0:
412,176,233385,1,0,0:2:0:0:
370,146,233478,5,4,1:2:0:0:
342,104,233570,1,0,0:2:0:0:
340,53,233663,1,8,0:2:0:0:
371,13,233756,1,0,0:2:0:0:
419,0,233848,1,0,1:2:0:0:
467,12,233941,1,8,0:2:0:0:
499,50,234033,1,8,0:2:0:0:
227,200,234219,5,0,1:2:0:0:
234,150,234311,1,8,0:2:0:0:
242,100,234404,1,8,0:2:0:0:
250,50,234496,1,8,0:2:0:0:
259,0,234589,1,0,1:2:0:0:
90,37,234774,1,8,0:2:0:0:
153,125,234959,5,0,1:2:0:0:
147,168,235052,1,0,0:2:0:0:
114,198,235144,1,8,0:2:0:0:
71,211,235237,1,0,0:2:0:0:
29,199,235330,1,0,1:2:0:0:
72,196,235422,1,0,1:2:0:0:
106,223,235515,1,8,0:2:0:0:
111,266,235607,1,8,0:2:0:0:
103,309,235700,1,0,1:2:0:0:
113,352,235793,1,0,0:2:0:0:
149,375,235885,1,8,0:2:0:0:
191,362,235978,1,8,0:2:0:0:
157,333,236070,1,0,1:2:0:0:
485,367,236441,5,4,1:2:0:0:
436,354,236533,1,0,0:2:0:0:
405,313,236626,1,8,0:2:0:0:
400,262,236719,1,0,0:2:0:0:
422,217,236811,1,0,1:2:0:0:
466,192,236904,1,0,1:2:0:0:
495,151,236996,1,8,0:2:0:0:
490,100,237089,1,0,0:2:0:0:
453,65,237182,6,0,P|414:61|377:72,1,62.9999980773926,0|0,1:2|0:2,0:2:0:0:
335,120,237367,2,0,P|304:125|273:120,1,62.9999980773926,8|0,0:2|0:2,0:2:0:0:
244,35,237552,1,0,1:2:0:0:
242,41,237644,1,0,1:2:0:0:
240,47,237737,1,8,0:2:0:0:
196,301,237922,6,0,L|218:163,1,125.999996154785,0|8,1:2|0:2,0:2:0:0:
118,0,238293,1,0,1:2:0:0:
154,34,238385,1,0,1:2:0:0:
162,83,238478,1,8,0:2:0:0:
145,130,238570,1,8,0:2:0:0:
98,150,238663,1,0,1:2:0:0:
47,152,238756,1,0,0:2:0:0:
7,183,238848,1,8,0:2:0:0:
0,233,238941,1,8,0:2:0:0:
20,278,239033,1,0,1:2:0:0:
161,384,239219,6,0,L|146:241,1,125.999996154785,8|4,0:2|1:2,0:2:0:0:
124,229,239496,1,0,0:2:0:0:
170,248,239589,1,8,0:2:0:0:
220,244,239682,1,0,0:2:0:0:
264,221,239774,1,0,1:2:0:0:
291,178,239867,1,0,1:2:0:0:
323,140,239959,1,8,0:2:0:0:
371,126,240052,1,0,0:2:0:0:
419,138,240144,1,0,1:2:0:0:
449,178,240237,1,8,0:2:0:0:
449,228,240330,1,8,0:2:0:0:
422,270,240422,1,8,0:2:0:0:
373,284,240515,1,0,1:2:0:0:
511,290,240700,1,8,0:2:0:0:
459,35,240885,5,0,1:2:0:0:
402,38,240978,1,0,0:2:0:0:
345,41,241070,1,8,0:2:0:0:
288,44,241163,1,0,0:2:0:0:
231,47,241256,1,0,1:2:0:0:
174,50,241348,1,0,1:2:0:0:
117,54,241441,1,8,0:2:0:0:
60,58,241533,1,8,0:2:0:0:
3,62,241626,2,0,L|3:134,3,62.9999980773926,0|8|0|8,1:2|0:2|0:2|0:2,0:2:0:0:
78,167,241996,2,0,L|78:128,6,31.4999990386963,8|0|0|0|0|0|0,1:2|1:2|1:2|1:2|1:2|1:2|1:2,1:2:0:0:
5,272,242367,5,4,1:2:0:0:
96,251,242552,1,8,0:2:0:0:
188,231,242737,1,2,1:2:0:0:
188,231,242829,1,2,0:2:0:0:
188,231,242922,1,8,0:2:0:0:
168,384,243107,5,0,1:2:0:0:
299,292,243293,1,10,0:2:0:0:
273,297,243385,1,2,0:2:0:0:
247,301,243478,1,2,1:2:0:0:
221,305,243570,1,2,0:2:0:0:
195,309,243663,1,8,0:2:0:0:
365,367,243848,5,0,1:2:0:0:
365,367,244033,1,8,0:2:0:0:
449,291,244219,1,2,1:2:0:0:
439,265,244311,1,2,0:2:0:0:
429,239,244404,1,10,0:2:0:0:
420,213,244496,1,2,0:2:0:0:
410,187,244589,1,2,1:2:0:0:
322,157,244774,1,8,0:2:0:0:
388,96,244959,2,0,P|432:103|474:87,1,90,8|2,0:2|1:2,0:2:0:0:
263,13,245330,6,0,L|246:117,1,90,4|8,1:2|0:2,0:2:0:0:
239,197,245700,1,2,1:2:0:0:
239,197,245793,1,2,0:2:0:0:
239,197,245885,1,8,0:2:0:0:
62,134,246070,1,0,1:2:0:0:
157,83,246256,1,10,0:2:0:0:
152,109,246348,1,2,0:2:0:0:
149,136,246441,1,2,1:2:0:0:
146,162,246533,1,2,0:2:0:0:
144,189,246626,1,8,0:2:0:0:
75,246,246811,5,0,1:2:0:0:
75,246,246996,1,8,0:2:0:0:
238,245,247182,1,2,1:2:0:0:
212,251,247274,1,2,0:2:0:0:
191,268,247367,1,10,0:2:0:0:
177,291,247459,1,2,0:2:0:0:
173,317,247552,1,2,1:2:0:0:
232,370,247737,1,8,0:2:0:0:
101,370,247922,2,0,L|11:368,1,90,8|0,0:2|1:2,0:2:0:0:
339,197,248293,5,4,1:2:0:0:
332,287,248478,1,8,0:2:0:0:
336,384,248663,1,2,1:2:0:0:
336,384,248756,1,2,0:2:0:0:
336,384,248848,1,8,0:2:0:0:
496,341,249033,5,0,1:2:0:0:
412,297,249219,1,10,0:2:0:0:
413,270,249312,1,2,0:2:0:0:
413,244,249404,1,2,1:2:0:0:
414,218,249497,1,2,0:2:0:0:
414,192,249589,1,8,0:2:0:0:
512,150,249774,2,0,P|454:116|444:77,1,90,0|8,1:2|0:2,0:2:0:0:
475,10,250144,5,2,1:2:0:0:
447,11,250237,1,2,0:2:0:0:
419,12,250330,1,10,0:2:0:0:
392,14,250422,1,2,0:2:0:0:
364,16,250515,1,2,1:2:0:0:
298,168,250700,2,0,L|307:79,1,90,8|0,0:2|1:2,0:2:0:0:
284,0,251070,1,8,0:2:0:0:
54,79,251256,5,4,1:2:0:0:
141,95,251441,1,8,0:2:0:0:
228,112,251626,1,2,1:2:0:0:
228,112,251719,1,2,0:2:0:0:
228,112,251811,1,8,0:2:0:0:
167,281,251996,5,0,1:2:0:0:
81,202,252182,1,10,0:2:0:0:
107,199,252274,1,2,0:2:0:0:
133,196,252367,1,2,1:2:0:0:
159,193,252459,1,2,0:2:0:0:
185,190,252552,1,8,0:2:0:0:
296,205,252737,6,0,P|263:253|272:286,1,90,0|8,1:2|0:2,0:2:0:0:
304,363,253107,1,2,1:2:0:0:
304,363,253200,1,2,0:2:0:0:
304,363,253293,1,10,0:2:0:0:
339,356,253385,1,10,0:2:0:0:
375,356,253478,2,0,L|386:332,14,22.5,10|0|0|0|0|0|0|0|0|0|0|0|0|0|0,1:2|1:2|1:2|1:2|1:2|1:2|1:2|1:2|1:2|1:2|1:2|1:2|1:2|1:2|1:2,1:2:0:0:
492,243,254219,6,0,L|343:230,1,125.999996154785,4|8,1:2|0:2,0:2:0:0:
266,245,254589,1,0,1:2:0:0:
286,198,254682,1,0,1:2:0:0:
306,152,254774,1,8,0:2:0:0:
433,155,254959,5,0,1:2:0:0:
392,136,255052,1,8,0:2:0:0:
367,99,255144,1,8,0:2:0:0:
367,54,255237,1,8,0:2:0:0:
395,20,255330,1,0,1:2:0:0:
226,126,255515,1,8,0:2:0:0:
126,37,255700,6,0,L|261:20,1,125.999996154785,0|8,1:2|0:2,0:2:0:0:
144,162,256070,1,0,1:2:0:0:
102,147,256163,1,0,1:2:0:0:
57,147,256256,1,8,0:2:0:0:
18,168,256348,1,8,0:2:0:0:
0,208,256441,5,0,1:2:0:0:
47,0,256626,1,10,0:2:0:0:
47,0,256996,1,10,0:2:0:0:
146,82,257182,6,0,L|281:98,1,125.999996154785,4|8,1:2|0:2,0:2:0:0:
338,202,257552,1,0,1:2:0:0:
293,205,257644,1,0,1:2:0:0:
262,236,257737,1,8,0:2:0:0:
155,342,257922,5,0,1:2:0:0:
163,298,258015,1,8,0:2:0:0:
171,254,258107,1,8,0:2:0:0:
180,211,258200,1,8,0:2:0:0:
189,167,258293,1,0,1:2:0:0:
170,0,258478,1,8,0:2:0:0:
241,85,258663,6,0,P|310:84|418:73,1,125.999996154785,0|8,1:2|0:2,0:2:0:0:
481,81,259033,1,0,1:2:0:0:
448,110,259126,1,0,1:2:0:0:
432,151,259219,1,8,0:2:0:0:
429,194,259311,1,8,0:2:0:0:
441,236,259404,5,0,1:2:0:0:
505,384,259589,1,10,0:2:0:0:
505,384,259959,1,10,0:2:0:0:
306,337,260144,6,0,L|445:324,1,125.999996154785,4|8,1:2|0:2,0:2:0:0:
249,258,260515,1,8,1:2:0:0:
230,297,260607,1,8,0:2:0:0:
212,337,260700,1,8,0:2:0:0:
57,220,260885,5,0,1:2:0:0:
105,207,260978,1,0,0:2:0:0:
154,196,261070,1,0,0:2:0:0:
203,185,261163,1,8,0:2:0:0:
253,174,261256,1,0,1:2:0:0:
287,77,261441,1,8,0:2:0:0:
181,76,261626,5,0,1:2:0:0:
360,223,261811,1,8,0:2:0:0:
456,124,261996,1,8,1:2:0:0:
406,133,262089,1,8,0:2:0:0:
356,143,262182,1,8,0:2:0:0:
441,232,262367,5,0,1:2:0:0:
512,20,262552,1,10,0:2:0:0:
512,20,262922,1,10,0:2:0:0:
369,57,263107,6,0,L|216:89,1,125.999996154785,4|8,1:2|0:2,0:2:0:0:
183,176,263478,1,8,1:2:0:0:
231,186,263570,1,8,0:2:0:0:
267,223,263663,1,8,0:2:0:0:
261,378,263848,5,8,1:2:0:0:
278,330,263941,1,8,0:2:0:0:
320,303,264033,1,8,0:2:0:0:
370,298,264126,1,8,0:2:0:0:
418,314,264219,1,0,0:2:0:0:
487,384,264404,1,8,0:2:0:0:
381,177,264589,6,0,P|299:227|248:225,1,125.999996154785,0|8,1:2|0:2,0:2:0:0:
174,297,264959,1,8,1:2:0:0:
184,240,265052,1,8,0:2:0:0:
194,184,265144,1,8,0:2:0:0:
204,127,265237,1,8,0:2:0:0:
216,72,265330,2,0,L|226:16,1,53.9999983520508,8|0,1:2|0:2,0:2:0:0:
