osu file format v14

[General]
AudioFilename: audio.mp3
AudioLeadIn: 0
PreviewTime: 180887
Countdown: 1
SampleSet: Normal
StackLeniency: 0.4
Mode: 0
LetterboxInBreaks: 0
WidescreenStoryboard: 1

[Editor]
DistanceSpacing: 0.8
BeatDivisor: 4
GridSize: 4
TimelineZoom: 1.799999

[Metadata]
Title:Demystify Feast
TitleUnicode:Demystify Feast
Artist:ZUN
ArtistUnicode:ZUN
Creator:Halfslashed
Version:Feast Day
Source:東方Project
Tags:touhou suimusou immaterial and missing power iamp 東方萃夢想 th7.5 team shanghai alice twilight frontier 大空魔術 magical astronomy
BeatmapID:1020570
BeatmapSetID:477763

[Difficulty]
HPDrainRate:6
CircleSize:4
OverallDifficulty:8
ApproachRate:8
SliderMultiplier:1.8
SliderTickRate:2

[Events]
//Background and Video events
0,0,"Shrine BG.jpg",0,0
//Break Periods
2,138148,146087
//Storyboard Layer 0 (Background)
//Storyboard Layer 1 (Fail)
//Storyboard Layer 2 (Pass)
//Storyboard Layer 3 (Foreground)
//Storyboard Layer 4 (Overlay)
//Storyboard Sound Samples

[TimingPoints]
171,370.37037037037,4,1,0,30,1,0
2393,-100,3,1,0,40,0,0
4616,-100,3,1,0,30,0,0
6838,-100,3,1,0,40,0,0
9060,-90.9090909090909,3,1,0,35,0,0
11282,-90.9090909090909,3,1,0,45,0,0
13505,-90.9090909090909,3,1,0,35,0,0
15727,-90.9090909090909,3,1,0,45,0,0
17948,-80,3,1,0,45,0,0
21097,-100,3,2,0,50,0,0
46096,-90.9090909090909,3,1,0,35,0,0
48318,-90.9090909090909,3,1,0,45,0,0
50540,-90.9090909090909,3,1,0,35,0,0
52762,-90.9090909090909,3,1,0,45,0,0
54984,-80,3,1,0,45,0,0
58133,-100,3,2,0,50,0,0
83133,-125,4,2,0,20,0,0
86096,-100,4,2,0,20,0,0
89244,-95.2380952380952,4,2,0,25,0,0
89429,-90.9090909090909,4,2,0,30,0,0
89615,-86.9565217391304,4,2,0,35,0,0
89800,-83.3333333333333,4,2,0,40,0,0
89985,-80,4,2,0,45,0,0
90541,-80,4,1,0,50,0,0
92022,-100,4,1,0,50,0,0
92670,-100,4,2,0,20,0,0
93318,-100,4,1,0,50,0,0
93504,-80,4,1,0,50,0,0
97948,-100,4,1,0,50,0,0
99429,-80,4,1,0,50,0,0
102022,-80,4,2,0,50,0,0
102392,-100,4,2,0,50,0,0
103133,-90.9090909090909,4,2,0,50,0,0
104244,-80,4,2,0,45,0,0
104615,-83.3333333333333,4,2,0,40,0,0
104800,-86.9565217391304,4,2,0,35,0,0
104985,-90.9090909090909,4,2,0,30,0,0
105170,-95.2380952380952,4,2,0,25,0,0
105355,-100,4,2,0,50,0,0
106096,-90.9090909090909,4,2,0,50,0,0
107207,-80,4,2,0,45,0,0
107578,-83.3333333333333,4,2,0,40,0,0
107763,-86.9565217391304,4,2,0,35,0,0
107948,-90.9090909090909,4,2,0,30,0,0
108133,-95.2380952380952,4,2,0,25,0,0
108318,-100,4,2,0,50,0,0
109059,-90.9090909090909,4,2,0,50,0,0
110170,-80,4,2,0,45,0,0
110541,-83.3333333333333,4,2,0,40,0,0
110726,-86.9565217391304,4,2,0,35,0,0
110911,-90.9090909090909,4,2,0,30,0,0
111096,-95.2380952380952,4,2,0,25,0,0
111281,-100,4,2,0,50,0,0
112022,-90.9090909090909,4,2,0,50,0,0
112763,-80,4,2,0,50,0,0
114244,-100,4,2,0,50,0,0
119429,-80,4,2,0,50,0,0
120170,-100,4,2,0,50,0,0
120911,-90.9090909090909,4,2,0,50,0,0
121096,-80,4,2,0,50,0,0
121467,-100,4,2,0,50,0,0
122763,-80,4,2,0,50,0,0
123133,-100,4,2,0,50,0,0
124615,-80,4,2,0,50,0,0
126096,-71.4285714285714,4,1,0,60,0,1
136467,-71.4285714285714,4,2,0,60,0,1
137948,-71.4285714285714,4,2,0,60,0,0
146837,-80,3,1,0,45,0,0
149986,-100,3,2,0,50,0,0
174985,-125,4,2,0,20,0,0
177948,-100,4,2,0,20,0,0
181096,-95.2380952380952,4,2,0,25,0,0
181281,-90.9090909090909,4,2,0,30,0,0
181467,-86.9565217391304,4,2,0,35,0,0
181652,-83.3333333333333,4,2,0,40,0,0
181837,-80,4,2,0,45,0,0
182393,-71.4285714285714,4,2,0,50,0,0
183133,-80,4,1,0,50,0,0
184615,-100,4,1,0,50,0,0
185263,-100,4,2,0,20,0,0
185911,-100,4,1,0,50,0,0
186096,-80,4,1,0,50,0,0
190541,-100,4,1,0,50,0,0
192022,-80,4,1,0,50,0,0
194615,-80,4,2,0,50,0,0
194985,-100,4,2,0,50,0,0
195726,-90.9090909090909,4,2,0,50,0,0
196837,-80,4,2,0,45,0,0
197208,-83.3333333333333,4,2,0,40,0,0
197393,-86.9565217391304,4,2,0,35,0,0
197578,-90.9090909090909,4,2,0,30,0,0
197763,-95.2380952380952,4,2,0,25,0,0
197948,-100,4,2,0,50,0,0
198689,-90.9090909090909,4,2,0,50,0,0
199800,-80,4,2,0,45,0,0
200171,-83.3333333333333,4,2,0,40,0,0
200356,-86.9565217391304,4,2,0,35,0,0
200541,-90.9090909090909,4,2,0,30,0,0
200726,-95.2380952380952,4,2,0,25,0,0
200911,-100,4,2,0,50,0,0
201652,-90.9090909090909,4,2,0,50,0,0
202763,-80,4,2,0,45,0,0
203134,-83.3333333333333,4,2,0,40,0,0
203319,-86.9565217391304,4,2,0,35,0,0
203504,-90.9090909090909,4,2,0,30,0,0
203689,-95.2380952380952,4,2,0,25,0,0
203874,-100,4,2,0,50,0,0
204615,-90.9090909090909,4,2,0,50,0,0
205356,-80,4,2,0,50,0,0
206837,-100,4,2,0,50,0,0
212022,-80,4,2,0,50,0,0
212763,-100,4,2,0,50,0,0
213504,-90.9090909090909,4,2,0,50,0,0
213689,-80,4,2,0,50,0,0
214060,-100,4,2,0,50,0,0
215356,-80,4,2,0,50,0,0
218689,-71.4285714285714,4,1,0,60,0,1
224522,-71.4285714285714,4,2,0,20,0,1
224615,-71.4285714285714,4,1,0,60,0,1
230171,-71.4285714285714,4,2,0,60,0,1
230541,-71.4285714285714,4,1,0,70,0,1
235726,-66.6666666666667,4,1,0,70,0,1
236467,-71.4285714285714,4,1,0,70,0,1
239059,-66.6666666666667,4,1,0,70,0,1
239430,-71.4285714285714,4,1,0,70,0,1
240911,-66.6666666666667,4,1,0,70,0,1
242393,-100,4,2,0,40,0,0
244615,-100,4,2,0,30,0,0
245356,-100,4,2,0,40,0,0
247578,-100,4,2,0,30,0,0
248319,-100,4,2,0,40,0,0
250541,-100,4,2,0,30,0,0
251282,-100,4,2,0,40,0,0
253504,-100,4,2,0,50,0,0
254245,-100,4,1,0,60,0,0
260170,-80,4,1,0,70,0,0

[Colours]
Combo1 : 253,188,91
Combo2 : 255,0,0
Combo3 : 255,255,255
Combo4 : 77,19,247
Combo5 : 236,242,0

[HitObjects]
48,296,171,5,8,1:1:0:0:
90,218,356,1,0,1:1:0:0:
172,184,541,1,0,1:1:0:0:
261,197,726,1,0,1:1:0:0:
221,277,911,1,0,0:0:0:0:
139,311,1096,1,0,0:0:0:0:
216,148,1282,5,8,1:1:0:0:
258,70,1467,1,0,1:1:0:0:
340,36,1652,1,0,1:1:0:0:
429,49,1837,1,0,1:1:0:0:
389,129,2022,1,0,0:0:0:0:
307,163,2208,1,0,0:0:0:0:
161,195,2393,5,8,1:1:0:0:
76,168,2578,1,0,1:1:0:0:
143,108,2763,1,0,1:1:0:0:
58,81,2948,1,0,1:1:0:0:
76,168,3133,1,0,0:0:0:0:
94,257,3319,1,0,0:0:0:0:
267,210,3504,5,8,1:1:0:0:
352,183,3689,1,0,1:1:0:0:
285,123,3874,1,0,1:1:0:0:
370,96,4059,1,0,1:1:0:0:
352,183,4244,1,0,0:0:0:0:
334,272,4430,1,0,0:0:0:0:
166,344,4615,5,8,1:1:0:0:
250,308,4800,1,0,1:1:0:0:
334,272,4985,1,0,1:1:0:0:
418,240,5170,1,0,1:1:0:0:
334,272,5356,1,0,0:0:0:0:
382,348,5541,1,0,0:0:0:0:
295,191,5726,5,8,1:1:0:0:
211,155,5911,1,0,1:1:0:0:
127,119,6096,1,0,1:1:0:0:
43,87,6282,1,0,1:1:0:0:
127,119,6467,1,0,0:0:0:0:
79,195,6652,1,0,0:0:0:0:
224,304,6837,5,8,1:1:0:0:
311,283,7022,1,0,1:1:0:0:
399,263,7208,1,0,1:1:0:0:
487,243,7393,1,0,1:1:0:0:
399,263,7578,1,0,0:0:0:0:
311,283,7763,1,0,0:0:0:0:
128,176,7948,5,8,1:0:0:0:
215,155,8133,1,0,1:0:0:0:
303,135,8319,1,0,1:0:0:0:
391,115,8504,2,0,L|452:100,2,45,0|0|0,1:1|3:3|0:0,0:0:0:0:
215,155,8874,1,0,0:0:0:0:
312,288,9059,5,12,1:1:0:0:
392,224,9245,1,0,1:1:0:0:
440,152,9430,1,0,1:1:0:0:
464,56,9615,1,0,1:1:0:0:
368,88,9800,1,0,0:0:0:0:
320,176,9985,1,0,0:0:0:0:
192,328,10170,5,8,1:1:0:0:
112,264,10356,1,0,1:1:0:0:
64,192,10541,1,0,1:1:0:0:
40,96,10726,1,0,1:1:0:0:
136,128,10911,1,0,0:0:0:0:
184,216,11096,1,0,0:0:0:0:
384,232,11282,5,8,1:1:0:0:
456,160,11467,1,0,1:1:0:0:
360,128,11652,1,0,1:1:0:0:
440,64,11837,1,0,1:1:0:0:
360,128,12022,1,0,0:0:0:0:
288,200,12208,1,0,0:0:0:0:
112,288,12393,5,8,1:1:0:0:
40,216,12578,1,0,1:1:0:0:
136,184,12763,1,0,1:1:0:0:
56,120,12948,1,0,1:1:0:0:
136,184,13133,1,0,0:0:0:0:
216,248,13319,1,0,0:0:0:0:
416,216,13504,5,8,1:1:0:0:
320,192,13689,1,0,1:1:0:0:
224,168,13874,1,0,1:1:0:0:
128,144,14059,1,0,1:1:0:0:
80,232,14245,1,0,0:0:0:0:
32,320,14430,1,0,0:0:0:0:
44,124,14615,5,8,1:1:0:0:
140,100,14800,1,0,1:1:0:0:
236,76,14985,1,0,1:1:0:0:
332,52,15170,1,0,1:1:0:0:
380,140,15356,1,0,0:0:0:0:
428,228,15541,1,0,0:0:0:0:
236,264,15726,5,8,1:1:0:0:
156,204,15911,1,0,1:1:0:0:
76,146,16096,1,0,1:1:0:0:
107,51,16282,1,0,1:1:0:0:
206,51,16467,1,0,0:0:0:0:
237,146,16652,1,0,0:0:0:0:
320,328,16837,5,8,1:1:0:0:
399,269,17022,1,0,1:1:0:0:
479,210,17208,1,0,1:1:0:0:
449,116,17393,1,0,1:1:0:0:
349,116,17578,1,0,0:0:0:0:
319,210,17763,1,0,0:0:0:0:
132,88,17948,6,0,L|24:156,1,112.5,10|0,1:1|1:1,1:1:0:0:
148,176,18319,1,0,1:1:0:0:
256,212,18504,1,0,1:1:0:0:
364,248,18689,1,0,0:0:0:0:
468,288,18874,1,0,0:0:0:0:
380,88,19059,6,0,L|488:156,1,112.5,10|0,1:1|1:1,1:1:0:0:
364,176,19430,1,0,1:1:0:0:
256,212,19615,1,0,1:1:0:0:
148,248,19800,1,0,0:0:0:0:
44,288,19985,1,0,0:0:0:0:
264,336,20170,6,8,L|364:252,1,112.5,10|0,1:1|1:1,1:1:0:0:
256,212,20541,1,0,1:1:0:0:
336,136,20726,1,0,1:1:0:0:
416,52,20911,1,0,0:0:0:0:
308,72,21096,5,0,1:1:0:0:
264,68,21189,1,0,1:1:0:0:
220,64,21282,5,0,1:1:0:0:
180,40,21374,1,2,0:0:0:0:
171,84,21467,1,0,1:1:0:0:
131,64,21559,1,2,0:0:0:0:
120,109,21652,1,0,1:1:0:0:
80,89,21745,1,2,0:0:0:0:
68,132,21837,5,0,1:1:0:0:
56,176,21930,1,0,1:1:0:0:
61,220,22022,1,0,0:0:0:0:
83,260,22115,1,0,0:0:0:0:
120,288,22208,1,0,0:0:0:0:
161,307,22300,1,0,0:0:0:0:
207,317,22393,6,0,P|255:321|302:301,1,90,12|0,1:1|1:1,1:1:0:0:
223,142,22763,1,0,1:1:0:0:
232,185,22856,1,0,0:0:0:0:
241,230,22948,1,0,1:1:0:0:
60,220,23133,1,0,1:1:0:0:
172,76,23319,1,0,1:1:0:0:
172,76,23504,5,8,1:1:0:0:
60,216,23689,1,0,1:1:0:0:
223,142,23874,2,0,P|268:123|342:133,1,90,0|0,1:1|1:1,1:1:0:0:
302,305,24245,1,0,1:1:0:0:
293,261,24337,1,0,0:0:0:0:
284,218,24430,1,0,1:1:0:0:
172,76,24615,5,8,1:1:0:0:
60,220,24800,1,0,1:1:0:0:
72,40,24985,1,0,1:1:0:0:
223,142,25170,1,0,1:1:0:0:
398,86,25356,2,0,P|425:113|448:158,1,90,4|0,1:1|1:1,1:1:0:0:
282,220,25726,5,8,1:1:0:0:
319,193,25819,1,0,0:0:0:0:
356,168,25911,1,0,1:1:0:0:
232,300,26096,1,0,1:1:0:0:
416,336,26282,1,0,1:1:0:0:
416,336,26467,1,0,1:1:0:0:
356,168,26652,1,0,1:1:0:0:
233,35,26837,6,0,P|203:70|185:111,1,90,8|0,1:1|1:1,1:1:0:0:
356,168,27208,1,0,1:1:0:0:
315,136,27300,1,0,0:0:0:0:
280,108,27393,1,0,1:1:0:0:
108,56,27578,1,0,1:1:0:0:
218,190,27763,1,0,1:1:0:0:
464,300,27948,5,8,1:1:0:0:
356,168,28133,1,0,1:1:0:0:
186,110,28319,6,0,P|143:143|128:187,1,90,12|0,1:1|1:1,1:1:0:0:
291,244,28689,1,0,1:1:0:0:
255,218,28782,1,0,0:0:0:0:
218,190,28874,1,0,1:1:0:0:
252,12,29059,1,0,1:1:0:0:
124,141,29245,1,0,1:1:0:0:
124,141,29430,5,8,1:1:0:0:
252,12,29615,1,0,1:1:0:0:
291,244,29800,2,0,P|313:285|316:330,1,90,0|0,1:1|1:1,1:1:0:0:
139,329,30170,1,0,1:1:0:0:
183,318,30263,1,0,0:0:0:0:
227,308,30356,1,0,1:1:0:0:
391,240,30541,5,8,1:1:0:0:
227,308,30726,1,0,1:1:0:0:
159,141,30911,1,0,1:1:0:0:
326,74,31096,1,0,1:1:0:0:
391,240,31282,2,0,P|406:286|394:338,1,90,4|0,1:1|1:1,1:1:0:0:
227,308,31652,5,8,1:1:0:0:
270,301,31745,1,0,0:0:0:0:
318,296,31837,1,0,1:1:0:0:
144,256,32022,1,0,1:1:0:0:
96,88,32208,1,0,1:1:0:0:
96,88,32393,1,0,1:1:0:0:
276,118,32578,1,0,1:1:0:0:
318,296,32763,6,0,P|359:320|417:327,1,90,8|0,1:1|1:1,1:1:0:0:
419,152,33133,1,0,1:1:0:0:
406,197,33226,1,0,0:0:0:0:
391,240,33319,1,0,1:1:0:0:
224,164,33504,1,0,1:1:0:0:
160,332,33689,1,0,1:1:0:0:
299,215,33874,5,8,1:1:0:0:
363,47,34059,1,0,1:1:0:0:
184,86,34245,6,0,L|123:164,1,90,12|0,1:1|1:1,1:1:0:0:
299,215,34615,1,0,1:1:0:0:
262,189,34708,1,0,0:0:0:0:
224,164,34800,1,0,1:1:0:0:
382,258,34985,1,0,1:1:0:0:
376,167,35170,1,2,1:2:0:0:
337,190,35263,1,2,0:2:0:0:
298,215,35356,5,8,1:1:0:0:
261,239,35448,1,2,0:2:0:0:
223,264,35541,1,0,1:1:0:0:
72,166,35726,1,0,1:1:0:0:
138,4,35911,1,0,1:0:0:0:
176,176,36096,1,0,1:1:0:0:
215,156,36189,1,0,0:0:0:0:
256,134,36282,1,0,1:1:0:0:
299,116,36374,1,0,0:0:0:0:
340,96,36467,5,8,1:1:0:0:
176,176,36652,1,0,1:1:0:0:
325,285,36837,1,0,1:1:0:0:
157,355,37022,1,0,1:1:0:0:
176,176,37208,2,0,L|281:200,1,90,4|0,1:1|1:1,1:1:0:0:
256,14,37578,5,8,1:1:0:0:
249,60,37670,1,0,0:0:0:0:
242,103,37763,1,0,1:1:0:0:
72,166,37948,1,0,1:1:0:0:
191,303,38133,1,2,1:2:0:0:
228,275,38226,1,2,0:2:0:0:
265,249,38319,1,0,1:1:0:0:
302,222,38411,1,2,0:2:0:0:
339,195,38504,1,0,1:1:0:0:
191,87,38689,5,0,1:1:0:0:
137,258,38874,1,0,1:1:0:0:
299,333,39059,1,0,1:1:0:0:
281,290,39152,1,0,0:0:0:0:
265,249,39245,1,0,1:1:0:0:
191,87,39430,1,0,1:1:0:0:
370,114,39615,1,0,1:1:0:0:
118,184,39800,5,8,1:1:0:0:
258,67,39985,1,0,1:1:0:0:
346,227,40170,6,0,P|276:293|276:293,1,90,12|0,1:1|1:1,1:1:0:0:
175,150,40541,1,0,1:1:0:0:
211,177,40633,1,0,0:0:0:0:
247,204,40726,1,0,1:1:0:0:
72,237,40911,1,0,1:1:0:0:
212,352,41096,1,2,1:2:0:0:
253,337,41189,1,2,0:2:0:0:
295,321,41282,5,8,1:1:0:0:
338,306,41374,1,2,0:2:0:0:
380,290,41467,1,0,1:1:0:0:
504,163,41652,1,0,1:1:0:0:
358,64,41837,1,0,1:1:0:0:
247,204,42022,1,0,1:1:0:0:
206,223,42114,1,0,0:0:0:0:
165,242,42207,1,0,1:1:0:0:
124,261,42299,1,0,0:0:0:0:
83,281,42393,5,8,1:1:0:0:
186,127,42578,1,0,1:1:0:0:
185,311,42763,1,0,1:1:0:0:
78,161,42948,1,0,1:1:0:0:
252,217,43133,2,0,L|271:116,1,90,4|0,1:1|1:1,1:1:0:0:
434,202,43504,5,8,1:1:0:0:
388,192,43596,1,0,0:0:0:0:
343,183,43689,1,0,1:1:0:0:
490,291,43874,1,0,1:1:0:0:
318,343,44059,1,0,1:1:0:0:
273,332,44152,1,2,0:2:0:0:
230,322,44245,1,0,1:1:0:0:
185,311,44337,1,2,0:2:0:0:
142,302,44430,1,2,1:2:0:0:
316,242,44615,5,0,1:1:0:0:
358,64,44800,1,0,1:1:0:0:
256,210,44985,1,0,1:1:0:0:
221,181,45078,1,0,0:0:0:0:
185,152,45170,1,0,1:1:0:0:
151,123,45263,1,0,0:0:0:0:
113,95,45356,1,0,1:1:0:0:
73,259,45541,1,0,1:1:0:0:
358,64,45726,5,8,1:1:0:0:
446,212,45911,1,0,1:1:0:0:
300,345,46096,5,12,1:1:0:0:
200,325,46282,1,0,1:1:0:0:
114,276,46467,1,0,1:1:0:0:
52,201,46652,1,0,1:1:0:0:
10,289,46837,1,0,0:0:0:0:
80,361,47022,1,0,0:0:0:0:
334,260,47208,5,12,1:1:0:0:
234,240,47394,1,0,1:1:0:0:
148,191,47579,1,0,1:1:0:0:
94,112,47764,1,0,1:1:0:0:
52,200,47949,1,0,0:0:0:0:
114,276,48134,1,0,0:0:0:0:
295,350,48319,5,8,1:1:0:0:
334,260,48504,1,0,1:1:0:0:
374,171,48689,1,0,1:1:0:0:
414,82,48874,1,0,1:1:0:0:
374,171,49059,1,0,0:0:0:0:
275,171,49245,1,0,0:0:0:0:
195,350,49430,5,8,1:1:0:0:
235,261,49615,1,0,1:1:0:0:
275,171,49800,1,0,1:1:0:0:
314,82,49985,1,0,1:1:0:0:
275,171,50170,1,0,0:0:0:0:
176,171,50356,1,0,0:0:0:0:
106,356,50541,5,8,1:1:0:0:
194,319,50726,1,0,1:1:0:0:
105,279,50911,1,0,1:1:0:0:
196,246,51096,1,0,1:1:0:0:
290,279,51282,1,0,0:0:0:0:
363,349,51467,1,0,0:0:0:0:
196,246,51652,5,8,1:1:0:0:
286,208,51837,1,0,1:1:0:0:
199,169,52022,1,0,1:1:0:0:
287,136,52207,1,0,1:1:0:0:
382,171,52393,1,0,0:0:0:0:
454,238,52578,1,0,0:0:0:0:
287,344,52763,5,8,1:1:0:0:
353,263,52948,1,0,1:1:0:0:
382,171,53133,1,0,1:1:0:0:
333,80,53319,1,0,1:1:0:0:
274,163,53504,1,0,0:0:0:0:
218,238,53689,1,0,0:0:0:0:
69,366,53874,5,8,1:1:0:0:
135,285,54059,1,0,1:1:0:0:
164,193,54244,1,0,1:1:0:0:
115,102,54430,1,0,1:1:0:0:
56,185,54615,1,0,0:0:0:0:
0,260,54800,1,0,0:0:0:0:
226,238,54985,6,0,P|274:204|293:150,1,112.5,10|0,1:1|1:1,1:1:0:0:
182,137,55356,1,0,1:1:0:0:
79,91,55541,1,0,1:1:0:0:
41,196,55726,1,0,0:0:0:0:
141,244,55911,1,0,0:0:0:0:
363,299,56096,6,0,P|310:301|250:243,1,112.5,10|0,1:1|1:1,1:1:0:0:
341,185,56467,1,0,1:1:0:0:
229,174,56652,1,0,1:1:0:0:
141,244,56837,1,0,0:0:0:0:
67,308,57022,1,0,0:0:0:0:
80,48,57208,6,0,P|132:36|192:52,1,112.5,10|0,1:1|1:1,1:1:0:0:
132,148,57578,1,0,1:1:0:0:
192,248,57763,1,0,1:1:0:0:
300,284,57948,1,0,1:1:0:0:
328,196,58133,5,0,1:1:0:0:
284,184,58226,1,0,1:1:0:0:
240,168,58319,5,0,1:1:0:0:
209,136,58411,1,2,0:0:0:0:
188,177,58504,1,0,1:1:0:0:
157,145,58596,1,2,0:0:0:0:
136,185,58689,1,0,1:1:0:0:
105,153,58782,1,2,0:0:0:0:
80,192,58874,5,0,1:1:0:0:
73,238,58967,1,0,1:1:0:0:
78,283,59059,1,0,0:0:0:0:
102,320,59152,1,0,0:0:0:0:
139,345,59245,1,0,0:0:0:0:
183,355,59337,1,0,0:0:0:0:
228,355,59430,6,0,L|344:326,1,90,12|0,1:1|1:0,1:0:0:0:
240,168,59800,1,0,1:0:0:0:
248,212,59893,1,0,0:0:0:0:
255,256,59985,1,0,1:0:0:0:
368,120,60170,1,0,1:0:0:0:
488,256,60356,1,2,1:2:0:0:
448,280,60448,1,2,0:0:0:0:
368,120,60633,1,2,0:0:0:0:
324,112,60726,1,0,1:0:0:0:
148,136,60911,6,0,L|188:240,1,90,0|0,1:0|1:0,1:0:0:0:
324,112,61282,1,0,1:0:0:0:
283,130,61374,1,0,0:0:0:0:
242,149,61467,1,0,1:0:0:0:
201,167,61559,1,0,0:0:0:0:
160,186,61652,5,8,1:1:0:0:
336,216,61837,1,0,1:1:0:0:
168,280,62022,1,0,1:1:0:0:
350,293,62208,1,0,1:1:0:0:
324,112,62393,2,0,L|242:54,1,90,4|0,1:1|1:1,1:1:0:0:
191,226,62763,5,0,1:1:0:0:
216,187,62856,1,0,0:0:0:0:
242,149,62948,1,0,1:0:0:0:
75,219,63133,1,0,1:0:0:0:
252,256,63319,1,2,0:0:0:0:
280,290,63411,1,0,1:0:0:0:
324,112,63596,1,2,1:2:0:0:
301,73,63689,1,2,0:0:0:0:
119,83,63874,6,0,L|51:143,1,90,8|0,1:0|1:0,1:0:0:0:
197,239,64245,1,0,1:0:0:0:
167,206,64337,1,0,0:0:0:0:
136,173,64430,1,0,1:0:0:0:
103,205,64522,1,0,0:0:0:0:
70,236,64615,1,0,1:1:0:0:
238,300,64800,1,0,1:0:0:0:
409,209,64985,5,8,1:1:0:0:
474,39,65170,1,0,1:1:0:0:
301,73,65356,6,0,L|211:25,1,90,12|0,1:1|1:1,1:1:0:0:
179,205,65726,1,0,1:0:0:0:
201,165,65819,1,0,0:0:0:0:
221,126,65911,1,0,1:0:0:0:
395,82,66096,1,0,1:0:0:0:
221,30,66282,1,2,1:2:0:0:
173,46,66374,1,2,0:0:0:0:
296,181,66559,1,2,0:0:0:0:
275,221,66652,1,0,1:0:0:0:
443,292,66837,6,0,L|408:208,1,90,0|0,1:0|1:0,1:0:0:0:
275,316,67208,1,0,1:0:0:0:
316,298,67300,1,0,0:0:0:0:
358,281,67393,1,0,1:0:0:0:
399,264,67485,1,0,0:0:0:0:
443,248,67578,5,8,1:0:0:0:
319,115,67763,1,0,1:0:0:0:
221,273,67948,1,0,1:0:0:0:
137,115,68133,1,0,1:0:0:0:
319,115,68319,2,0,L|337:225,1,90,4|0,1:0|1:0,1:0:0:0:
156,183,68689,5,0,1:0:0:0:
201,176,68782,1,0,0:0:0:0:
243,169,68874,1,0,1:0:0:0:
158,327,69059,1,0,1:0:0:0:
320,240,69245,1,2,1:2:0:0:
360,264,69337,1,2,0:0:0:0:
200,176,69522,1,2,0:0:0:0:
160,152,69615,1,0,1:0:0:0:
211,323,69800,6,0,L|323:347,1,90,8|0,1:1|1:0,1:0:0:0:
299,163,70170,2,0,L|275:155,3,22.5,0|0|0|0,1:0|0:0|0:0|0:0,0:0:0:0:
283,211,70356,2,0,L|259:203,3,22.5,0|0|0|0,1:0|0:0|0:0|0:0,0:0:0:0:
267,259,70541,2,0,L|227:251,3,22.5,0|0|0|0,1:0|0:0|0:0|0:0,0:0:0:0:
251,307,70726,2,0,L|219:299,3,22.5,0|0|0|0,1:0|0:0|0:0|0:0,0:0:0:0:
243,339,70911,5,8,1:0:0:0:
399,251,71096,1,0,1:0:0:0:
382,72,71282,6,0,P|357:35|316:19,1,90,12|0,1:1|1:0,1:0:0:0:
237,177,71652,1,0,1:0:0:0:
264,142,71745,1,0,0:0:0:0:
291,107,71837,1,0,1:0:0:0:
149,214,72022,1,0,1:0:0:0:
31,81,72208,1,2,1:2:0:0:
52,122,72300,1,2,0:0:0:0:
136,283,72485,1,2,0:0:0:0:
176,303,72578,1,0,1:0:0:0:
264,142,72763,5,0,1:0:0:0:
356,299,72948,1,0,1:0:0:0:
176,303,73133,1,0,1:0:0:0:
220,304,73226,1,0,0:0:0:0:
264,302,73319,1,0,1:0:0:0:
230,272,73411,1,0,0:0:0:0:
196,243,73504,5,8,1:0:0:0:
42,39,73689,1,0,1:1:0:0:
17,217,73874,1,0,1:1:0:0:
220,64,74059,1,0,1:1:0:0:
196,243,74245,2,0,P|234:212|264:168,1,90,4|0,1:1|1:1,1:1:0:0:
105,91,74615,5,0,1:1:0:0:
136,123,74708,1,0,0:0:0:0:
167,157,74800,1,0,1:0:0:0:
308,272,74985,1,0,1:0:0:0:
128,276,75170,1,2,1:2:0:0:
96,244,75263,1,2,0:0:0:0:
60,64,75448,1,2,0:0:0:0:
28,96,75541,1,0,1:0:0:0:
184,183,75726,5,8,1:1:0:0:
367,200,75911,1,0,1:0:0:0:
277,43,76096,1,0,1:0:0:0:
262,86,76189,1,0,0:0:0:0:
248,128,76282,1,0,1:0:0:0:
269,164,76374,1,0,0:0:0:0:
297,199,76467,1,0,1:0:0:0:
424,328,76652,1,0,1:0:0:0:
256,264,76837,5,8,1:0:0:0:
388,140,77022,1,0,1:0:0:0:
330,313,77208,6,0,P|282:353|242:354,1,90,12|0,1:0|1:0,1:0:0:0:
212,185,77578,1,0,1:0:0:0:
235,225,77670,1,0,0:0:0:0:
256,264,77763,1,0,1:0:0:0:
314,94,77948,1,0,1:0:0:0:
134,74,78133,1,2,1:2:0:0:
109,36,78226,1,2,0:0:0:0:
212,185,78411,1,2,0:0:0:0:
238,224,78504,1,0,1:0:0:0:
59,237,78689,5,0,1:0:0:0:
41,58,78874,1,0,1:0:0:0:
199,142,79059,1,0,1:0:0:0:
158,160,79152,1,0,0:0:0:0:
117,178,79245,1,0,1:0:0:0:
165,181,79337,1,0,0:0:0:0:
212,185,79430,5,8,1:0:0:0:
386,229,79615,1,0,1:0:0:0:
249,347,79800,1,0,1:0:0:0:
77,283,79985,1,0,1:0:0:0:
255,272,80170,2,0,P|294:286|342:286,1,90,4|0,1:0|1:0,1:0:0:0:
328,107,80541,5,0,1:0:0:0:
321,151,80633,1,0,0:0:0:0:
315,196,80726,1,0,1:0:0:0:
493,191,80911,1,0,1:0:0:0:
341,286,81096,1,2,1:2:0:0:
365,326,81189,1,2,0:0:0:0:
184,176,81374,1,2,0:0:0:0:
172,220,81467,1,0,1:0:0:0:
341,286,81652,5,8,1:1:0:0:
493,191,81837,1,0,1:0:0:0:
446,19,82022,1,0,1:0:0:0:
427,59,82115,1,0,0:0:0:0:
408,100,82208,1,0,1:0:0:0:
361,101,82300,1,0,0:0:0:0:
317,101,82393,1,0,1:0:0:0:
282,279,82578,1,0,1:0:0:0:
195,26,82763,5,8,1:0:0:0:
36,116,82948,1,0,1:0:0:0:
91,252,83133,5,8,1:0:0:0:
159,224,83319,1,0,1:0:0:0:
235,204,83504,1,0,1:0:0:0:
235,204,83596,1,0,1:0:0:0:
235,204,83689,1,0,1:0:0:0:
303,176,83874,1,0,1:0:0:0:
203,276,84059,2,0,L|279:312,1,72,0|0,1:0|0:0,0:0:0:0:
412,293,84430,1,0,1:0:0:0:
476,164,84615,5,8,1:0:0:0:
408,192,84800,1,0,1:0:0:0:
348,224,84985,1,0,1:0:0:0:
348,224,85078,1,0,1:0:0:0:
348,224,85170,1,0,1:0:0:0:
348,224,85263,1,0,1:0:0:0:
348,224,85356,1,0,1:0:0:0:
211,272,85541,2,0,L|210:179,1,72,0|0,1:0|0:0,0:0:0:0:
210,127,85911,1,0,1:0:0:0:
124,148,86096,6,0,L|64:184,3,45,8|0|0|0,1:0|0:0|1:0|0:0,0:0:0:0:
53,202,86467,1,0,1:0:0:0:
33,241,86559,1,0,0:0:0:0:
31,286,86652,1,0,1:0:0:0:
67,314,86745,1,0,0:0:0:0:
112,308,86837,1,0,1:0:0:0:
138,271,86930,1,0,0:0:0:0:
140,227,87022,1,0,1:0:0:0:
119,187,87115,1,0,0:0:0:0:
98,146,87208,1,0,0:0:0:0:
100,99,87301,1,0,1:0:0:0:
124,62,87393,1,0,0:0:0:0:
165,45,87486,1,0,1:0:0:0:
210,48,87578,5,0,1:0:0:0:
256,56,87670,1,0,0:0:0:0:
296,80,87763,1,0,1:0:0:0:
322,114,87856,1,0,0:0:0:0:
344,152,87948,1,0,1:0:0:0:
353,195,88041,1,0,1:0:0:0:
348,240,88133,1,0,1:0:0:0:
330,281,88226,1,0,1:0:0:0:
296,312,88319,1,0,0:0:0:0:
257,335,88411,1,0,1:0:0:0:
214,347,88504,1,0,1:0:0:0:
169,345,88596,1,0,0:0:0:0:
120,336,88689,2,0,L|80:304,3,45,0|0|0|0,0:0|1:0|1:0|1:0,0:0:0:0:
48,288,89059,5,2,1:2:0:0:
65,246,89152,1,0,0:0:0:0:
112,264,89245,5,2,1:2:0:0:
130,220,89337,1,0,0:0:0:0:
172,244,89430,5,2,1:2:0:0:
191,198,89522,1,0,0:0:0:0:
232,228,89615,5,2,1:2:0:0:
252,180,89708,1,0,0:0:0:0:
292,216,89800,5,2,1:2:0:0:
313,166,89893,1,0,0:0:0:0:
356,204,89985,5,2,1:2:0:0:
375,151,90078,1,0,0:0:0:0:
412,192,90170,6,0,L|428:144,7,28.125,0|0|0|0|0|0|0|0,1:0|0:0|0:0|0:0|0:0|0:0|0:0|0:0,0:0:0:0:
432,140,90541,5,8,1:0:0:0:
232,36,90726,1,0,1:0:0:0:
192,260,90911,1,0,1:0:0:0:
455,48,91282,5,8,0:0:0:0:
423,95,91374,1,0,0:0:0:0:
391,141,91467,1,0,0:0:0:0:
328,234,91652,1,0,1:0:0:0:
262,325,91837,1,0,1:0:0:0:
122,214,92022,5,8,1:0:0:0:
38,245,92208,1,0,1:0:0:0:
122,214,92393,1,0,1:0:0:0:
141,171,92485,1,0,1:0:0:0:
158,129,92578,2,0,P|282:54|449:124,1,315
469,134,93319,1,8,0:0:0:0:
248,144,93689,5,0,0:0:0:0:
156,212,93874,1,0,0:0:0:0:
144,100,94059,1,0,0:0:0:0:
248,144,94245,1,8,0:0:0:0:
300,168,94337,1,0,0:0:0:0:
348,196,94430,1,0,0:0:0:0:
336,84,94615,5,8,0:0:0:0:
348,196,94800,1,0,0:0:0:0:
248,144,94985,1,8,0:0:0:0:
256,192,95078,12,0,96282,0:0:0:0:
56,156,96467,5,8,1:0:0:0:
256,52,96652,1,0,1:0:0:0:
296,276,96837,1,0,1:0:0:0:
144,104,97208,5,8,0:0:0:0:
189,128,97300,1,0,0:0:0:0:
239,153,97393,1,0,0:0:0:0:
336,207,97578,1,0,0:0:0:0:
437,256,97763,1,0,0:0:0:0:
188,284,97948,5,8,0:0:0:0:
271,321,98133,1,0,0:0:0:0:
188,284,98319,1,0,0:0:0:0:
148,264,98411,1,0,0:0:0:0:
107,245,98504,2,0,P|46:173|144:52,1,270,0|8,0:0|0:0,0:0:0:0:
184,56,99152,1,0,0:0:0:0:
227,71,99245,1,0,0:0:0:0:
388,224,99615,5,0,0:0:0:0:
464,302,99800,1,0,0:0:0:0:
498,195,99985,1,0,0:0:0:0:
388,224,100170,1,8,0:0:0:0:
334,241,100263,1,0,0:0:0:0:
278,254,100356,1,0,0:0:0:0:
170,215,100541,5,0,0:0:0:0:
292,331,100726,1,0,0:0:0:0:
332,168,100911,5,8,0:0:0:0:
172,324,101096,1,0,0:0:0:0:
332,168,101282,1,0,0:0:0:0:
385,178,101374,1,0,0:0:0:0:
441,186,101467,1,0,0:0:0:0:
498,198,101559,2,0,L|331:241,1,168.75
278,254,101930,1,0,2:0:0:0:
224,268,102022,6,0,L|223:229,4,28.125,0|0|0|0|0,1:0|0:0|0:0|0:0|0:0,0:0:0:0:
176,104,102393,6,0,L|108:104,2,45,8|0|0,0:0|0:0|0:0,0:0:0:0:
360,104,102763,1,0,0:0:0:0:
360,104,102856,1,0,0:0:0:0:
360,104,102948,1,0,0:0:0:0:
176,172,103133,5,8,0:0:0:0:
35,309,103319,1,0,0:0:0:0:
80,287,103411,1,0,0:0:0:0:
127,264,103504,1,0,0:0:0:0:
176,241,103596,1,0,0:0:0:0:
228,217,103689,1,0,0:0:0:0:
280,188,103782,1,0,0:0:0:0:
335,161,103874,5,8,0:0:0:0:
200,308,104059,1,0,0:0:0:0:
40,248,104245,5,0,1:0:0:0:
75,204,104337,1,0,0:0:0:0:
124,176,104430,1,0,1:0:0:0:
176,160,104522,1,0,0:0:0:0:
228,134,104615,5,0,1:0:0:0:
243,186,104708,1,2,0:0:0:0:
272,144,104800,5,0,1:0:0:0:
292,192,104893,1,2,0:0:0:0:
320,152,104985,5,0,1:0:0:0:
336,200,105078,1,2,0:0:0:0:
376,168,105170,5,0,1:0:0:0:
388,212,105263,1,2,0:0:0:0:
400,256,105356,6,0,L|412:312,2,45,8|0|0,1:0|0:0|0:0,0:0:0:0:
356,92,105726,1,0,0:0:0:0:
356,92,105819,1,0,0:0:0:0:
356,92,105911,1,0,0:0:0:0:
208,220,106096,5,8,0:0:0:0:
271,34,106282,1,0,0:0:0:0:
281,82,106374,1,0,0:0:0:0:
292,133,106467,1,0,0:0:0:0:
303,186,106559,1,0,0:0:0:0:
314,242,106652,1,0,0:0:0:0:
329,300,106745,1,0,0:0:0:0:
344,360,106837,5,8,0:0:0:0:
208,220,107022,1,0,0:0:0:0:
432,204,107208,5,0,1:0:0:0:
397,160,107300,1,0,0:0:0:0:
351,127,107393,1,0,1:0:0:0:
296,112,107485,1,0,0:0:0:0:
244,90,107578,5,0,1:0:0:0:
229,142,107670,1,2,0:0:0:0:
192,108,107763,5,0,1:0:0:0:
176,156,107856,1,2,0:0:0:0:
140,124,107948,5,0,1:0:0:0:
124,172,108041,1,2,0:0:0:0:
88,140,108133,5,0,1:0:0:0:
80,188,108226,1,2,0:0:0:0:
72,232,108319,6,0,L|64:280,2,45,8|0|0,0:0|0:0|0:0,0:0:0:0:
40,60,108689,1,0,0:0:0:0:
40,60,108782,1,0,0:0:0:0:
40,60,108874,1,0,0:0:0:0:
240,48,109059,5,8,0:0:0:0:
129,213,109245,1,0,0:0:0:0:
178,207,109337,1,0,0:0:0:0:
230,203,109430,1,0,0:0:0:0:
284,197,109522,1,0,0:0:0:0:
341,192,109615,1,0,0:0:0:0:
400,185,109708,1,0,0:0:0:0:
461,179,109800,5,8,0:0:0:0:
329,32,109985,1,0,0:0:0:0:
301,254,110170,5,0,1:0:0:0:
284,197,110263,1,0,0:0:0:0:
265,143,110356,1,0,1:0:0:0:
245,90,110448,1,0,0:0:0:0:
225,38,110541,5,0,1:0:0:0:
189,78,110633,1,2,0:0:0:0:
201,129,110726,5,0,1:0:0:0:
167,167,110818,1,2,0:0:0:0:
186,213,110911,5,0,1:0:0:0:
153,250,111004,1,2,0:0:0:0:
168,294,111096,5,0,1:0:0:0:
136,330,111189,1,2,0:0:0:0:
135,375,111282,6,0,L|197:373,2,45,8|0|0,1:0|0:0|0:0,0:0:0:0:
318,240,111652,1,0,0:0:0:0:
318,240,111745,1,0,0:0:0:0:
318,240,111837,1,0,0:0:0:0:
236,58,112022,5,8,0:0:0:0:
318,240,112208,1,0,0:0:0:0:
128,304,112393,1,0,0:0:0:0:
152,257,112485,1,0,0:0:0:0:
178,213,112578,1,0,0:0:0:0:
203,168,112670,1,0,0:0:0:0:
228,116,112763,5,8,2:0:0:0:
215,340,112948,1,0,2:0:0:0:
343,32,113133,1,8,2:0:0:0:
314,256,113319,1,0,2:0:0:0:
252,281,113411,1,0,0:0:0:0:
195,250,113504,1,8,0:0:0:0:
164,197,113596,1,0,0:0:0:0:
167,138,113689,1,0,0:0:0:0:
202,94,113782,1,0,0:0:0:0:
254,73,113874,2,0,P|301:63|363:106,1,112.5,8|0,2:0|2:0,2:0:0:0:
302,168,114245,5,8,1:0:0:0:
346,162,114337,1,0,1:0:0:0:
390,156,114430,1,0,1:0:0:0:
436,152,114522,1,0,1:0:0:0:
480,147,114615,1,0,1:0:0:0:
119,107,114985,5,8,1:0:0:0:
159,94,115078,1,2,0:0:0:0:
147,137,115170,1,0,1:0:0:0:
193,124,115263,1,2,0:0:0:0:
176,168,115356,1,0,1:0:0:0:
218,155,115448,1,2,0:0:0:0:
210,199,115541,1,0,1:0:0:0:
243,229,115633,1,0,0:0:0:0:
276,260,115726,6,0,L|328:200,2,45,8|0|0,1:0|0:0|1:0,0:0:0:0:
408,80,116096,1,8,0:0:0:0:
208,180,116282,1,8,0:0:0:0:
184,220,116374,1,0,0:0:0:0:
344,136,116559,5,0,0:0:0:0:
304,112,116652,1,0,0:0:0:0:
256,104,116745,1,0,0:0:0:0:
208,104,116837,1,0,0:0:0:0:
168,120,116930,1,0,0:0:0:0:
128,144,117022,1,0,0:0:0:0:
96,176,117115,1,0,0:0:0:0:
96,176,117208,5,8,0:0:0:0:
90,220,117300,1,0,0:0:0:0:
84,265,117393,1,0,0:0:0:0:
78,309,117485,1,0,0:0:0:0:
72,354,117578,1,0,0:0:0:0:
116,342,117670,1,0,0:0:0:0:
159,330,117763,1,0,0:0:0:0:
248,312,117948,6,0,L|312:324,2,45,8|0|0,0:0|0:0|0:0,0:0:0:0:
320,256,118319,1,0,0:0:0:0:
232,244,118504,1,0,0:0:0:0:
144,220,118689,5,8,0:0:0:0:
175,189,118782,1,0,0:0:0:0:
214,166,118874,1,0,0:0:0:0:
257,153,118967,1,0,0:0:0:0:
302,148,119059,1,0,0:0:0:0:
348,144,119152,1,0,0:0:0:0:
392,128,119245,1,0,0:0:0:0:
428,100,119337,1,0,0:0:0:0:
468,58,119430,5,8,0:0:0:0:
443,108,119522,1,0,0:0:0:0:
407,151,119615,1,0,0:0:0:0:
359,180,119708,1,0,0:0:0:0:
305,197,119800,1,0,0:0:0:0:
321,12,120170,5,8,0:0:0:0:
276,20,120263,1,0,0:0:0:0:
236,42,120356,1,0,0:0:0:0:
213,81,120448,1,0,0:0:0:0:
196,124,120541,1,0,0:0:0:0:
190,169,120633,1,0,0:0:0:0:
191,214,120726,1,0,0:0:0:0:
207,257,120819,1,0,0:0:0:0:
244,288,120911,5,0,1:0:0:0:
281,322,121004,1,0,0:0:0:0:
301,270,121096,1,0,1:0:0:0:
339,313,121189,1,0,0:0:0:0:
352,258,121282,5,0,1:0:0:0:
439,225,121467,1,0,1:0:0:0:
439,225,121559,1,0,0:0:0:0:
439,225,121652,2,0,L|491:263,1,45,8|0,1:0|0:0,0:0:0:0:
465,157,121837,2,0,L|414:126,1,45,0|0,1:0|0:0,0:0:0:0:
364,105,122022,2,0,L|313:78,1,45,0|0,1:0|0:0,0:0:0:0:
342,188,122208,2,0,L|400:222,1,45,0|0,1:0|0:0,0:0:0:0:
440,240,122393,5,0,1:0:0:0:
440,240,122485,1,0,0:0:0:0:
440,240,122578,1,0,0:0:0:0:
440,240,122670,1,0,0:0:0:0:
440,240,122763,5,8,0:0:0:0:
465,190,122856,1,0,0:0:0:0:
471,134,122948,1,0,0:0:0:0:
458,80,123041,1,0,0:0:0:0:
440,40,123133,5,8,0:0:0:0:
436,84,123226,1,0,0:0:0:0:
431,128,123319,1,0,0:0:0:0:
413,169,123411,1,0,0:0:0:0:
388,207,123504,1,0,0:0:0:0:
354,238,123596,1,0,0:0:0:0:
316,260,123689,1,0,0:0:0:0:
272,271,123782,1,0,0:0:0:0:
232,292,123874,5,8,0:0:0:0:
270,312,123967,1,0,0:0:0:0:
314,326,124059,1,0,0:0:0:0:
358,320,124152,1,0,0:0:0:0:
402,305,124245,2,0,L|447:262,3,45
472,232,124615,5,8,0:0:0:0:
437,186,124708,1,0,0:0:0:0:
397,146,124800,1,0,0:0:0:0:
357,186,124893,1,0,0:0:0:0:
319,232,124985,5,8,0:0:0:0:
284,186,125078,1,0,0:0:0:0:
244,146,125170,1,0,0:0:0:0:
204,186,125263,1,0,0:0:0:0:
175,232,125356,5,8,0:0:0:0:
140,186,125448,1,0,0:0:0:0:
100,146,125541,1,0,0:0:0:0:
60,186,125633,1,0,0:0:0:0:
36,236,125726,6,0,L|36:280,7,28.125,8|0|0|0|0|0|0|0,0:0|0:0|0:0|0:0|0:0|0:0|0:0|0:0,0:0:0:0:
36,296,126096,5,8,0:0:0:0:
188,92,126282,1,0,0:0:0:0:
256,336,126467,2,0,L|244:264,2,62.9999980773926
72,168,126837,1,8,0:0:0:0:
132,152,126930,1,0,0:0:0:0:
196,164,127022,1,0,0:0:0:0:
314,207,127208,1,0,0:0:0:0:
403,301,127393,1,0,0:0:0:0:
400,48,127578,5,8,0:0:0:0:
281,269,127763,1,0,0:0:0:0:
144,80,127948,1,0,0:0:0:0:
144,80,128041,1,0,0:0:0:0:
144,80,128133,1,0,0:0:0:0:
144,80,128226,1,0,0:0:0:0:
144,80,128319,5,8,0:0:0:0:
176,136,128411,1,0,0:0:0:0:
208,192,128504,1,0,0:0:0:0:
240,248,128596,1,0,0:0:0:0:
280,296,128689,1,0,0:0:0:0:
320,344,128782,1,0,0:0:0:0:
320,344,128874,6,0,P|176:328|72:240,1,251.999992309571,8|0,0:0|0:0,0:0:0:0:
240,64,129430,1,0,0:0:0:0:
440,220,129615,1,0,0:0:0:0:
183,214,129800,1,8,0:0:0:0:
235,177,129893,1,0,0:0:0:0:
296,160,129985,1,0,0:0:0:0:
408,104,130170,1,0,0:0:0:0:
296,160,130356,1,0,0:0:0:0:
72,48,130541,5,8,0:0:0:0:
296,160,130726,1,0,0:0:0:0:
64,240,130911,1,0,0:0:0:0:
64,240,131004,1,0,0:0:0:0:
64,240,131096,1,0,0:0:0:0:
64,240,131189,1,0,0:0:0:0:
64,240,131282,5,8,0:0:0:0:
92,296,131374,1,0,0:0:0:0:
148,324,131467,1,0,0:0:0:0:
212,324,131559,1,0,0:0:0:0:
264,288,131652,1,0,0:0:0:0:
312,248,131745,1,0,0:0:0:0:
376,236,131837,1,0,0:0:0:0:
432,264,131930,1,0,0:0:0:0:
480,308,132022,5,8,0:0:0:0:
360,84,132208,1,0,0:0:0:0:
116,136,132393,2,0,L|32:124,2,62.9999980773926
364,188,132763,1,8,0:0:0:0:
428,200,132856,1,0,0:0:0:0:
479,235,132948,1,0,0:0:0:0:
368,292,133133,1,0,0:0:0:0:
252,348,133319,1,0,0:0:0:0:
382,129,133504,5,8,0:0:0:0:
185,289,133689,1,0,0:0:0:0:
440,240,133874,1,0,0:0:0:0:
440,240,133967,1,0,0:0:0:0:
440,240,134059,1,0,0:0:0:0:
440,240,134152,1,0,0:0:0:0:
440,240,134245,5,8,0:0:0:0:
384,268,134337,1,0,0:0:0:0:
324,284,134430,1,0,0:0:0:0:
260,280,134522,1,0,0:0:0:0:
196,272,134615,1,0,0:0:0:0:
72,248,134800,6,0,P|47:139|145:21,1,251.999992309571,8|0,0:0|0:0,0:0:0:0:
352,132,135356,1,0,0:0:0:0:
136,260,135541,1,0,0:0:0:0:
272,64,135726,1,8,0:0:0:0:
236,116,135819,1,0,0:0:0:0:
200,168,135911,1,0,0:0:0:0:
374,348,136096,1,0,0:0:0:0:
136,260,136282,1,0,0:0:0:0:
256,216,136467,6,0,L|256:264,7,31.4999990386963,8|0|0|0|0|0|0|0,1:0|0:0|0:0|0:0|0:0|0:0|0:0|0:0,0:0:0:0:
312,176,136837,2,0,L|360:176,7,31.4999990386963,8|0|0|0|0|0|0|0,1:0|0:0|0:0|0:0|0:0|0:0|0:0|0:0,0:0:0:0:
256,128,137208,2,0,L|256:88,7,31.4999990386963,8|0|0|0|0|0|0|0,1:0|0:0|0:0|0:0|0:0|0:0|0:0|0:0,0:0:0:0:
208,176,137578,2,0,L|160:176,7,31.4999990386963,8|0|0|0|0|0|0|0,1:0|0:0|0:0|0:0|0:0|0:0|0:0|0:0,0:0:0:0:
256,176,137948,5,8,0:0:0:0:
144,254,146837,6,0,L|40:188,1,112.5,10|0,1:0|1:0,1:0:0:0:
160,168,147208,1,0,1:0:0:0:
268,144,147393,1,0,1:0:0:0:
344,228,147578,1,0,0:0:0:0:
248,288,147763,1,0,0:0:0:0:
444,188,147948,6,0,L|336:116,1,112.5,10|0,1:0|1:0,1:0:0:0:
256,64,148319,1,0,1:0:0:0:
152,108,148504,1,0,1:0:0:0:
72,188,148689,1,0,0:0:0:0:
104,296,148874,1,0,0:0:0:0:
320,233,149059,6,0,L|220:173,1,112.5,10|0,1:0|1:0,1:0:0:0:
320,120,149430,1,0,1:0:0:0:
212,84,149615,1,0,1:0:0:0:
148,176,149800,1,0,1:0:0:0:
188,260,149985,1,0,1:0:0:0:
204,216,150078,1,0,1:0:0:0:
224,176,150170,5,0,1:0:0:0:
253,139,150263,1,2,0:0:0:0:
257,183,150356,1,0,1:0:0:0:
289,151,150448,1,2,0:0:0:0:
297,195,150541,1,0,1:0:0:0:
329,163,150633,1,2,0:0:0:0:
368,188,150726,5,0,1:0:0:0:
388,228,150819,1,0,0:0:0:0:
376,272,150911,1,0,1:0:0:0:
340,300,151004,1,0,0:0:0:0:
296,308,151096,1,0,0:0:0:0:
252,308,151189,1,0,0:0:0:0:
208,304,151282,6,0,P|160:296|112:272,1,90,12|0,1:0|1:0,1:0:0:0:
224,128,151652,1,0,1:0:0:0:
210,171,151745,1,0,0:0:0:0:
197,214,151837,1,0,1:0:0:0:
370,254,152022,1,0,1:0:0:0:
197,214,152208,1,2,1:2:0:0:
152,200,152300,1,2,0:0:0:0:
328,240,152485,1,2,0:0:0:0:
370,254,152578,1,0,1:0:0:0:
408,80,152763,6,0,P|364:97|318:132,1,90,0|0,1:0|1:0,1:0:0:0:
452,253,153133,1,0,1:0:0:0:
429,216,153226,1,0,0:0:0:0:
405,178,153319,1,0,1:0:0:0:
447,196,153411,1,0,0:0:0:0:
487,216,153504,5,8,1:0:0:0:
329,121,153689,1,0,1:0:0:0:
380,292,153874,1,0,1:0:0:0:
224,204,154059,1,0,1:0:0:0:
44,232,154245,2,0,P|60:280|92:320,1,90,4|0,1:0|1:0,1:0:0:0:
224,204,154615,5,0,1:0:0:0:
181,220,154708,1,0,0:0:0:0:
139,236,154800,1,0,1:0:0:0:
288,136,154985,1,0,1:0:0:0:
292,316,155170,1,2,1:2:0:0:
247,327,155263,1,2,0:0:0:0:
68,312,155448,1,2,0:0:0:0:
26,327,155541,1,0,1:0:0:0:
120,172,155726,6,0,P|168:172|224:188,1,90,8|0,1:0|1:0,1:0:0:0:
136,348,156096,1,0,1:0:0:0:
143,303,156189,1,0,0:0:0:0:
150,259,156282,1,0,1:0:0:0:
157,214,156374,1,0,0:0:0:0:
163,170,156467,1,0,1:0:0:0:
401,253,156652,1,0,1:0:0:0:
219,254,156837,5,8,1:0:0:0:
421,104,157022,1,0,1:0:0:0:
309,245,157208,6,0,P|297:299|275:327,1,90,12|0,1:0|1:0,1:0:0:0:
135,218,157578,1,0,1:0:0:0:
175,235,157670,1,0,0:0:0:0:
219,254,157763,1,0,1:0:0:0:
401,253,157948,1,0,1:0:0:0:
233,178,158133,1,2,1:2:0:0:
277,162,158226,1,2,0:0:0:0:
454,139,158411,1,2,0:0:0:0:
498,155,158504,1,0,1:0:0:0:
396,302,158689,6,0,P|357:324|298:315,1,90,0|0,1:0|1:0,1:0:0:0:
321,143,159059,1,0,1:0:0:0:
328,185,159152,1,0,0:0:0:0:
337,230,159245,1,0,1:0:0:0:
305,197,159337,1,0,0:0:0:0:
277,162,159430,5,8,1:0:0:0:
114,237,159615,1,0,1:0:0:0:
180,22,159800,1,0,1:0:0:0:
16,102,159985,1,0,1:0:0:0:
232,143,160170,2,0,P|260:85|263:34,1,90,4|0,1:0|1:0,1:0:0:0:
83,58,160541,5,0,1:0:0:0:
125,72,160633,1,0,0:0:0:0:
168,86,160726,1,0,1:0:0:0:
284,232,160911,1,0,1:0:0:0:
104,252,161096,1,2,1:2:0:0:
64,276,161189,1,2,0:0:0:0:
220,188,161374,1,2,0:0:0:0:
260,164,161467,1,0,1:0:0:0:
428,96,161652,6,0,P|384:104|345:128,1,90,8|0,1:0|1:0,1:0:0:0:
441,264,162022,2,0,P|473:256|473:256,3,22.5,0|0|0|0,1:0|0:0|0:0|0:0,0:0:0:0:
425,221,162208,2,0,L|465:208,3,22.5,0|0|0|0,1:0|0:0|0:0|0:0,0:0:0:0:
410,179,162393,2,0,L|449:168,3,22.5,0|0|0|0,1:0|0:0|0:0|0:0,0:0:0:0:
393,136,162578,2,0,L|433:120,3,22.5,0|0|0|0,1:0|0:0|0:0|0:0,0:0:0:0:
377,104,162763,5,8,1:0:0:0:
196,104,162948,1,0,1:0:0:0:
264,272,163133,6,0,B|248:160,1,90,12|0,1:0|1:0,1:0:0:0:
80,256,163504,1,0,1:0:0:0:
124,249,163596,1,0,0:0:0:0:
169,243,163689,1,0,1:0:0:0:
344,208,163874,1,0,1:0:0:0:
312,32,164059,1,2,1:2:0:0:
288,72,164152,1,2,0:0:0:0:
256,252,164337,1,2,0:0:0:0:
280,292,164430,1,0,1:0:0:0:
192,132,164615,5,0,1:0:0:0:
352,52,164800,1,0,1:0:0:0:
440,209,164985,1,0,1:0:0:0:
400,229,165078,1,0,0:0:0:0:
360,250,165170,1,0,1:0:0:0:
320,271,165263,1,0,0:0:0:0:
280,292,165356,5,8,1:0:0:0:
108,352,165541,1,0,1:0:0:0:
232,224,165726,1,0,1:0:0:0:
368,344,165911,1,0,1:0:0:0:
379,167,166096,2,0,L|286:181,1,90,4|0,1:0|1:0,1:0:0:0:
368,344,166467,5,0,1:0:0:0:
359,299,166559,1,0,0:0:0:0:
350,255,166652,1,0,1:0:0:0:
184,184,166837,1,0,1:0:0:0:
348,104,167022,1,2,1:2:0:0:
388,80,167115,1,2,0:0:0:0:
208,96,167300,1,2,0:0:0:0:
172,76,167393,1,0,1:0:0:0:
280,220,167578,5,8,1:0:0:0:
316,40,167763,1,0,1:0:0:0:
208,184,167948,1,0,1:0:0:0:
168,160,168041,1,0,0:0:0:0:
128,136,168133,1,0,1:0:0:0:
88,112,168226,1,0,0:0:0:0:
48,88,168319,1,0,1:0:0:0:
280,220,168504,1,0,1:0:0:0:
124,304,168689,5,8,1:0:0:0:
172,32,168874,1,0,1:0:0:0:
395,148,169059,6,0,L|363:268,1,90,12|0,1:0|1:0,1:0:0:0:
211,148,169430,1,0,1:0:0:0:
253,162,169522,1,0,0:0:0:0:
296,176,169615,1,0,1:0:0:0:
440,64,169800,1,0,1:0:0:0:
296,176,169985,1,2,1:2:0:0:
281,218,170078,1,2,0:0:0:0:
104,256,170263,1,2,0:0:0:0:
84,300,170356,1,0,1:0:0:0:
120,120,170541,5,0,1:0:0:0:
296,176,170726,1,0,1:0:0:0:
241,347,170911,1,0,1:0:0:0:
254,304,171004,1,0,0:0:0:0:
268,261,171096,1,0,1:0:0:0:
281,218,171189,1,0,0:0:0:0:
296,176,171282,5,8,1:0:0:0:
136,112,171467,1,0,1:0:0:0:
315,83,171652,1,0,1:0:0:0:
200,221,171837,1,0,1:0:0:0:
227,44,172022,2,0,L|226:145,1,90,4|0,1:0|1:0,1:0:0:0:
405,87,172393,5,0,1:0:0:0:
361,85,172485,1,0,0:0:0:0:
315,83,172578,1,0,1:0:0:0:
136,112,172763,1,0,1:0:0:0:
72,284,172948,1,2,1:2:0:0:
120,276,173041,1,2,0:0:0:0:
296,244,173226,1,2,0:0:0:0:
344,236,173319,1,0,1:0:0:0:
315,83,173504,5,8,1:0:0:0:
136,96,173689,1,0,1:0:0:0:
120,276,173874,1,0,1:0:0:0:
163,286,173967,1,0,0:0:0:0:
207,297,174059,1,0,1:0:0:0:
251,307,174152,1,0,0:0:0:0:
295,318,174245,1,0,1:0:0:0:
384,340,174430,1,0,1:0:0:0:
315,83,174615,5,0,1:0:0:0:
403,115,174800,1,0,1:0:0:0:
264,144,174985,5,8,1:0:0:0:
230,207,175170,1,0,1:0:0:0:
306,238,175356,1,0,1:0:0:0:
306,238,175448,1,0,1:0:0:0:
306,238,175541,1,0,1:0:0:0:
345,176,175726,1,0,1:0:0:0:
428,295,175911,2,0,L|392:376,1,72,0|0,1:0|0:0,0:0:0:0:
292,264,176282,1,0,1:0:0:0:
302,119,176467,5,8,1:0:0:0:
345,176,176652,1,0,1:0:0:0:
403,235,176837,1,0,1:0:0:0:
403,235,176930,1,0,1:0:0:0:
403,235,177022,1,0,1:0:0:0:
403,235,177115,1,0,1:0:0:0:
403,235,177208,1,0,1:0:0:0:
318,352,177393,2,0,L|235:364,1,72,0|0,1:0|0:0,0:0:0:0:
175,365,177763,1,0,1:0:0:0:
88,344,177948,6,0,L|56:283,3,45,0|0|0|0,1:0|0:0|1:0|0:0,0:0:0:0:
50,262,178319,1,0,1:0:0:0:
46,217,178411,1,0,0:0:0:0:
55,171,178504,1,0,1:0:0:0:
72,128,178596,1,0,0:0:0:0:
104,96,178689,1,0,1:0:0:0:
142,71,178782,1,0,0:0:0:0:
185,58,178874,1,0,1:0:0:0:
230,63,178967,1,0,0:0:0:0:
271,84,179059,1,0,1:0:0:0:
295,123,179152,1,0,0:0:0:0:
301,166,179245,1,0,1:0:0:0:
287,210,179337,1,0,0:0:0:0:
277,254,179430,5,0,1:0:0:0:
278,299,179522,1,0,0:0:0:0:
305,336,179615,1,0,1:0:0:0:
348,349,179708,1,0,0:0:0:0:
393,347,179800,1,0,1:0:0:0:
435,330,179893,1,0,1:0:0:0:
455,289,179985,1,0,1:0:0:0:
452,244,180078,1,0,1:0:0:0:
420,212,180170,1,0,0:0:0:0:
376,216,180263,1,0,1:0:0:0:
352,256,180356,1,0,1:0:0:0:
368,288,180448,1,0,0:0:0:0:
408,304,180541,2,0,L|440:256,3,45,0|0|0|0,0:0|1:0|1:0|1:0,0:0:0:0:
464,232,180911,5,2,1:2:0:0:
444,191,181004,1,0,0:0:0:0:
408,224,181096,5,2,1:2:0:0:
387,181,181189,1,0,0:0:0:0:
352,216,181282,5,2,1:2:0:0:
330,171,181374,1,0,0:0:0:0:
292,208,181467,5,2,1:2:0:0:
268,162,181559,1,0,0:0:0:0:
228,200,181652,5,2,1:2:0:0:
203,151,181745,1,0,0:0:0:0:
164,192,181837,5,2,1:2:0:0:
141,141,181930,1,0,0:0:0:0:
100,180,182022,6,0,L|67:140,7,28.125,0|0|0|0|0|0|0|0,1:0|0:0|0:0|0:0|0:0|0:0|0:0|0:0,0:0:0:0:
60,136,182393,5,2,1:2:0:0:
125,150,182485,1,0,0:0:0:0:
174,112,182578,1,2,1:2:0:0:
235,124,182670,1,0,0:0:0:0:
296,106,182763,2,0,L|337:135,7,31.4999990386963,0|0|0|0|0|0|0|0,1:0|0:0|0:0|0:0|0:0|0:0|0:0|0:0,0:0:0:0:
344,140,183133,5,8,1:0:0:0:
136,52,183319,1,0,0:0:0:0:
99,276,183504,1,0,0:0:0:0:
385,101,183874,5,8,0:0:0:0:
344,140,183967,1,0,0:0:0:0:
308,182,184059,1,0,0:0:0:0:
229,263,184245,1,0,0:0:0:0:
149,344,184430,1,0,0:0:0:0:
327,315,184615,5,8,0:0:0:0:
415,343,184800,1,0,0:0:0:0:
327,315,184985,1,0,0:0:0:0:
283,294,185078,1,0,0:0:0:0:
240,274,185170,2,0,P|187:109|290:26,1,315
323,17,185911,1,8,0:0:0:0:
421,221,186282,5,0,0:0:0:0:
361,317,186467,1,0,0:0:0:0:
266,252,186652,1,0,0:0:0:0:
204,348,186837,1,8,0:0:0:0:
151,323,186930,1,0,0:0:0:0:
99,298,187022,1,0,0:0:0:0:
184,220,187208,5,8,0:0:0:0:
352,244,187393,1,0,0:0:0:0:
256,192,187578,1,8,0:0:0:0:
256,192,187670,12,0,188874,0:0:0:0:
200,112,189059,5,8,1:0:0:0:
416,50,189245,1,0,0:0:0:0:
447,276,189430,1,0,0:0:0:0:
140,139,189800,5,8,0:0:0:0:
177,175,189893,1,0,0:0:0:0:
224,211,189985,1,0,0:0:0:0:
308,286,190170,1,0,0:0:0:0:
400,355,190356,1,0,0:0:0:0:
465,187,190541,5,8,0:0:0:0:
473,277,190726,1,0,0:0:0:0:
465,187,190911,1,0,0:0:0:0:
425,163,191004,1,0,0:0:0:0:
385,147,191096,2,0,P|281:227|153:187,1,270,0|8,0:0|0:0,0:0:0:0:
127,156,191745,1,0,0:0:0:0:
113,113,191837,1,0,0:0:0:0:
322,36,192208,5,0,0:0:0:0:
365,149,192393,1,0,0:0:0:0:
436,70,192578,1,0,0:0:0:0:
468,179,192763,1,8,0:0:0:0:
432,219,192856,1,0,0:0:0:0:
392,259,192948,1,0,0:0:0:0:
296,204,193133,5,8,0:0:0:0:
412,328,193319,1,0,0:0:0:0:
365,149,193504,5,8,0:0:0:0:
177,269,193689,1,0,0:0:0:0:
40,136,193874,1,0,0:0:0:0:
96,120,193967,1,0,0:0:0:0:
152,104,194059,1,0,0:0:0:0:
208,88,194152,2,0,L|392:160,1,168.75
416,176,194522,1,0,2:0:0:0:
464,200,194615,6,0,L|464:240,4,28.125,0|0|0|0|0,1:0|0:0|0:0|0:0|0:0,0:0:0:0:
335,324,194985,6,0,L|345:244,2,45,8|0|0,0:0|0:0|0:0,0:0:0:0:
365,149,195356,1,0,0:0:0:0:
365,149,195448,1,0,0:0:0:0:
365,149,195541,1,0,0:0:0:0:
172,109,195726,5,8,0:0:0:0:
54,272,195911,1,0,0:0:0:0:
99,254,196004,1,0,0:0:0:0:
148,234,196096,1,0,0:0:0:0:
201,217,196189,1,0,0:0:0:0:
252,196,196282,1,0,0:0:0:0:
307,172,196374,1,0,0:0:0:0:
365,149,196467,5,8,0:0:0:0:
396,347,196652,1,0,0:0:0:0:
196,245,196837,5,0,1:0:0:0:
213,188,196930,1,0,0:0:0:0:
232,134,197023,1,0,1:0:0:0:
252,81,197115,1,0,0:0:0:0:
272,29,197208,5,0,1:0:0:0:
308,69,197300,1,2,0:0:0:0:
296,120,197393,5,0,1:0:0:0:
330,158,197485,1,2,0:0:0:0:
311,204,197578,5,0,1:0:0:0:
344,241,197671,1,2,0:0:0:0:
329,285,197763,5,0,1:0:0:0:
361,321,197856,1,2,0:0:0:0:
362,366,197949,6,0,L|300:364,2,45,8|0|0,1:0|0:0|0:0,0:0:0:0:
144,359,198319,1,0,0:0:0:0:
144,359,198411,1,0,0:0:0:0:
144,359,198504,1,0,0:0:0:0:
267,207,198689,5,8,0:0:0:0:
114,83,198874,1,0,0:0:0:0:
161,98,198967,1,0,0:0:0:0:
211,116,199059,1,0,0:0:0:0:
261,135,199152,1,0,0:0:0:0:
315,156,199245,1,0,0:0:0:0:
372,173,199337,1,0,0:0:0:0:
430,194,199430,5,8,0:0:0:0:
341,368,199615,1,0,0:0:0:0:
494,294,199800,5,0,1:0:0:0:
460,243,199893,1,0,0:0:0:0:
430,194,199985,1,0,1:0:0:0:
395,147,200078,1,0,0:0:0:0:
362,102,200170,5,0,1:0:0:0:
342,154,200263,1,2,0:0:0:0:
302,122,200356,5,0,1:0:0:0:
278,170,200448,1,2,0:0:0:0:
238,138,200541,5,0,1:0:0:0:
218,182,200633,1,2,0:0:0:0:
182,150,200726,5,0,1:0:0:0:
160,193,200819,1,2,0:0:0:0:
148,236,200911,6,0,L|133:281,2,45,8|0|0,0:0|0:0|0:0,0:0:0:0:
178,60,201282,1,0,0:0:0:0:
178,60,201374,1,0,0:0:0:0:
178,60,201467,1,0,0:0:0:0:
228,252,201652,5,8,0:0:0:0:
416,312,201837,1,0,0:0:0:0:
386,270,201930,1,0,0:0:0:0:
354,226,202022,1,0,0:0:0:0:
325,181,202115,1,0,0:0:0:0:
294,132,202208,1,0,0:0:0:0:
258,86,202300,1,0,0:0:0:0:
222,34,202393,5,8,0:0:0:0:
28,72,202578,1,0,0:0:0:0:
72,292,202763,5,0,1:0:0:0:
104,241,202856,1,0,0:0:0:0:
134,193,202948,1,0,1:0:0:0:
169,146,203041,1,0,0:0:0:0:
200,100,203133,5,0,1:0:0:0:
220,152,203226,1,2,0:0:0:0:
260,120,203319,5,0,1:0:0:0:
284,168,203411,1,2,0:0:0:0:
324,136,203504,5,0,1:0:0:0:
344,180,203596,1,2,0:0:0:0:
380,148,203689,5,0,1:0:0:0:
402,191,203782,1,2,0:0:0:0:
414,234,203874,6,0,L|429:279,2,45,8|0|0,0:0|0:0|0:0,0:0:0:0:
244,276,204245,1,0,0:0:0:0:
244,276,204337,1,0,0:0:0:0:
244,276,204430,1,0,0:0:0:0:
328,96,204615,5,8,0:0:0:0:
128,72,204800,1,0,0:0:0:0:
48,256,204985,1,0,0:0:0:0:
96,232,205078,1,0,0:0:0:0:
144,212,205170,1,0,0:0:0:0:
192,192,205263,1,0,0:0:0:0:
248,172,205356,5,8,0:0:0:0:
472,304,205541,1,0,0:0:0:0:
496,78,205726,1,8,0:0:0:0:
288,344,205911,1,0,0:0:0:0:
220,338,206004,1,0,0:0:0:0:
164,307,206096,1,8,0:0:0:0:
137,251,206189,1,0,0:0:0:0:
142,192,206282,1,0,0:0:0:0:
170,144,206374,1,0,0:0:0:0:
215,110,206467,2,0,P|270:101|317:142,1,112.5,8|0,0:0|0:0,0:0:0:0:
276,216,206837,5,0,1:0:0:0:
231,208,206930,1,0,1:0:0:0:
186,200,207022,1,0,1:0:0:0:
142,193,207115,1,0,1:0:0:0:
96,186,207208,1,0,1:0:0:0:
446,117,207578,5,0,1:0:0:0:
406,93,207670,1,2,0:0:0:0:
390,133,207763,1,0,1:0:0:0:
350,109,207856,1,2,0:0:0:0:
334,149,207948,1,0,1:0:0:0:
294,125,208041,1,2,0:0:0:0:
278,165,208133,1,0,1:0:0:0:
264,207,208226,1,0,0:0:0:0:
248,248,208319,6,0,L|300:288,2,45,8|0|0,0:0|0:0|0:0,0:0:0:0:
88,88,208689,1,8,0:0:0:0:
188,288,208874,1,8,0:0:0:0:
172,332,208967,1,0,0:0:0:0:
80,176,209152,5,0,0:0:0:0:
118,198,209245,1,0,0:0:0:0:
161,211,209337,1,0,0:0:0:0:
206,215,209430,1,0,0:0:0:0:
251,210,209522,1,0,0:0:0:0:
293,195,209615,1,0,0:0:0:0:
331,171,209708,1,0,0:0:0:0:
331,171,209800,5,8,0:0:0:0:
322,215,209893,1,0,0:0:0:0:
314,259,209985,1,0,0:0:0:0:
305,303,210078,1,0,0:0:0:0:
291,347,210170,1,0,0:0:0:0:
251,325,210263,1,0,0:0:0:0:
211,304,210356,1,0,0:0:0:0:
128,264,210541,6,0,L|176:192,2,45,8|0|0,0:0|0:0|0:0,0:0:0:0:
211,304,210911,1,0,0:0:0:0:
296,288,211096,1,0,0:0:0:0:
386,285,211282,5,8,0:0:0:0:
356,250,211374,1,0,0:0:0:0:
320,224,211467,1,0,0:0:0:0:
279,206,211559,1,0,0:0:0:0:
235,198,211652,1,0,0:0:0:0:
190,200,211745,1,0,0:0:0:0:
148,216,211837,1,0,0:2:0:0:
108,236,211930,1,0,0:0:0:0:
60,268,212022,5,8,0:0:0:0:
95,311,212115,1,0,0:0:0:0:
141,343,212208,1,0,0:0:0:0:
196,344,212300,1,0,0:0:0:0:
252,328,212393,1,0,0:0:0:0:
231,147,212763,5,8,0:0:0:0:
267,118,212856,1,0,0:0:0:0:
311,105,212948,1,0,0:0:0:0:
357,106,213041,1,0,0:0:0:0:
401,116,213133,1,0,0:0:0:0:
437,144,213226,1,0,0:0:0:0:
457,185,213319,1,0,0:0:0:0:
457,231,213411,1,0,0:0:0:0:
450,281,213504,5,0,1:0:0:0:
403,261,213596,1,0,0:0:0:0:
397,316,213689,1,0,1:0:0:0:
353,297,213782,1,0,0:0:0:0:
349,353,213874,5,0,1:0:0:0:
273,283,214059,1,0,0:0:0:0:
273,283,214152,1,0,0:0:0:0:
273,283,214245,2,0,L|244:345,1,45,0|0,1:0|0:0,0:0:0:0:
241,201,214430,2,0,L|269:138,1,45,0|0,1:0|0:0,0:0:0:0:
157,252,214615,2,0,L|137:292,1,45,0|0,1:0|0:0,0:0:0:0:
114,168,214800,2,0,L|132:127,1,45,0|0,1:0|0:0,0:0:0:0:
60,248,214985,5,0,0:0:0:0:
60,248,215078,1,0,0:0:0:0:
60,248,215170,1,0,0:0:0:0:
60,248,215263,1,0,0:0:0:0:
60,248,215356,5,8,0:0:0:0:
32,196,215448,1,0,0:0:0:0:
25,142,215541,1,0,0:0:0:0:
37,87,215633,1,0,0:0:0:0:
72,40,215726,5,8,0:0:0:0:
68,96,215819,1,0,0:0:0:0:
80,152,215911,1,0,0:0:0:0:
104,204,216004,1,0,0:0:0:0:
144,248,216096,1,0,0:0:0:0:
196,272,216189,1,0,0:0:0:0:
252,276,216282,1,0,0:0:0:0:
300,244,216374,1,0,0:0:0:0:
280,192,216467,1,8,0:0:0:0:
224,180,216559,1,0,0:0:0:0:
172,208,216652,1,0,0:0:0:0:
132,248,216745,1,0,0:0:0:0:
100,296,216837,2,0,L|52:248,3,56.25
35,227,217208,5,8,0:0:0:0:
70,181,217300,1,0,0:0:0:0:
110,141,217393,1,0,0:0:0:0:
150,181,217485,1,0,0:0:0:0:
183,227,217578,5,8,0:0:0:0:
218,181,217670,1,0,0:0:0:0:
258,141,217763,1,0,0:0:0:0:
298,181,217856,1,0,0:0:0:0:
327,227,217948,5,8,0:0:0:0:
362,181,218041,1,0,0:0:0:0:
402,141,218133,1,0,0:0:0:0:
442,181,218226,1,0,0:0:0:0:
472,228,218319,6,0,L|476:274,7,28.125,8|0|0|0|0|0|0|0,0:0|0:0|0:0|0:0|0:0|0:0|0:0|0:0,0:0:0:0:
476,288,218689,5,8,0:0:0:0:
376,56,218874,1,0,0:0:0:0:
296,292,219059,2,0,L|336:352,2,62.9999980773926
168,80,219430,1,8,0:0:0:0:
107,72,219522,1,0,0:0:0:0:
48,96,219615,1,0,0:0:0:0:
64,224,219800,1,0,0:0:0:0:
80,352,219985,1,0,0:0:0:0:
192,124,220170,5,8,0:0:0:0:
348,324,220356,1,0,0:0:0:0:
296,76,220541,1,0,0:0:0:0:
280,136,220633,1,0,0:0:0:0:
268,199,220726,1,0,0:0:0:0:
256,264,220819,1,0,0:0:0:0:
144,208,221004,1,0,0:0:0:0:
205,195,221096,1,0,0:0:0:0:
268,199,221189,1,0,0:0:0:0:
326,223,221282,1,0,0:0:0:0:
375,262,221374,1,0,0:0:0:0:
375,262,221467,6,0,P|426:154|392:22,1,251.999992309571,8|0,0:0|0:0,0:0:0:0:
264,256,222022,1,0,0:0:0:0:
192,16,222208,1,0,0:0:0:0:
40,216,222393,1,8,0:0:0:0:
20,276,222485,1,0,0:0:0:0:
27,340,222578,1,0,0:0:0:0:
144,300,222763,1,0,0:0:0:0:
264,256,222948,1,0,0:0:0:0:
409,245,223133,5,8,0:0:0:0:
409,245,223226,1,0,0:0:0:0:
409,245,223319,1,0,0:0:0:0:
409,245,223411,1,0,0:0:0:0:
409,245,223504,1,0,0:0:0:0:
400,237,223596,1,0,0:0:0:0:
409,245,223689,1,0,0:0:0:0:
409,245,223782,1,0,0:0:0:0:
409,245,223874,5,8,0:0:0:0:
347,260,223967,1,0,0:0:0:0:
288,286,224059,1,0,0:0:0:0:
227,293,224152,1,0,0:0:0:0:
173,263,224245,2,0,P|291:217|384:240,1,188.999994232178
408,244,224615,5,8,0:0:0:0:
484,8,224800,1,0,0:0:0:0:
408,245,224985,2,0,L|472:272,2,62.9999980773926
184,132,225356,1,8,0:0:0:0:
120,124,225448,1,0,0:0:0:0:
60,144,225541,1,0,0:0:0:0:
168,208,225726,1,0,0:0:0:0:
280,272,225911,1,0,0:0:0:0:
36,208,226096,5,8,0:0:0:0:
280,272,226282,1,0,0:0:0:0:
432,72,226467,5,0,0:0:0:0:
432,72,226559,1,0,0:0:0:0:
432,72,226652,2,0,P|320:56|184:120,1,251.999992309571
152,152,227115,1,0,0:0:0:0:
111,199,227208,1,0,0:0:0:0:
94,259,227300,1,0,0:0:0:0:
94,259,227393,6,0,P|216:208|352:240,1,251.999992309571,8|0,0:0|0:0,0:0:0:0:
104,344,227948,1,0,0:0:0:0:
195,109,228133,1,0,0:0:0:0:
432,196,228319,1,8,0:0:0:0:
448,256,228411,1,0,0:0:0:0:
440,320,228504,1,0,0:0:0:0:
312,336,228689,1,0,0:0:0:0:
184,352,228874,1,0,0:0:0:0:
56,344,229059,5,8,0:0:0:0:
96,297,229152,1,0,0:0:0:0:
155,275,229245,1,0,0:0:0:0:
216,285,229337,1,0,0:0:0:0:
272,312,229430,5,8,0:0:0:0:
326,340,229522,1,0,0:0:0:0:
389,339,229615,1,0,0:0:0:0:
443,308,229708,1,0,0:0:0:0:
468,250,229800,5,8,0:0:0:0:
420,209,229893,1,0,0:0:0:0:
359,197,229985,1,0,0:0:0:0:
300,215,230078,1,0,0:0:0:0:
240,240,230170,6,0,L|211:290,7,31.4999990386963,8|0|0|0|0|0|0|0,1:0|0:0|0:0|0:0|0:0|0:0|0:0|0:0,0:0:0:0:
212,296,230541,5,8,0:0:0:0:
175,249,230633,1,0,0:0:0:0:
140,197,230726,1,0,0:0:0:0:
105,145,230819,1,0,0:0:0:0:
70,94,230911,1,0,0:0:0:0:
416,136,231282,5,8,0:0:0:0:
352,120,231374,1,2,0:2:0:0:
312,168,231467,1,0,0:0:0:0:
248,152,231559,1,2,0:2:0:0:
216,208,231652,1,0,0:0:0:0:
152,192,231745,1,2,0:2:0:0:
112,240,231837,1,0,0:0:0:0:
80,296,231930,1,0,0:0:0:0:
56,352,232022,6,0,L|32:288,2,62.9999980773926,8|0|0,0:0|0:0|0:0,0:0:0:0:
192,64,232393,1,8,0:2:0:0:
400,296,232578,1,8,0:2:0:0:
368,352,232670,1,0,0:0:0:0:
168,200,232856,5,0,0:0:0:0:
218,162,232948,1,0,0:0:0:0:
278,144,233041,1,0,0:0:0:0:
341,147,233133,1,0,0:0:0:0:
399,170,233226,1,0,0:0:0:0:
446,211,233319,1,8,0:0:0:0:
477,266,233411,1,0,0:0:0:0:
477,266,233504,5,8,0:2:0:0:
417,282,233596,1,0,0:0:0:0:
356,299,233689,1,0,0:0:0:0:
295,315,233782,1,0,0:0:0:0:
238,299,233874,1,0,0:0:0:0:
180,272,233967,1,0,0:0:0:0:
128,240,234059,1,0,0:0:0:0:
48,136,234245,6,0,L|72:60,2,62.9999980773926,8|0|0,0:0|0:0|0:0,0:0:0:0:
183,171,234615,1,0,0:0:0:0:
184,300,234800,1,0,0:0:0:0:
56,304,234985,5,8,0:0:0:0:
86,249,235078,1,0,0:0:0:0:
129,203,235170,1,0,0:0:0:0:
183,171,235263,1,0,0:0:0:0:
243,152,235356,1,0,0:0:0:0:
304,136,235448,1,0,0:0:0:0:
372,140,235541,1,0,0:0:0:0:
432,160,235633,1,0,0:0:0:0:
480,208,235726,5,8,0:0:0:0:
432,256,235819,1,0,0:0:0:0:
372,288,235911,1,0,0:0:0:0:
304,296,236004,1,0,0:0:0:0:
236,284,236096,1,0,0:0:0:0:
224,32,236467,5,8,0:0:0:0:
161,30,236559,1,0,0:0:0:0:
107,67,236652,1,0,0:0:0:0:
79,125,236745,1,0,0:0:0:0:
60,187,236837,1,0,0:0:0:0:
75,250,236930,1,0,0:0:0:0:
112,302,237022,1,0,0:0:0:0:
176,310,237115,1,0,0:0:0:0:
236,284,237208,5,8,0:0:0:0:
298,294,237300,1,0,0:0:0:0:
318,233,237393,1,0,0:0:0:0:
379,243,237485,1,0,0:0:0:0:
431,207,237578,1,0,0:0:0:0:
354,118,237763,1,0,0:0:0:0:
354,118,237856,1,0,0:0:0:0:
354,118,237948,2,0,L|305:170,1,62.9999980773926,8|0,0:0|0:0,0:0:0:0:
257,208,238133,2,0,L|208:165,1,62.9999980773926
155,123,238319,2,0,L|103:74,1,62.9999980773926
58,124,238504,2,0,L|15:169,1,62.9999980773926
62,213,238689,1,0,0:0:0:0:
86,233,238782,1,0,0:0:0:0:
109,254,238874,1,0,0:0:0:0:
134,275,238967,1,0,0:0:0:0:
159,297,239059,5,8,0:0:0:0:
226,304,239152,1,0,0:0:0:0:
280,263,239245,1,0,0:0:0:0:
301,199,239337,1,0,0:0:0:0:
269,141,239430,5,8,0:0:0:0:
220,180,239522,1,0,0:0:0:0:
158,196,239615,1,0,0:0:0:0:
104,162,239708,1,0,0:0:0:0:
91,100,239800,1,0,0:0:0:0:
128,47,239893,1,0,0:0:0:0:
187,27,239985,1,0,0:0:0:0:
252,28,240078,1,0,0:0:0:0:
314,44,240170,1,8,0:0:0:0:
361,87,240263,1,0,0:0:0:0:
384,148,240356,1,0,0:0:0:0:
370,209,240448,1,0,0:0:0:0:
332,260,240541,2,0,L|244:280,3,62.9999980773926
240,280,240911,5,8,0:0:0:0:
192,232,241003,1,0,0:0:0:0:
144,184,241096,1,0,0:0:0:0:
96,232,241188,1,0,0:0:0:0:
48,184,241282,5,8,0:0:0:0:
96,136,241374,1,0,0:0:0:0:
144,88,241467,1,0,0:0:0:0:
192,136,241559,1,0,0:0:0:0:
240,184,241652,5,8,0:0:0:0:
288,136,241745,1,0,0:0:0:0:
328,80,241837,1,0,0:0:0:0:
368,136,241930,1,0,0:0:0:0:
408,192,242022,6,0,L|432:232,7,33.7500012874604,8|0|0|0|0|0|0|0,0:0|0:0|0:0|0:0|0:0|0:0|0:0|0:0,0:0:0:0:
439,239,242393,6,0,L|344:312,1,90,8|0,0:0|0:0,0:0:0:0:
252,244,242763,1,0,0:0:0:0:
252,244,242856,1,0,0:0:0:0:
252,244,242948,1,0,0:0:0:0:
156,336,243133,1,8,0:0:0:0:
296,344,243319,1,2,0:0:0:0:
296,344,243411,1,2,0:0:0:0:
316,216,243596,1,2,0:0:0:0:
316,216,243689,1,0,0:0:0:0:
384,100,243874,6,0,L|280:84,1,90,8|0,0:0|0:0,0:0:0:0:
204,184,244245,1,0,1:0:0:0:
204,184,244337,1,0,0:0:0:0:
204,184,244430,1,0,1:0:0:0:
204,184,244522,1,0,0:0:0:0:
204,184,244615,5,0,1:0:0:0:
164,208,244708,1,2,0:0:0:0:
196,240,244800,1,0,1:0:0:0:
156,264,244893,1,2,0:0:0:0:
188,296,244985,1,0,1:0:0:0:
148,320,245078,1,2,0:0:0:0:
188,344,245170,1,0,1:0:0:0:
308,276,245356,6,0,L|388:188,1,90,8|0,0:0|0:0,0:0:0:0:
264,144,245726,1,0,0:0:0:0:
264,144,245819,1,0,0:0:0:0:
264,144,245911,1,0,0:0:0:0:
308,276,246096,1,8,0:0:0:0:
192,256,246282,1,2,0:0:0:0:
192,256,246374,1,2,0:0:0:0:
131,141,246559,1,2,0:0:0:0:
131,141,246652,1,0,0:0:0:0:
264,144,246837,6,0,L|328:256,1,90,8|0,0:0|0:0,0:0:0:0:
440,172,247208,1,0,1:0:0:0:
440,172,247300,1,0,0:0:0:0:
440,172,247393,1,0,1:0:0:0:
440,172,247485,1,0,0:0:0:0:
440,172,247578,5,0,1:0:0:0:
400,196,247670,1,2,0:0:0:0:
432,228,247763,1,0,1:0:0:0:
392,252,247856,1,2,0:0:0:0:
424,284,247948,1,0,1:0:0:0:
384,308,248041,1,2,0:0:0:0:
424,332,248133,1,0,1:0:0:0:
316,248,248319,6,0,L|204:216,1,90,8|0,0:0|0:0,0:0:0:0:
340,144,248689,1,0,0:0:0:0:
340,144,248782,1,0,0:0:0:0:
340,144,248874,1,0,0:0:0:0:
452,220,249059,1,8,0:0:0:0:
452,88,249245,1,2,0:0:0:0:
452,88,249337,1,2,0:0:0:0:
324,64,249522,1,2,0:0:0:0:
324,64,249615,1,0,0:0:0:0:
232,164,249800,6,0,L|168:228,1,90,8|0,0:0|0:0,0:0:0:0:
104,132,250170,1,0,1:0:0:0:
104,132,250263,1,0,0:0:0:0:
104,132,250356,1,0,1:0:0:0:
104,132,250448,1,0,0:0:0:0:
104,132,250541,5,0,1:0:0:0:
64,156,250633,1,2,0:0:0:0:
96,188,250726,1,0,1:0:0:0:
56,212,250819,1,2,0:0:0:0:
88,244,250911,1,0,1:0:0:0:
48,268,251004,1,2,0:0:0:0:
88,292,251096,1,0,1:0:0:0:
264,240,251282,6,0,B|296:144,1,90,8|0,0:0|0:0,0:0:0:0:
388,268,251652,1,0,0:0:0:0:
388,268,251745,1,0,0:0:0:0:
388,268,251837,1,0,0:0:0:0:
260,312,252022,1,8,0:0:0:0:
136,352,252208,1,2,0:0:0:0:
136,352,252300,1,2,0:0:0:0:
176,228,252485,1,2,0:0:0:0:
176,228,252578,1,0,0:0:0:0:
56,164,252763,6,0,L|116:80,1,90,8|0,0:0|0:0,0:0:0:0:
248,136,253133,1,0,1:0:0:0:
248,136,253226,1,0,0:0:0:0:
248,136,253319,1,0,1:0:0:0:
248,136,253411,1,0,0:0:0:0:
265,151,253504,6,0,L|288:151,7,22.5,8|0|0|0|0|0|0|0,1:0|0:0|0:0|0:0|0:0|0:0|0:0|0:0,0:0:0:0:
225,199,253874,2,0,L|203:199,7,22.5,8|0|0|0|0|0|0|0,1:0|0:0|0:0|0:0|0:0|0:0|0:0|0:0,0:0:0:0:
283,225,254245,6,0,L|328:308,1,90
432,156,254615,1,0,0:0:0:0:
388,156,254708,1,0,0:0:0:0:
344,168,254800,1,0,0:0:0:0:
232,316,254985,1,8,0:0:0:0:
149,290,255170,1,0,0:0:0:0:
126,249,255263,1,0,0:0:0:0:
118,205,255356,1,0,0:0:0:0:
121,161,255448,1,0,0:0:0:0:
137,119,255541,1,0,0:0:0:0:
283,225,255726,6,0,L|239:321,1,90,8|0,0:0|0:0,0:0:0:0:
381,184,256096,1,0,0:0:0:0:
363,225,256189,1,0,0:0:0:0:
347,267,256282,1,0,0:0:0:0:
168,224,256467,1,8,0:0:0:0:
124,52,256652,1,0,0:0:0:0:
124,52,257022,1,8,0:0:0:0:
268,164,257208,6,0,L|172:108,1,90,8|0,0:0|0:0,0:0:0:0:
285,270,257578,1,0,0:0:0:0:
324,247,257670,1,0,0:0:0:0:
363,225,257763,1,0,0:0:0:0:
200,303,257948,1,8,0:0:0:0:
116,265,258133,1,0,0:0:0:0:
89,229,258226,1,0,0:0:0:0:
74,186,258319,1,0,0:0:0:0:
73,141,258411,1,0,0:0:0:0:
86,98,258504,1,0,0:0:0:0:
256,152,258689,6,0,L|328:232,1,90,8|0,0:0|0:0,0:0:0:0:
144,168,259059,1,0,0:0:0:0:
174,201,259152,1,0,0:0:0:0:
204,234,259245,1,0,0:0:0:0:
272,296,259430,1,8,0:0:0:0:
320,120,259615,1,0,0:0:0:0:
320,120,259985,1,8,0:0:0:0:
92,128,260170,6,0,P|68:192|84:256,1,112.5,8|0,0:0|0:0,0:0:0:0:
292,192,260541,1,0,0:0:0:0:
235,192,260633,1,0,0:0:0:0:
179,192,260726,1,0,0:0:0:0:
368,72,260911,1,8,0:0:0:0:
440,160,261096,1,0,0:0:0:0:
425,214,261189,1,0,0:0:0:0:
394,261,261282,1,0,0:0:0:0:
351,296,261374,1,0,0:0:0:0:
299,317,261467,1,0,0:0:0:0:
309,94,261652,6,0,P|247:76|172:88,1,112.5,8|0,0:0|0:0,0:0:0:0:
224,306,262022,1,0,0:0:0:0:
227,247,262115,1,0,0:0:0:0:
235,192,262208,1,0,0:0:0:0:
372,352,262393,1,8,0:0:0:0:
156,296,262578,1,0,0:0:0:0:
156,296,262948,1,8,0:0:0:0:
341,174,263133,6,0,P|279:197|207:179,1,112.5,8|0,0:0|0:0,0:0:0:0:
72,52,263504,1,0,0:0:0:0:
120,80,263596,1,0,0:0:0:0:
168,109,263689,1,0,0:0:0:0:
348,246,263874,1,8,0:0:0:0:
453,289,264059,1,0,0:0:0:0:
403,315,264152,1,0,0:0:0:0:
349,328,264245,1,0,0:0:0:0:
293,328,264337,1,0,0:0:0:0:
238,313,264430,5,0,0:0:0:0:
172,227,264615,2,0,P|138:271|133:332,1,112.5,8|0,0:0|0:0,0:0:0:0:
348,246,264985,1,8,0:0:0:0:
393,214,265078,1,0,0:0:0:0:
416,163,265170,1,0,0:0:0:0:
411,108,265263,1,0,0:0:0:0:
378,63,265356,2,0,P|268:22|164:70,1,225,8|0,0:0|0:0,0:0:0:0:
132,98,265819,1,0,0:0:0:0:
104,146,265911,1,0,0:0:0:0:
