osu file format v14

[General]
AudioFilename: ZUN - Crimson Belvedere ~ Eastern Dream....mp3
AudioLeadIn: 0
PreviewTime: 36320
Countdown: 0
SampleSet: Soft
StackLeniency: 0.6
Mode: 0
LetterboxInBreaks: 0
WidescreenStoryboard: 0

[Editor]
DistanceSpacing: 1
BeatDivisor: 4
GridSize: 4
TimelineZoom: 1.2

[Metadata]
Title:Crimson Belvedere ~ Eastern Dream...
TitleUnicode:紅楼 ~ Eastern Dream...
Artist:ZUN
ArtistUnicode:ZUN
Creator:tokiko
Version:Easy
Source:東方紅魔郷 ~ the Embodiment of Scarlet Devil.
Tags:Touhou Project EoSD TH06 Team Shanghai Alice Credits Staff Roll theme
BeatmapID:1484252
BeatmapSetID:701251

[Difficulty]
HPDrainRate:2
CircleSize:3
OverallDifficulty:2
ApproachRate:2
SliderMultiplier:1
SliderTickRate:1

[Events]
//Background and Video events
0,0,"bg.jpg",0,0
//Break Periods
2,33496,34760
2,66985,80108
//Storyboard Layer 0 (Background)
//Storyboard Layer 1 (Fail)
//Storyboard Layer 2 (Pass)
//Storyboard Layer 3 (Foreground)
//Storyboard Sound Samples

[TimingPoints]
1669,465.116279069767,4,2,0,80,1,0
37017,-100,4,2,0,80,0,1
66785,-100,4,2,0,80,0,0

[Colours]
Combo1 : 155,185,169
Combo2 : 120,196,220

[HitObjects]
160,164,2599,6,0,P|144:116|160:60,2,100,0|2|4,0:0|0:0|0:0,0:0:0:0:
380,160,4459,2,0,P|396:112|380:56,2,100,0|2|0,0:0|0:0|0:0,0:0:0:0:
256,344,6320,6,0,L|256:244,1,100,0|2,0:0|0:0,0:0:0:0:
168,180,7250,2,0,P|248:140|360:192,2,200
360,308,10041,6,0,P|416:308|456:288,2,100,0|2|0,0:0|0:0|0:0,0:0:0:0:
140,308,11901,2,0,P|84:308|44:288,2,100,0|2|0,0:0|0:0|0:0,0:0:0:0:
256,124,13762,6,0,L|256:12,1,100,0|2,0:0|0:0,0:0:0:0:
148,24,14692,2,0,P|100:24|100:144,2,200
364,72,17482,6,0,P|316:88|260:72,2,100,0|2|0,0:0|0:0|0:0,0:0:0:0:
364,292,19343,2,0,P|316:276|260:292,2,100,0|2|0,0:0|0:0|0:0,0:0:0:0:
208,136,21203,6,0,L|104:136,2,100,0|2|0,0:0|0:0|0:0,0:0:0:0:
204,356,23064,2,0,L|104:356,2,100,0|2|0,0:0|0:0|0:0,0:0:0:0:
316,168,24924,6,0,P|328:120|316:64,2,100,0|2|0,0:0|0:0|0:0,0:0:0:0:
100,120,26785,2,0,L|204:120,1,100,0|2,0:0|0:0,0:0:0:0:
308,120,27715,6,0,L|412:120,2,100,0|2|0,0:0|0:0|0:0,0:0:0:0:
200,120,29110,1,6,0:0:0:0:
256,192,29343,12,2,33296,0:3:0:0:
112,336,36320,6,0,L|64:352,2,50,2|2|2,0:0|0:0|0:0,0:0:0:0:
164,324,37017,6,0,P|212:324|268:344,1,100,12|8,0:0|0:0,0:0:0:0:
320,248,37948,2,0,P|280:248|232:232,1,75,10|2,0:0|0:0,0:0:0:0:
184,184,38645,2,0,P|167:147|312:104,1,250,2|8,0:0|0:0,0:0:0:0:
340,136,40041,2,0,L|404:128,2,50,2|2|2,0:0|0:0|0:0,0:0:0:0:
312,184,40738,6,0,P|304:236|320:292,1,100,12|8,0:0|0:0,0:0:0:0:
208,308,41668,2,0,P|218:266|214:222,1,75,10|2,0:0|0:0,0:0:0:0:
156,180,42366,2,0,B|256:108|256:220|356:164,1,200,2|0,0:0|0:0,0:0:0:0:
432,108,43762,2,0,L|428:56,2,50,2|2|2,0:0|0:0|0:0,0:0:0:0:
472,144,44459,6,0,P|484:192|464:248,1,100,12|8,0:0|0:0,0:0:0:0:
396,320,45389,2,0,P|368:312|320:312,1,75,10|2,0:0|0:0,0:0:0:0:
244,344,46087,2,0,P|212:348|208:228,1,200,2|0,0:0|0:0,0:0:0:0:
256,132,47482,2,0,L|256:72,2,50,2|2|2,0:0|0:0|0:0,0:0:0:0:
296,172,48180,6,0,P|336:176|384:168,2,75,12|2|8,0:0|0:0|0:0,0:0:0:0:
264,220,49110,2,0,P|288:248|304:284,1,75,12|2,0:0|0:0,0:0:0:0:
300,364,49808,2,0,B|176:388|176:320|32:372,1,250,12|0,0:0|0:0,0:0:0:0:
224,224,51901,6,0,P|220:184|244:124,1,100,12|8,0:0|0:0,0:0:0:0:
148,68,52831,2,0,P|152:108|140:140,1,75,8|2,0:0|0:0,0:0:0:0:
88,204,53529,2,0,P|72:228|204:280,1,250,2|8,3:2|3:2,0:0:0:0:
224,232,54924,2,0,L|220:180,2,50,2|2|2,3:2|0:0|3:2,0:0:0:0:
276,252,55622,6,0,P|328:260|384:248,1,100,12|8,0:0|0:0,0:0:0:0:
444,168,56552,2,0,P|408:168|372:152,1,75,8|2,0:0|0:0,0:0:0:0:
316,92,57250,2,0,B|220:44|224:144|108:88,1,200,2|0,3:2|3:0,0:0:0:0:
16,88,58645,2,0,L|12:38,2,50,2|2|2,3:2|0:0|3:2,0:0:0:0:
40,136,59343,6,0,P|48:184|28:240,1,100,12|8,0:0|0:0,0:0:0:0:
144,228,60273,2,0,P|168:216|216:208,1,75,8|2,0:0|0:0,0:0:0:0:
296,232,60971,2,0,P|344:232|340:116,1,200,2|0,3:2|3:0,0:0:0:0:
240,72,62366,2,0,L|240:20,2,50,2|2|2,3:2|0:0|3:2,0:0:0:0:
204,112,63064,6,0,P|164:116|120:108,2,75,12|2|8,0:0|0:0|3:2,0:0:0:0:
224,164,63994,2,0,B|188:180|164:212,1,75,12|2,0:0|0:0,0:0:0:0:
132,284,64692,1,12,3:2:0:0:
256,192,64924,12,0,66785,0:0:0:0:
96,76,81668,6,0,L|96:184,1,100,12|2,0:0|0:0,0:0:0:0:
208,172,82599,2,0,L|208:84,1,75,8|2,0:0|0:0,0:0:0:0:
292,96,83296,2,0,L|292:300,1,200,12|0,0:0|0:0,0:0:0:0:
404,296,84692,2,0,L|404:352,2,50,8|2|8,0:0|0:0|0:0,0:0:0:0:
460,292,85389,6,0,L|460:188,1,100,12|0,0:0|0:0,0:0:0:0:
348,192,86320,2,0,L|260:192,1,75,8|2,0:0|0:0,0:0:0:0:
272,108,87017,2,0,L|488:108,1,200,12|10,0:0|0:0,0:0:0:0:
416,9,88413,2,0,L|468:9,2,50,8|2|8,0:0|0:0|0:0,0:0:0:0:
360,9,89110,6,0,L|360:113,1,100,12|2,0:0|0:0,0:0:0:0:
248,108,90041,2,0,L|248:16,1,75,8|2,0:0|0:0,0:0:0:0:
164,32,90738,2,0,L|164:236,1,200,12|10,0:0|0:0,0:0:0:0:
64,184,92134,2,0,L|64:234,2,50,8|2|8,0:0|0:0|0:0,0:0:0:0:
64,128,92831,6,0,L|64:44,2,75,12|2|8,0:0|0:0|0:0,0:0:0:0:
120,128,93762,2,0,L|120:44,1,75,8|2,0:0|0:0,0:0:0:0:
204,52,94459,1,12,0:0:0:0:
256,192,94692,12,0,96552,0:0:0:0:
