osu file format v14

[General]
AudioFilename: audio.mp3
AudioLeadIn: 0
PreviewTime: 15068
Countdown: 0
SampleSet: Soft
StackLeniency: 0.7
Mode: 0
LetterboxInBreaks: 0
WidescreenStoryboard: 1

[Editor]
DistanceSpacing: 2
BeatDivisor: 3
GridSize: 4
TimelineZoom: 1

[Metadata]
Title:Chiisana Chiisana Kenshou
TitleUnicode:小さな小さな賢将
Artist:ZUN
ArtistUnicode:ZUN
Creator:Leader
Version:Lunatic
Source:東方星蓮船 ~ Undefined Fantastic Object.
Tags:Greenshell Grünschale 東方Project Touhou th12 UFO Seirensen Stage Theme A Tiny, Clever Commander Nazrin ナズーリン Video Game Instrumental
BeatmapID:2313049
BeatmapSetID:1011097

[Difficulty]
HPDrainRate:6
CircleSize:4
OverallDifficulty:8
ApproachRate:9
SliderMultiplier:1.6
SliderTickRate:1

[Events]
//Background and Video events
0,0,"bg.jpg",0,0
//Break Periods
//Storyboard Layer 0 (Background)
//Storyboard Layer 1 (Fail)
//Storyboard Layer 2 (Pass)
//Storyboard Layer 3 (Foreground)
//Storyboard Layer 4 (Overlay)
//Storyboard Sound Samples

[TimingPoints]
245,352.941176470588,3,2,1,40,1,0
245,-133.333333333333,3,2,1,40,0,0
774,-133.333333333333,3,2,1,45,0,0
1303,-133.333333333333,3,2,1,50,0,0
1833,-133.333333333333,3,2,1,55,0,0
2362,-133.333333333333,3,2,1,60,0,0
2892,-133.333333333333,3,2,1,65,0,0
3421,-133.333333333333,3,2,1,70,0,0
3950,-133.333333333333,3,2,1,75,0,0
4480,-100,3,2,1,80,0,0
7127,-100,3,2,1,75,0,0
7656,-100,3,2,1,70,0,0
8186,-100,3,2,1,65,0,0
8715,-100,3,2,1,60,0,0
9244,-100,3,2,1,55,0,0
9774,-100,3,2,1,50,0,0
10303,-100,3,2,1,45,0,0
10833,-100,3,2,1,40,0,0
11362,-133.333333333333,3,2,1,35,0,0
11892,-200,3,2,1,30,0,0
12244,-200,3,2,1,40,0,0
12597,-100,3,2,1,50,0,0
12774,-100,3,2,1,60,0,0
12950,-100,3,2,1,70,0,0
13303,-100,3,2,1,80,0,0
13656,-100,3,2,1,40,0,0
14009,-100,3,2,1,20,0,0
14362,-100,3,2,1,5,0,0
14715,-100,3,2,1,50,0,0
14815,-100,3,2,1,60,0,0
14892,-100,3,2,1,60,0,0
15068,-100,3,2,1,70,0,0
30068,-100,3,2,1,60,0,0
30244,-100,3,2,1,50,0,0
30421,-100,3,2,1,70,0,0
30597,-100,3,2,1,60,0,0
30774,-100,3,2,1,50,0,0
30950,-100,3,2,1,70,0,0
31127,-100,3,2,1,60,0,0
31303,-100,3,2,1,50,0,0
31480,-100,3,2,1,70,0,0
31656,-100,3,2,1,60,0,0
31833,-100,3,2,1,50,0,0
32009,-100,3,2,1,70,0,0
32186,-100,3,2,1,60,0,0
32362,-100,3,2,1,50,0,0
32539,-100,3,2,1,70,0,0
32715,-100,3,2,1,60,0,0
32892,-100,3,2,1,50,0,0
33068,-100,3,2,1,70,0,0
33244,-100,3,2,1,60,0,0
33421,-100,3,2,1,50,0,0
33597,-100,3,2,1,70,0,0
33774,-100,3,2,1,60,0,0
33950,-100,3,2,1,50,0,0
34127,-100,3,2,1,70,0,0
34303,-100,3,2,1,60,0,0
34480,-100,3,2,1,50,0,0
34656,-100,3,2,1,70,0,0
34833,-100,3,2,1,60,0,0
35009,-100,3,2,1,50,0,0
35186,-100,3,2,1,70,0,0
35362,-100,3,2,1,60,0,0
35539,-100,3,2,1,50,0,0
35715,-100,3,2,1,70,0,0
35892,-100,3,2,1,60,0,0
36068,-100,3,2,1,50,0,0
36244,-100,3,2,1,80,0,1
38362,-100,3,2,1,80,0,0
38892,-100,3,2,1,75,0,0
39421,-100,3,2,1,70,0,0
39950,-100,3,2,1,65,0,0
40480,-100,3,2,1,60,0,0
41009,-100,3,2,1,55,0,0
41539,-100,3,2,1,50,0,0
42068,-100,3,2,1,45,0,0
42597,-100,3,2,1,40,0,0
43127,-100,3,2,1,35,0,0
43656,-100,3,2,1,30,0,0
44186,-100,3,2,1,40,0,0
44362,-100,3,2,1,50,0,0
44539,-100,3,2,1,60,0,0
44715,-100,3,2,1,70,0,0
58303,-100,3,2,1,60,0,0
58480,-100,3,2,1,50,0,0
58833,-100,3,2,1,60,0,0
59186,-100,3,2,1,70,0,0
59539,-100,3,2,1,80,0,0
59892,-100,3,2,1,70,0,0
60244,-100,3,2,1,60,0,0
60597,-100,3,2,1,50,0,0
60774,-100,3,2,1,60,0,0
60950,-100,3,2,1,70,0,0
77715,-100,3,2,1,60,0,0
77892,-100,3,2,1,50,0,0
78068,-100,3,2,1,70,0,0
78244,-100,3,2,1,60,0,0
78421,-100,3,2,1,50,0,0
78597,-100,3,2,1,70,0,0
78774,-100,3,2,1,60,0,0
78950,-100,3,2,1,50,0,0
79127,-100,3,2,1,70,0,0
79303,-100,3,2,1,60,0,0
79480,-100,3,2,1,50,0,0
79656,-100,3,2,1,70,0,0
79833,-100,3,2,1,60,0,0
80009,-100,3,2,1,50,0,0
80186,-100,3,2,1,70,0,0
80362,-100,3,2,1,60,0,0
80539,-100,3,2,1,50,0,0
80715,-100,3,2,1,70,0,0
80892,-100,3,2,1,60,0,0
81068,-100,3,2,1,50,0,0
81244,-100,3,2,1,70,0,0
81421,-100,3,2,1,60,0,0
81597,-100,3,2,1,50,0,0
81774,-100,3,2,1,70,0,0
81950,-100,3,2,1,60,0,0
82127,-100,3,2,1,50,0,0
82303,-100,3,2,1,70,0,0
82480,-100,3,2,1,60,0,0
82656,-100,3,2,1,50,0,0
82833,-100,3,2,1,70,0,0
83009,-100,3,2,1,60,0,0
83186,-100,3,2,1,50,0,0
83362,-100,3,2,1,70,0,0
83539,-100,3,2,1,60,0,0
83715,-100,3,2,1,50,0,0
83892,-100,3,2,1,80,0,1
86009,-100,3,2,1,80,0,0
86539,-100,3,2,1,75,0,0
87068,-100,3,2,1,70,0,0
87597,-100,3,2,1,65,0,0
88127,-100,3,2,1,60,0,0
88656,-100,3,2,1,55,0,0
89186,-100,3,2,1,50,0,0
89715,-100,3,2,1,45,0,0
90244,-100,3,2,1,40,0,0
90774,-100,3,2,1,35,0,0
91303,-100,3,2,1,30,0,0
91833,-100,3,2,1,40,0,0
92009,-100,3,2,1,50,0,0
92186,-100,3,2,1,60,0,0
92362,-100,3,2,1,70,0,0
92715,-100,3,2,1,80,0,0
93068,-100,3,2,1,70,0,0
93421,-100,3,2,1,60,0,0
93774,-100,3,2,1,50,0,0
94127,-100,3,2,1,40,0,0
94480,-100,3,2,1,70,0,0

[Colours]
Combo1 : 183,40,40
Combo2 : 249,211,100
Combo3 : 236,139,51
Combo4 : 228,72,33

[HitObjects]
151,163,245,6,0,L|77:148,2,60.0000022888184,6|0|2,0:0|0:0|0:0,0:0:0:0:
262,193,774,2,0,L|336:208,2,60.0000022888184,2|0|2,0:0|0:0|0:0,0:0:0:0:
228,106,1303,2,0,L|243:32,2,60.0000022888184,2|0|2,0:0|0:0|0:0,0:0:0:0:
189,241,1833,2,0,L|174:315,2,60.0000022888184,2|0|2,0:0|0:0|0:0,0:0:0:0:
105,143,2362,5,6,0:0:0:0:
105,143,2539,1,0,0:0:0:0:
105,143,2715,1,2,0:0:0:0:
235,196,2892,1,2,0:0:0:0:
235,196,3068,1,0,0:0:0:0:
235,196,3244,1,2,0:0:0:0:
96,336,3421,5,2,0:0:0:0:
93,320,3597,1,0,0:0:0:0:
91,304,3774,1,2,0:0:0:0:
235,196,3950,1,2,0:0:0:0:
238,180,4127,1,0,0:0:0:0:
240,164,4303,1,2,0:0:0:0:
97,50,4480,6,0,P|109:119|117:214,1,160,4|2,0:0|0:0,0:0:0:0:
115,337,5009,2,0,B|186:315|195:377|289:350,1,160,4|2,0:0|0:0,0:0:0:0:
377,302,5539,2,0,L|388:120,1,160,4|2,0:0|0:0,0:0:0:0:
422,57,6068,2,0,P|336:66|305:135,1,160,4|2,0:0|0:0,0:0:0:0:
297,233,6597,6,0,L|216:242,1,80,4|0,0:0|0:0,0:0:0:0:
65,211,6950,1,2,0:0:0:0:
130,290,7127,1,2,0:0:0:0:
166,198,7303,1,0,0:0:0:0:
166,198,7392,1,0,0:0:0:0:
166,198,7480,1,2,0:0:0:0:
257,344,7656,5,2,0:0:0:0:
257,344,7833,1,0,0:0:0:0:
257,344,8009,1,2,0:0:0:0:
358,384,8186,1,2,0:0:0:0:
362,286,8362,1,0,0:0:0:0:
362,286,8450,1,0,0:0:0:0:
362,286,8539,1,2,0:0:0:0:
463,344,8715,6,0,P|474:298|458:175,1,160,6|2,0:0|0:0,0:0:0:0:
345,61,9244,1,2,0:0:0:0:
420,108,9421,1,0,0:0:0:0:
425,22,9597,1,2,0:0:0:0:
257,102,9774,6,0,P|182:107|92:35,1,160,2|2,0:0|0:0,0:0:0:0:
205,30,10303,1,2,0:0:0:0:
205,30,10480,1,0,0:0:0:0:
205,30,10656,1,2,0:0:0:0:
129,238,10833,6,0,P|88:236|35:225,2,80,2|0|2,0:0|0:0|0:0,0:0:0:0:
222,297,11362,6,0,L|212:363,2,60.0000022888184,2|0|2,0:0|0:0|0:0,0:0:0:0:
315,218,11892,6,0,L|309:175,2,40,2|0|2,0:0|0:0|0:0,0:0:0:0:
332,314,12421,1,0,0:0:0:0:
394,110,12597,5,0,3:0:0:0:
391,90,12686,1,0,3:0:0:0:
389,70,12774,1,0,3:0:0:0:
387,50,12862,1,0,3:0:0:0:
385,30,12950,1,0,3:0:0:0:
290,211,13127,1,0,0:0:0:0:
165,50,13303,5,4,0:0:0:0:
256,192,13392,12,0,14362,0:0:0:0:
97,308,14715,5,0,3:0:0:0:
97,308,14803,1,0,3:0:0:0:
97,308,14892,1,0,3:0:0:0:
97,308,14980,1,0,3:0:0:0:
97,308,15068,2,0,B|169:289|171:349|257:321,1,160,4|2,0:0|0:0,0:0:0:0:
346,287,15597,1,8,0:0:0:0:
410,350,15774,2,0,L|500:363,1,80,2|0,0:0|0:0,0:0:0:0:
380,195,16127,5,2,0:0:0:0:
463,210,16303,1,0,0:0:0:0:
302,163,16480,1,2,0:0:0:0:
504,134,16656,1,8,0:0:0:0:
363,99,16833,1,2,0:0:0:0:
463,210,17009,1,0,0:0:0:0:
252,243,17186,6,0,P|224:198|246:80,1,160,2|2,0:0|0:0,0:0:0:0:
391,152,17715,1,8,0:0:0:0:
391,152,17803,1,0,0:0:0:0:
391,152,17892,2,0,L|304:163,1,80,2|0,0:0|0:0,0:0:0:0:
126,40,18244,6,0,P|140:82|142:169,1,120,2|0,0:0|0:0,0:0:0:0:
146,191,18597,2,0,L|43:207,1,80,2|8,0:0|0:0,0:0:0:0:
47,106,18950,1,10,0:0:0:0:
47,106,19127,1,8,0:0:0:0:
157,318,19303,6,0,L|343:331,1,160,0|2,0:0|0:0,0:0:0:0:
470,225,19833,1,8,0:0:0:0:
398,206,20009,1,2,0:0:0:0:
453,153,20186,1,0,0:0:0:0:
327,270,20362,6,0,P|304:229|333:114,1,160,2|2,0:0|0:0,0:0:0:0:
398,206,20892,1,8,0:0:0:0:
398,206,20980,1,0,0:0:0:0:
398,206,21068,1,2,0:0:0:0:
222,259,21244,1,0,0:0:0:0:
443,123,21421,6,0,L|449:19,1,80,2|0,0:0|0:0,0:0:0:0:
398,206,21774,2,0,L|402:285,1,80,2|8,0:0|0:0,0:0:0:0:
499,216,22127,1,2,0:0:0:0:
499,216,22215,1,2,0:0:0:0:
315,261,22392,5,2,0:0:0:0:
315,261,22480,2,0,L|226:272,1,80,2|0,0:0|0:0,0:0:0:0:
60,102,22833,2,0,P|111:105|155:212,1,160,2|2,0:0|0:0,0:0:0:0:
72,196,23362,1,0,0:0:0:0:
216,351,23539,6,0,L|363:360,1,120,2|0,0:0|0:0,0:0:0:0:
363,355,23892,1,2,0:0:0:0:
320,262,24068,1,8,0:0:0:0:
456,313,24244,2,0,P|458:257|471:176,1,120,2|0,0:0|0:0,0:0:0:0:
480,160,24597,6,0,L|385:174,1,80,2|0,0:0|0:0,0:0:0:0:
288,64,24950,1,2,0:0:0:0:
288,64,25039,1,0,0:0:0:0:
288,64,25127,1,8,0:0:0:0:
327,139,25303,1,0,0:0:0:0:
397,84,25480,1,0,0:0:0:0:
249,176,25656,6,0,P|198:182|95:105,1,160,2|2,0:0|0:0,0:0:0:0:
194,91,26186,1,8,0:0:0:0:
115,241,26362,2,0,L|30:254,1,80,2|0,0:0|0:0,0:0:0:0:
196,341,26715,6,0,L|349:352,1,120,2|0,0:0|0:0,0:0:0:0:
349,350,27068,1,2,0:0:0:0:
312,268,27244,1,8,0:0:0:0:
408,284,27421,1,2,0:0:0:0:
408,284,27509,1,0,0:0:0:0:
408,284,27597,1,0,0:0:0:0:
366,192,27774,6,0,L|267:174,2,80,2|0|2,0:0|0:0|0:0,0:0:0:0:
413,107,28303,2,0,L|512:89,2,80,8|2|0,0:0|0:0|0:0,0:0:0:0:
290,54,28833,1,2,0:0:0:0:
288,68,29009,1,0,0:0:0:0:
286,83,29186,1,2,0:0:0:0:
96,129,29362,1,8,0:0:0:0:
94,109,29450,1,0,0:0:0:0:
92,89,29539,1,8,0:0:0:0:
90,69,29627,1,0,0:0:0:0:
88,50,29715,1,8,0:0:0:0:
154,227,29892,5,6,0:0:0:0:
154,227,30068,1,0,0:0:0:0:
154,227,30244,1,2,0:0:0:0:
48,268,30421,1,2,0:0:0:0:
48,268,30597,1,0,0:0:0:0:
48,268,30774,1,2,0:0:0:0:
127,338,30950,5,2,0:0:0:0:
147,344,31127,1,0,0:0:0:0:
167,350,31303,1,2,0:0:0:0:
237,270,31480,1,2,0:0:0:0:
257,264,31656,1,0,0:0:0:0:
277,258,31833,1,2,0:0:0:0:
405,351,32009,6,0,P|411:295|401:175,1,160,6|2,0:0|0:0,0:0:0:0:
378,80,32539,1,2,0:0:0:0:
462,111,32715,1,0,0:0:0:0:
444,28,32892,1,2,0:0:0:0:
308,135,33068,6,0,P|251:147|213:147,1,80,6|0,0:0|0:0,0:0:0:0:
259,66,33421,1,2,0:0:0:0:
174,221,33597,2,0,L|84:230,1,80,0|2,0:0|0:0,0:0:0:0:
35,152,33950,1,2,0:0:0:0:
160,327,34127,5,6,0:0:0:0:
160,327,34303,1,0,0:0:0:0:
160,327,34480,1,2,0:0:0:0:
272,261,34656,1,2,0:0:0:0:
272,261,34833,1,0,0:0:0:0:
272,261,35009,1,2,0:0:0:0:
360,346,35186,6,0,L|454:358,1,80,6|0,0:0|0:0,0:0:0:0:
417,161,35539,1,2,0:0:0:0:
473,225,35715,1,2,0:0:0:0:
388,243,35892,1,0,3:0:0:0:
388,243,35980,1,0,3:0:0:0:
388,243,36068,1,2,3:2:0:0:
321,179,36244,6,0,P|308:118|312:13,1,160,4|0,0:0|0:0,0:0:0:0:
201,20,36774,2,0,P|205:100|191:179,1,160,4|0,0:0|0:0,0:0:0:0:
228,267,37303,2,0,P|162:268|81:189,1,160,4|0,0:0|0:0,0:0:0:0:
131,96,37833,2,0,P|197:95|278:174,1,160,4|0,0:0|0:0,0:0:0:0:
346,338,38362,6,0,P|413:360|481:177,1,320,4|0,0:0|0:0,0:0:0:0:
482,178,39156,1,0,0:0:0:0:
482,178,39244,1,2,0:0:0:0:
410,253,39421,5,2,0:0:0:0:
378,152,39597,1,0,0:0:0:0:
378,152,39774,1,2,0:0:0:0:
303,227,39950,5,2,0:0:0:0:
456,80,40127,1,0,0:0:0:0:
456,80,40215,1,0,0:0:0:0:
456,80,40303,1,2,0:0:0:0:
512,287,40480,5,2,0:0:0:0:
447,219,40656,1,0,0:0:0:0:
447,219,40833,1,2,0:0:0:0:
416,315,41009,5,2,0:0:0:0:
416,315,41186,1,0,0:0:0:0:
344,245,41362,1,2,0:0:0:0:
322,346,41539,5,2,0:0:0:0:
250,283,41715,1,0,0:0:0:0:
250,283,41892,1,2,0:0:0:0:
177,377,42068,5,2,0:0:0:0:
174,366,42244,1,0,0:0:0:0:
172,356,42421,1,2,0:0:0:0:
74,305,42597,5,2,0:0:0:0:
71,316,42774,1,0,0:0:0:0:
69,326,42950,1,2,0:0:0:0:
154,260,43127,5,2,0:0:0:0:
154,260,43303,1,0,0:0:0:0:
154,260,43480,1,2,0:0:0:0:
52,223,43656,5,2,0:0:0:0:
52,223,43833,1,0,0:0:0:0:
52,223,44009,1,2,0:0:0:0:
133,150,44186,5,2,0:0:0:0:
207,307,44362,1,0,3:0:0:0:
226,309,44450,1,0,3:0:0:0:
246,311,44539,1,0,3:0:0:0:
266,313,44627,1,0,3:0:0:0:
286,315,44715,1,0,3:0:0:0:
432,380,44892,1,0,3:0:0:0:
463,218,45068,6,0,P|460:154|473:24,1,160,4|0,0:0|0:0,0:0:0:0:
324,43,45597,2,0,L|333:21,3,20,2|0|0|0,0:0|0:0|0:0|0:0,0:0:0:0:
313,58,45774,6,0,P|269:65|223:74,1,80,6|0,0:0|0:0,0:0:0:0:
73,107,46127,1,2,0:0:0:0:
135,52,46303,1,8,0:0:0:0:
170,129,46480,2,0,P|178:173|184:222,1,80,2|0,0:0|0:0,0:0:0:0:
207,353,46833,5,2,0:0:0:0:
281,297,47009,1,0,0:0:0:0:
352,373,47186,1,2,0:0:0:0:
352,373,47274,1,0,0:0:0:0:
352,373,47362,1,8,0:0:0:0:
381,276,47539,1,2,0:0:0:0:
462,351,47715,1,0,0:0:0:0:
308,198,47892,6,0,P|298:127|305:22,1,160,2|8,0:0|0:0,0:0:0:0:
384,21,48362,2,0,L|450:14,1,53.3333333333333,2|0,0:0|0:0,0:0:0:0:
461,100,48597,2,0,L|373:111,1,80,2|0,0:0|0:0,0:0:0:0:
288,241,48950,2,0,L|373:253,1,80,4|0,0:0|0:0,0:0:0:0:
408,356,49303,1,2,0:0:0:0:
408,356,49392,1,0,0:0:0:0:
408,356,49480,1,8,0:0:0:0:
473,227,49656,2,0,L|513:219,2,40,8|0|8,0:0|0:0|0:0,0:0:0:0:
300,357,50009,6,0,L|208:366,1,80,2|0,0:0|0:0,0:0:0:0:
41,178,50362,1,2,0:0:0:0:
167,144,50539,1,8,0:0:0:0:
93,106,50715,1,2,0:0:0:0:
223,206,50892,1,0,0:0:0:0:
331,46,51068,6,0,P|346:127|356:218,1,160,6|2,0:0|0:0,0:0:0:0:
380,349,51597,1,8,0:0:0:0:
380,349,51686,1,0,0:0:0:0:
380,349,51774,1,2,0:0:0:0:
277,310,51950,5,0,0:0:0:0:
277,310,52039,1,0,0:0:0:0:
277,310,52127,2,0,L|188:323,1,80,2|0,0:0|0:0,0:0:0:0:
53,344,52480,1,2,0:0:0:0:
118,256,52656,1,8,0:0:0:0:
115,236,52744,1,0,0:0:0:0:
112,216,52832,1,2,0:0:0:0:
109,196,52920,1,2,0:0:0:0:
107,176,53008,1,0,0:0:0:0:
188,86,53186,6,0,P|231:82|287:74,1,80,2|8,0:0|0:0,0:0:0:0:
417,47,53539,1,2,0:0:0:0:
417,47,53627,1,0,0:0:0:0:
417,47,53715,1,8,0:0:0:0:
345,190,53892,2,0,P|337:240|333:284,1,80,2|0,0:0|0:0,0:0:0:0:
260,357,54244,6,0,B|181:339|182:393|84:361,1,160,6|2,0:0|0:0,0:0:0:0:
47,158,54774,1,8,0:0:0:0:
47,158,54950,2,0,P|56:199|62:247,1,80,2|0,0:0|0:0,0:0:0:0:
225,370,55303,6,0,L|311:377,1,80,2|0,0:0|0:0,0:0:0:0:
468,289,55656,1,2,0:0:0:0:
381,255,55833,1,8,0:0:0:0:
459,205,56009,1,2,0:0:0:0:
459,205,56097,1,0,0:0:0:0:
459,205,56186,1,0,0:0:0:0:
283,262,56362,6,0,P|274:182|283:79,1,160,2|2,0:0|0:0,0:0:0:0:
188,155,56892,1,8,0:0:0:0:
368,195,57068,1,2,0:0:0:0:
368,195,57156,1,0,0:0:0:0:
368,195,57244,1,0,0:0:0:0:
242,348,57421,6,0,B|165:332|161:382|75:354,1,160,2|2,0:0|0:0,0:0:0:0:
15,298,57950,1,8,0:0:0:0:
109,226,58127,1,0,3:0:0:0:
106,206,58215,1,0,3:0:0:0:
104,186,58303,1,0,3:0:0:0:
102,166,58392,1,0,3:0:0:0:
100,146,58480,5,6,3:2:0:0:
86,64,58656,1,8,0:0:0:0:
194,107,58833,5,2,0:0:0:0:
194,107,59009,1,8,0:0:0:0:
171,15,59186,5,2,0:0:0:0:
275,49,59362,1,8,0:0:0:0:
159,190,59539,5,2,0:0:0:0:
159,190,59656,2,0,L|98:199,2,53.3333333333333,2|0|2,0:0|0:0|0:0,0:0:0:0:
264,321,60068,5,2,0:0:0:0:
287,314,60156,1,0,0:0:0:0:
310,311,60244,1,2,0:0:0:0:
334,311,60333,1,0,0:0:0:0:
358,314,60421,1,2,0:0:0:0:
381,320,60509,1,0,0:0:0:0:
405,331,60597,6,0,L|412:246,1,80,6|0,0:0|0:0,0:0:0:0:
423,159,60950,1,2,0:0:0:0:
320,227,61127,6,0,L|313:142,1,80,2|0,0:0|0:0,0:0:0:0:
302,55,61480,1,2,0:0:0:0:
302,55,61568,1,0,0:0:0:0:
302,55,61656,1,2,0:0:0:0:
423,159,61833,5,0,0:0:0:0:
342,141,62009,1,2,0:0:0:0:
466,231,62186,1,2,0:0:0:0:
383,255,62362,1,0,0:0:0:0:
301,276,62539,1,2,0:0:0:0:
346,346,62715,6,0,P|254:342|213:271,1,160,6|2,0:0|0:0,0:0:0:0:
283,166,63244,1,8,0:0:0:0:
283,166,63421,2,0,P|293:216|296:255,1,80,2|0,0:0|0:0,0:0:0:0:
129,206,63774,6,0,L|215:223,1,80,2|0,0:0|0:0,0:0:0:0:
377,183,64127,1,2,0:0:0:0:
167,310,64303,1,8,0:0:0:0:
400,314,64480,1,2,0:0:0:0:
293,269,64656,1,0,0:0:0:0:
377,183,64833,6,0,P|370:134|358:77,1,80,2|0,0:0|0:0,0:0:0:0:
472,147,65186,1,2,0:0:0:0:
329,34,65362,1,8,0:0:0:0:
329,34,65450,1,0,0:0:0:0:
329,34,65539,1,2,0:0:0:0:
248,198,65715,1,2,0:0:0:0:
248,198,65892,6,0,P|205:204|167:212,1,80,2|0,0:0|0:0,0:0:0:0:
29,70,66244,2,0,L|193:98,1,160,2|2,0:0|0:0,0:0:0:0:
301,36,66774,1,0,0:0:0:0:
301,36,66950,6,0,P|291:79|284:117,1,80,2|0,0:0|0:0,0:0:0:0:
186,96,67303,1,2,0:0:0:0:
400,74,67480,1,8,0:0:0:0:
215,11,67656,1,2,0:0:0:0:
215,11,67744,1,0,0:0:0:0:
215,11,67833,1,0,0:0:0:0:
258,159,68009,6,0,P|271:244|276:335,1,160,6|2,0:0|0:0,0:0:0:0:
367,196,68539,1,8,0:0:0:0:
367,196,68627,1,0,0:0:0:0:
367,196,68715,1,2,0:0:0:0:
198,357,68892,5,0,0:0:0:0:
198,357,68980,1,0,0:0:0:0:
198,357,69068,2,0,L|107:369,1,80,2|0,0:0|0:0,0:0:0:0:
21,273,69421,2,0,L|112:261,1,80,2|8,0:0|0:0,0:0:0:0:
184,151,69774,2,0,L|93:163,1,80,2|0,0:0|0:0,0:0:0:0:
58,65,70127,5,2,0:0:0:0:
240,237,70303,1,2,0:0:0:0:
240,237,70392,1,0,0:0:0:0:
240,237,70480,2,0,L|286:244,3,40,2|0|8|0,0:0|0:0|0:0|0:0,0:0:0:0:
304,269,70833,2,0,L|343:262,3,40,2|0|2|0,0:0|0:0|0:0|0:0,0:0:0:0:
371,240,71186,6,0,L|377:137,1,80,2|2,0:0|0:0,0:0:0:0:
385,54,71539,1,0,0:0:0:0:
385,54,71715,1,8,0:0:0:0:
301,99,71892,2,0,P|251:102|169:44,1,120,2|0,0:0|0:0,0:0:0:0:
176,54,72244,6,0,L|167:151,1,80,2|0,0:0|0:0,0:0:0:0:
95,348,72597,2,0,P|86:287|65:176,1,160,2|2,0:0|0:0,0:0:0:0:
33,103,73127,1,0,0:0:0:0:
164,211,73303,1,2,0:0:0:0:
195,206,73392,1,0,0:0:0:0:
226,209,73480,1,2,0:0:0:0:
256,220,73568,1,0,0:0:0:0:
286,229,73656,6,0,L|292:148,1,80,2|0,0:0|0:0,0:0:0:0:
365,292,74009,2,0,L|370:371,1,80,2|8,0:0|0:0,0:0:0:0:
431,207,74362,2,0,L|437:126,1,80,2|0,0:0|0:0,0:0:0:0:
270,325,74715,2,0,P|193:334|103:352,1,160,2|2,0:0|0:0,0:0:0:0:
23,281,75244,1,0,0:0:0:0:
72,209,75421,5,2,0:0:0:0:
146,259,75597,1,8,0:0:0:0:
186,108,75774,5,2,0:0:0:0:
150,265,75950,1,8,0:0:0:0:
80,98,76127,5,2,0:0:0:0:
207,196,76303,1,8,0:0:0:0:
284,59,76480,6,0,P|293:104|298:151,1,80,2|0,0:0|0:0,0:0:0:0:
205,346,76833,1,2,0:0:0:0:
288,296,77009,1,10,0:0:0:0:
311,291,77097,1,0,0:0:0:0:
335,290,77186,1,2,0:0:0:0:
359,293,77274,1,0,0:0:0:0:
382,299,77362,1,2,0:0:0:0:
404,309,77450,1,0,0:0:0:0:
425,323,77539,6,0,L|429:228,1,80,6|0,0:0|0:0,0:0:0:0:
438,150,77892,1,2,0:0:0:0:
261,81,78068,5,2,0:0:0:0:
353,52,78244,1,0,0:0:0:0:
353,52,78421,1,2,0:0:0:0:
222,171,78597,5,2,0:0:0:0:
379,206,78774,1,0,0:0:0:0:
379,206,78950,1,2,0:0:0:0:
191,257,79127,5,2,0:0:0:0:
342,332,79303,1,0,0:0:0:0:
342,332,79480,1,2,0:0:0:0:
160,346,79656,5,6,0:0:0:0:
251,322,79833,1,0,0:0:0:0:
251,322,80009,1,2,0:0:0:0:
432,357,80186,6,0,P|435:314|442:250,1,80,0|2,0:0|0:0,0:0:0:0:
457,167,80539,1,2,0:0:0:0:
340,291,80715,6,0,P|337:248|330:184,1,80,2|0,0:0|0:0,0:0:0:0:
315,101,81068,1,2,0:0:0:0:
263,167,81244,5,2,0:0:0:0:
263,167,81333,1,0,0:0:0:0:
263,167,81421,1,0,0:0:0:0:
184,113,81597,1,2,0:0:0:0:
368,192,81774,5,2,0:0:0:0:
368,192,81862,1,0,0:0:0:0:
368,192,81950,1,0,0:0:0:0:
167,222,82127,1,2,0:0:0:0:
290,271,82303,5,2,0:0:0:0:
112,330,82480,1,0,0:0:0:0:
112,330,82656,1,2,0:0:0:0:
286,292,82833,5,2,0:0:0:0:
416,366,83009,1,0,0:0:0:0:
416,366,83186,1,2,0:0:0:0:
283,313,83362,5,2,0:0:0:0:
218,248,83539,1,0,0:0:0:0:
323,230,83715,1,2,0:0:0:0:
127,347,83892,6,0,P|124:296|109:177,1,160,4|0,0:0|0:0,0:0:0:0:
216,34,84421,2,0,P|219:85|234:204,1,160,4|0,0:0|0:0,0:0:0:0:
248,299,84950,6,0,B|298:309|298:309|347:348|347:348|406:357,1,160,4|0,0:0|0:0,0:0:0:0:
512,201,85480,2,0,B|462:211|462:211|413:250|413:250|354:259,1,160,4|0,0:0|0:0,0:0:0:0:
165,48,86009,6,0,P|242:54|306:109,1,160,6|0,0:0|0:0,0:0:0:0:
217,235,86539,2,0,L|206:128,1,80,2|0,0:0|0:0,0:0:0:0:
208,155,86803,1,0,0:0:0:0:
208,155,86892,1,0,0:0:0:0:
321,195,87068,5,2,0:0:0:0:
120,266,87244,1,0,0:0:0:0:
120,266,87421,1,2,0:0:0:0:
318,309,87597,5,2,0:0:0:0:
230,274,87774,1,0,0:0:0:0:
230,274,87950,1,2,0:0:0:0:
404,260,88127,5,2,0:0:0:0:
238,371,88303,1,0,0:0:0:0:
238,371,88480,1,2,0:0:0:0:
107,210,88656,5,2,0:0:0:0:
338,347,88833,1,0,0:0:0:0:
338,347,89009,1,2,0:0:0:0:
367,160,89186,5,2,0:0:0:0:
261,241,89362,1,0,0:0:0:0:
261,241,89539,1,2,0:0:0:0:
124,78,89715,5,2,0:0:0:0:
257,155,89892,1,0,0:0:0:0:
257,155,90068,1,2,0:0:0:0:
366,45,90244,5,2,0:0:0:0:
367,57,90421,1,0,0:0:0:0:
368,69,90597,1,2,0:0:0:0:
257,155,90774,5,2,0:0:0:0:
256,167,90950,1,0,0:0:0:0:
255,179,91127,1,2,0:0:0:0:
365,266,91303,5,2,0:0:0:0:
366,278,91480,1,0,0:0:0:0:
367,290,91656,1,2,0:0:0:0:
377,379,91833,5,2,0:0:0:0:
281,338,92009,1,0,3:0:0:0:
261,340,92097,1,0,3:0:0:0:
241,343,92186,1,0,3:0:0:0:
221,346,92274,1,0,3:0:0:0:
201,349,92362,1,0,3:0:0:0:
99,369,92539,1,2,0:0:0:0:
99,369,92715,5,6,0:0:0:0:
256,192,92803,12,4,94480,0:0:0:0:
