osu file format v14

[General]
AudioFilename: audio.mp3
AudioLeadIn: 0
PreviewTime: 15068
Countdown: 0
SampleSet: Soft
StackLeniency: 0.7
Mode: 0
LetterboxInBreaks: 0
WidescreenStoryboard: 1

[Editor]
DistanceSpacing: 1.2
BeatDivisor: 4
GridSize: 4
TimelineZoom: 1

[Metadata]
Title:Chiisana Chiisana Kenshou
TitleUnicode:小さな小さな賢将
Artist:ZUN
ArtistUnicode:ZUN
Creator:Leader
Version:Hard
Source:東方星蓮船 ~ Undefined Fantastic Object.
Tags:Greenshell Grünschale 東方Project Touhou th12 UFO Seirensen Stage Theme A Tiny, Clever Commander Nazrin ナズーリン Video Game Instrumental
BeatmapID:2263649
BeatmapSetID:1011097

[Difficulty]
HPDrainRate:5
CircleSize:4
OverallDifficulty:6
ApproachRate:8
SliderMultiplier:1.4
SliderTickRate:1

[Events]
//Background and Video events
0,0,"bg.jpg",0,0
//Break Periods
//Storyboard Layer 0 (Background)
//Storyboard Layer 1 (Fail)
//Storyboard Layer 2 (Pass)
//Storyboard Layer 3 (Foreground)
//Storyboard Layer 4 (Overlay)
//Storyboard Sound Samples

[TimingPoints]
245,352.941176470588,3,2,1,40,1,0
245,-133.333333333333,3,2,1,40,0,0
774,-133.333333333333,3,2,1,45,0,0
1303,-133.333333333333,3,2,1,50,0,0
1833,-133.333333333333,3,2,1,55,0,0
2362,-133.333333333333,3,2,1,60,0,0
2892,-133.333333333333,3,2,1,65,0,0
3421,-133.333333333333,3,2,1,70,0,0
3950,-133.333333333333,3,2,1,75,0,0
4480,-100,3,2,1,80,0,0
7127,-100,3,2,1,75,0,0
7656,-100,3,2,1,70,0,0
8186,-100,3,2,1,65,0,0
8715,-100,3,2,1,60,0,0
9244,-100,3,2,1,55,0,0
9774,-100,3,2,1,50,0,0
10303,-100,3,2,1,45,0,0
10833,-100,3,2,1,40,0,0
11362,-100,3,2,1,35,0,0
11892,-100,3,2,1,30,0,0
12244,-100,3,2,1,40,0,0
12597,-100,3,2,1,50,0,0
12774,-100,3,2,1,60,0,0
12950,-100,3,2,1,70,0,0
13303,-100,3,2,1,80,0,0
13656,-100,3,2,1,40,0,0
14009,-100,3,2,1,20,0,0
14362,-100,3,2,1,5,0,0
14715,-100,3,2,1,50,0,0
14815,-100,3,2,1,60,0,0
15068,-100,3,2,1,70,0,0
30068,-100,3,2,1,60,0,0
30244,-100,3,2,1,50,0,0
30421,-100,3,2,1,70,0,0
30597,-100,3,2,1,60,0,0
30774,-100,3,2,1,50,0,0
30950,-100,3,2,1,70,0,0
31127,-100,3,2,1,60,0,0
31303,-100,3,2,1,50,0,0
31480,-100,3,2,1,70,0,0
31656,-100,3,2,1,60,0,0
31833,-100,3,2,1,50,0,0
32009,-100,3,2,1,70,0,0
32186,-100,3,2,1,60,0,0
32362,-100,3,2,1,50,0,0
32539,-100,3,2,1,70,0,0
32715,-100,3,2,1,60,0,0
32892,-100,3,2,1,50,0,0
33068,-100,3,2,1,70,0,0
33244,-100,3,2,1,60,0,0
33421,-100,3,2,1,50,0,0
33597,-100,3,2,1,70,0,0
33774,-100,3,2,1,60,0,0
33950,-100,3,2,1,50,0,0
34127,-100,3,2,1,70,0,0
34303,-100,3,2,1,60,0,0
34480,-100,3,2,1,50,0,0
34656,-100,3,2,1,70,0,0
34833,-100,3,2,1,60,0,0
35009,-100,3,2,1,50,0,0
35186,-100,3,2,1,70,0,0
35362,-100,3,2,1,60,0,0
35539,-100,3,2,1,50,0,0
35715,-100,3,2,1,70,0,0
35892,-100,3,2,1,60,0,0
36068,-100,3,2,1,50,0,0
36244,-100,3,2,1,80,0,1
38362,-100,3,2,1,80,0,0
38892,-100,3,2,1,75,0,0
39421,-100,3,2,1,70,0,0
39950,-100,3,2,1,65,0,0
40480,-100,3,2,1,60,0,0
41009,-100,3,2,1,55,0,0
41539,-100,3,2,1,50,0,0
42068,-100,3,2,1,45,0,0
42597,-100,3,2,1,40,0,0
43127,-100,3,2,1,35,0,0
43656,-100,3,2,1,30,0,0
44186,-100,3,2,1,40,0,0
44362,-100,3,2,1,50,0,0
44539,-100,3,2,1,60,0,0
44715,-100,3,2,1,70,0,0
58303,-100,3,2,1,60,0,0
58480,-100,3,2,1,50,0,0
58833,-100,3,2,1,60,0,0
59186,-100,3,2,1,70,0,0
59539,-100,3,2,1,80,0,0
59892,-100,3,2,1,70,0,0
60244,-100,3,2,1,60,0,0
60597,-100,3,2,1,50,0,0
60774,-100,3,2,1,60,0,0
60950,-100,3,2,1,70,0,0
77715,-100,3,2,1,60,0,0
77892,-100,3,2,1,50,0,0
78068,-100,3,2,1,70,0,0
78244,-100,3,2,1,60,0,0
78421,-100,3,2,1,50,0,0
78597,-100,3,2,1,70,0,0
78774,-100,3,2,1,60,0,0
78950,-100,3,2,1,50,0,0
79127,-100,3,2,1,70,0,0
79303,-100,3,2,1,60,0,0
79480,-100,3,2,1,50,0,0
79656,-100,3,2,1,70,0,0
79833,-100,3,2,1,60,0,0
80009,-100,3,2,1,50,0,0
80186,-100,3,2,1,70,0,0
80362,-100,3,2,1,60,0,0
80539,-100,3,2,1,50,0,0
80715,-100,3,2,1,70,0,0
80892,-100,3,2,1,60,0,0
81068,-100,3,2,1,50,0,0
81244,-100,3,2,1,70,0,0
81421,-100,3,2,1,60,0,0
81597,-100,3,2,1,50,0,0
81774,-100,3,2,1,70,0,0
81950,-100,3,2,1,60,0,0
82127,-100,3,2,1,50,0,0
82303,-100,3,2,1,70,0,0
82480,-100,3,2,1,60,0,0
82656,-100,3,2,1,50,0,0
82833,-100,3,2,1,70,0,0
83009,-100,3,2,1,60,0,0
83186,-100,3,2,1,50,0,0
83362,-100,3,2,1,70,0,0
83539,-100,3,2,1,60,0,0
83715,-100,3,2,1,50,0,0
83892,-100,3,2,1,80,0,1
86009,-200,3,2,1,80,0,0
86539,-200,3,2,1,75,0,0
86892,-100,3,2,1,75,0,0
87068,-100,3,2,1,70,0,0
87597,-100,3,2,1,65,0,0
88127,-100,3,2,1,60,0,0
88656,-100,3,2,1,55,0,0
89186,-100,3,2,1,50,0,0
89715,-100,3,2,1,45,0,0
90244,-100,3,2,1,40,0,0
90774,-100,3,2,1,35,0,0
91303,-100,3,2,1,30,0,0
91833,-100,3,2,1,40,0,0
92009,-100,3,2,1,50,0,0
92186,-100,3,2,1,60,0,0
92362,-100,3,2,1,70,0,0
92715,-100,3,2,1,80,0,0
93068,-100,3,2,1,70,0,0
93421,-100,3,2,1,60,0,0
93774,-100,3,2,1,50,0,0
94127,-100,3,2,1,40,0,0
94480,-100,3,2,1,70,0,0

[Colours]
Combo1 : 183,40,40
Combo2 : 249,211,100
Combo3 : 236,139,51
Combo4 : 228,72,33

[HitObjects]
85,211,245,6,0,L|19:204,2,52.5000020027161,6|0|2,0:0|0:0|0:0,0:0:0:0:
156,157,774,2,0,L|163:91,2,52.5000020027161,2|0|2,0:0|0:0|0:0,0:0:0:0:
210,229,1303,2,0,L|276:236,2,52.5000020027161,2|0|2,0:0|0:0|0:0,0:0:0:0:
137,281,1833,2,0,L|130:347,2,52.5000020027161,2|0|2,0:0|0:0|0:0,0:0:0:0:
217,321,2362,6,0,P|239:327|270:331,1,52.5000020027161,6|0,0:0|0:0,0:0:0:0:
355,311,2715,1,2,0:0:0:0:
300,239,2892,2,0,L|304:175,1,52.5000020027161,2|0,0:0|0:0,0:0:0:0:
314,98,3244,1,2,0:0:0:0:
242,137,3421,2,0,P|208:143|171:145,1,52.5000020027161,2|0,0:0|0:0,0:0:0:0:
102,126,3774,1,2,0:0:0:0:
102,126,3950,2,0,L|95:68,2,52.5000020027161,2|0|2,0:0|0:0|0:0,0:0:0:0:
114,216,4480,6,0,B|163:222|163:222|208:257|208:257|258:265,1,140,4|2,0:0|0:0,0:0:0:0:
248,346,5009,2,0,B|280:341|280:341|326:305|326:305|375:299,1,140,4|2,0:0|0:0,0:0:0:0:
437,357,5539,2,0,P|453:302|411:218,1,140,4|2,0:0|0:0,0:0:0:0:
361,169,6068,2,0,L|351:26,1,140,4|2,0:0|0:0,0:0:0:0:
351,29,6597,1,4,0:0:0:0:
256,192,6774,12,2,8539,0:0:0:0:
256,192,8715,12,2,12244,0:0:0:0:
84,282,12597,6,0,L|78:237,4,35,0|0|0|0|0,3:0|3:0|3:0|3:0|3:0,0:0:0:0:
44,356,13127,1,0,0:0:0:0:
156,313,13303,5,4,0:0:0:0:
433,235,14715,2,0,L|437:190,3,35,0|0|0|0,3:0|3:0|3:0|3:0,0:0:0:0:
419,161,15068,6,0,P|400:109|429:14,1,140,4|2,0:0|0:0,0:0:0:0:
484,99,15597,1,8,0:0:0:0:
484,99,15774,1,2,0:0:0:0:
370,217,16127,2,0,L|281:231,1,70,2|0,0:0|0:0,0:0:0:0:
217,238,16480,1,2,0:0:0:0:
217,238,16656,1,8,0:0:0:0:
248,159,16833,2,0,P|241:125|224:69,1,70,2|0,0:0|0:0,0:0:0:0:
254,9,17186,6,0,P|189:15|149:88,1,140,2|2,0:0|0:0,0:0:0:0:
96,138,17715,1,8,0:0:0:0:
176,155,17892,1,2,0:0:0:0:
176,155,18244,2,0,L|171:232,1,70,2|0,0:0|0:0,0:0:0:0:
215,298,18597,2,0,L|220:375,1,70,2|8,0:0|0:0,0:0:0:0:
215,298,18950,1,10,0:0:0:0:
292,264,19127,1,8,0:0:0:0:
344,329,19303,6,0,L|432:341,1,70
462,269,19656,2,0,P|457:237|443:182,1,70,2|8,0:0|0:0,0:0:0:0:
397,133,20009,2,0,L|403:52,2,70,2|0|2,0:0|0:0|0:0,0:0:0:0:
358,208,20539,1,0,0:0:0:0:
276,187,20715,2,0,L|132:176,1,140,2|2,0:0|0:0,0:0:0:0:
52,171,21244,1,0,0:0:0:0:
73,252,21421,6,0,P|88:283|99:331,1,70,2|0,0:0|0:0,0:0:0:0:
173,363,21774,2,0,L|251:372,1,70,2|8,0:0|0:0,0:0:0:0:
314,328,22127,2,0,P|366:320|434:363,1,105,2|2,0:0|0:0,0:0:0:0:
451,359,22480,2,0,L|459:269,1,70,2|0,0:0|0:0,0:0:0:0:
466,205,22833,2,0,L|469:162,2,35,2|0|8,0:0|0:0|0:0,0:0:0:0:
391,177,23186,1,2,0:0:0:0:
391,177,23362,2,0,L|386:136,2,35,0|0|2,0:0|0:0|0:0,0:0:0:0:
361,255,23715,1,0,0:0:0:0:
325,331,23892,6,0,L|241:344,1,70,2|8,0:0|0:0,0:0:0:0:
181,303,24244,2,0,P|180:266|177:224,1,70,2|0,0:0|0:0,0:0:0:0:
147,161,24597,2,0,P|106:156|26:92,2,140,2|2|0,0:0|0:0|0:0,0:0:0:0:
208,97,25480,1,0,0:0:0:0:
274,154,25656,6,0,P|288:223|297:317,1,140,2|2,0:0|0:0,0:0:0:0:
308,376,26186,1,8,0:0:0:0:
308,376,26362,1,2,0:0:0:0:
447,281,26715,2,0,P|448:243|455:198,1,70,2|0,0:0|0:0,0:0:0:0:
471,129,27068,2,0,P|427:129|364:196,1,140,2|2,0:0|0:0,0:0:0:0:
364,194,27597,1,0,0:0:0:0:
350,277,27774,6,0,L|280:287,1,70,2|0,0:0|0:0,0:0:0:0:
249,365,28127,2,0,L|179:355,1,70,2|8,0:0|0:0,0:0:0:0:
108,310,28480,2,0,P|64:320|36:330,2,70,2|0|2,0:0|0:0|0:0,0:0:0:0:
182,270,29009,2,0,P|226:280|254:290,2,70,0|2|8,0:0|0:0|0:0,0:0:0:0:
119,213,29539,2,0,L|112:169,3,35,8|0|8|0,0:0|0:0|0:0|0:0,0:0:0:0:
89,143,29892,6,0,L|13:132,2,70,6|0|2,0:0|0:0|0:0,0:0:0:0:
159,189,30421,2,0,L|235:178,2,70,2|0|2,0:0|0:0|0:0,0:0:0:0:
88,235,30950,2,0,L|12:224,2,70,2|0|2,0:0|0:0|0:0,0:0:0:0:
158,281,31480,2,0,L|234:270,2,70,2|0|2,0:0|0:0|0:0,0:0:0:0:
126,359,32009,6,0,L|276:370,1,140,6|2,0:0|0:0,0:0:0:0:
340,329,32539,2,0,L|418:319,2,70,2|0|2,0:0|0:0|0:0,0:0:0:0:
264,291,33068,2,0,L|269:215,1,70,6|0,0:0|0:0,0:0:0:0:
275,137,33421,1,2,0:0:0:0:
200,175,33597,2,0,L|195:99,1,70,0|2,0:0|0:0,0:0:0:0:
189,21,33950,1,2,0:0:0:0:
121,72,34127,6,0,P|103:71|76:66,2,35,6|0|0,0:0|0:0|0:0,0:0:0:0:
195,105,34480,1,2,0:0:0:0:
275,137,34656,2,0,P|293:136|320:131,2,35,2|0|0,0:0|0:0|0:0,0:0:0:0:
208,188,35009,1,2,0:0:0:0:
126,166,35186,1,6,0:0:0:0:
145,253,35362,1,0,0:0:0:0:
226,273,35539,1,2,0:0:0:0:
168,333,35715,2,0,L|93:352,2,70,2|0|2,0:0|3:0|3:2,0:0:0:0:
249,355,36244,6,0,B|317:339|319:394|405:361,1,140,4|0,0:0|0:0,0:0:0:0:
427,293,36774,2,0,P|426:241|437:143,1,140,4|0,0:0|0:0,0:0:0:0:
447,56,37303,2,0,P|400:62|357:164,1,140,4|0,0:0|0:0,0:0:0:0:
334,217,37833,2,0,L|190:236,1,140,4|0,0:0|0:0,0:0:0:0:
115,207,38362,6,0,P|87:178|209:30,1,280,4|0,0:0|0:0,0:0:0:0:
270,64,39244,1,2,0:0:0:0:
270,64,39597,5,0,0:0:0:0:
282,147,39774,2,0,L|290:237,1,70,2|2,0:0|0:0,0:0:0:0:
300,300,40127,2,0,L|304:342,2,35,0|0|2,0:0|0:0|0:0,0:0:0:0:
222,266,40480,2,0,P|189:252|146:239,2,70,2|0|2,0:0|0:0|0:0,0:0:0:0:
300,300,41009,2,0,L|378:308,1,70,2|0,0:0|0:0,0:0:0:0:
441,350,41362,1,2,0:0:0:0:
443,265,41539,6,0,P|445:220|453:181,1,70,2|0,0:0|0:0,0:0:0:0:
466,112,41892,1,2,0:0:0:0:
392,151,42068,2,0,L|315:157,1,70,2|0,0:0|0:0,0:0:0:0:
319,240,42421,1,2,0:0:0:0:
250,201,42597,2,0,P|240:161|256:112,1,70,2|0,0:0|0:0,0:0:0:0:
304,74,42950,1,2,0:0:0:0:
243,14,43127,2,0,L|164:22,1,70,2|0,0:0|0:0,0:0:0:0:
99,31,43480,5,2,0:0:0:0:
99,31,43656,1,2,0:0:0:0:
99,31,43833,1,0,0:0:0:0:
42,92,44009,1,2,0:0:0:0:
42,92,44186,1,2,0:0:0:0:
42,92,44362,2,0,L|37:135,4,35,0|0|0|0|0,3:0|3:0|3:0|3:0|3:0,0:0:0:0:
22,14,44892,1,0,3:0:0:0:
22,14,45068,1,4,0:0:0:0:
58,264,45597,5,2,0:0:0:0:
58,264,45686,1,0,0:0:0:0:
58,264,45774,2,0,P|126:267|163:324,1,140,6|2,0:0|0:0,0:0:0:0:
237,361,46303,1,8,0:0:0:0:
313,326,46480,2,0,L|361:320,2,35,2|0|0,0:0|0:0|0:0,0:0:0:0:
253,266,46833,6,0,P|248:229|236:176,1,70,2|0,0:0|0:0,0:0:0:0:
195,126,47186,1,2,0:0:0:0:
121,166,47362,1,8,0:0:0:0:
195,126,47539,2,0,L|203:46,1,70,2|0,0:0|0:0,0:0:0:0:
277,93,47892,1,2,0:0:0:0:
398,208,48244,6,0,L|458:200,2,46.6666666666667,8|2|0,0:0|0:0|0:0,0:0:0:0:
373,287,48597,2,0,L|366:374,1,70,2|0,0:0|0:0,0:0:0:0:
295,241,48950,2,0,L|290:171,1,70,4|0,0:0|0:0,0:0:0:0:
256,312,49303,2,0,L|252:346,2,35,2|0|8,0:0|0:0|0:0,0:0:0:0:
171,348,49656,5,8,0:0:0:0:
171,348,49744,1,0,0:0:0:0:
171,348,49833,1,8,0:0:0:0:
91,288,50009,2,0,P|87:254|97:197,1,70,2|0,0:0|0:0,0:0:0:0:
110,136,50362,1,2,0:0:0:0:
177,186,50539,1,8,0:0:0:0:
238,128,50715,2,0,L|244:47,1,70,2|0,0:0|0:0,0:0:0:0:
325,39,51068,6,0,P|391:30|440:95,1,140,6|2,0:0|0:0,0:0:0:0:
363,120,51597,1,8,0:0:0:0:
363,120,51686,1,0,0:0:0:0:
363,120,51774,1,2,0:0:0:0:
435,161,51950,1,0,0:0:0:0:
363,205,52127,2,0,P|355:240|352:282,1,70,2|0,0:0|0:0,0:0:0:0:
326,354,52480,6,0,L|250:360,1,70,2|8,0:0|0:0,0:0:0:0:
214,362,52744,1,0,0:0:0:0:
181,334,52833,2,0,P|173:294|179:182,1,140,2|2,0:0|0:0,0:0:0:0:
182,111,53362,2,0,L|103:98,2,70,8|2|8,0:0|0:0|0:0,0:0:0:0:
247,57,53892,5,2,0:0:0:0:
247,57,54244,2,0,P|302:65|385:32,1,140,6|2,0:0|0:0,0:0:0:0:
457,2,54774,1,8,0:0:0:0:
441,84,54950,2,0,L|438:169,1,70,2|0,0:0|0:0,0:0:0:0:
480,227,55303,2,0,P|444:235|346:165,1,140,2|2,0:0|0:0,0:0:0:0:
308,268,55833,2,0,L|224:276,1,70,8|2,0:0|0:0,0:0:0:0:
192,345,56186,5,0,0:0:0:0:
192,345,56362,2,0,L|98:352,1,70,2|0,0:0|0:0,0:0:0:0:
44,317,56715,1,2,0:0:0:0:
112,267,56892,1,8,0:0:0:0:
39,224,57068,2,0,P|33:187|47:94,1,105,2|0,0:0|0:0,0:0:0:0:
63,85,57421,2,0,L|146:80,1,70,2|0,0:0|0:0,0:0:0:0:
208,118,57774,1,2,0:0:0:0:
265,56,57950,1,8,0:0:0:0:
295,134,58127,6,0,P|304:216|304:295,1,140,0|6,3:0|3:2,0:0:0:0:
296,357,58656,1,8,0:0:0:0:
220,319,58833,1,2,0:0:0:0:
220,319,59009,1,8,0:0:0:0:
152,369,59186,1,2,0:0:0:0:
152,369,59362,1,8,0:0:0:0:
102,300,59539,2,0,P|97:264|81:217,1,70,2|0,0:0|0:0,0:0:0:0:
38,162,59892,2,0,L|42:125,3,35,2|0|2|0,0:0|0:0|0:0|0:0,0:0:0:0:
71,96,60244,2,0,L|67:61,3,35,2|0|2|0,0:0|0:0|0:0|0:0,0:0:0:0:
59,19,60597,5,6,0:0:0:0:
139,43,60774,1,0,0:0:0:0:
212,13,60950,2,0,P|218:51|216:172,1,140,2|0,0:0|0:0,0:0:0:0:
199,234,61480,1,2,0:0:0:0:
199,234,61656,2,0,L|282:251,1,70,2|0,0:0|0:0,0:0:0:0:
283,330,62009,2,0,L|351:315,1,70,2|2,0:0|0:0,0:0:0:0:
431,343,62362,2,0,L|478:347,2,35,0|0|2,0:0|0:0|0:0,0:0:0:0:
415,260,62715,6,0,P|414:209|393:99,1,140,6|2,0:0|0:0,0:0:0:0:
369,42,63244,1,8,0:0:0:0:
369,42,63421,1,2,0:0:0:0:
264,173,63774,2,0,P|225:183|181:186,1,70,2|0,0:0|0:0,0:0:0:0:
113,165,64127,1,2,0:0:0:0:
167,101,64303,1,8,0:0:0:0:
83,87,64480,1,2,0:0:0:0:
83,87,64656,1,0,0:0:0:0:
113,165,64833,6,0,P|121:214|122:266,1,70,2|0,0:0|0:0,0:0:0:0:
109,317,65186,1,2,0:0:0:0:
194,302,65362,1,8,0:0:0:0:
194,302,65450,1,0,0:0:0:0:
194,302,65539,2,0,P|245:309|282:319,1,70,2|2,0:0|0:0,0:0:0:0:
329,345,65892,2,0,L|413:343,1,70,2|0,0:0|0:0,0:0:0:0:
467,294,66244,5,2,0:0:0:0:
467,294,66597,1,2,0:0:0:0:
393,253,66774,1,0,0:0:0:0:
463,207,66950,2,0,P|467:163|471:127,1,70,2|0,0:0|0:0,0:0:0:0:
475,53,67303,1,2,0:0:0:0:
402,96,67480,2,0,L|321:105,2,70,8|2|0,0:0|0:0|0:0,0:0:0:0:
285,175,68009,6,0,P|257:111|277:27,1,140,6|2,0:0|0:0,0:0:0:0:
190,8,68539,2,0,L|151:1,2,35,8|0|2,0:0|0:0|0:0,0:0:0:0:
169,89,68892,1,0,0:0:0:0:
169,89,69068,6,0,L|94:75,1,70,2|0,0:0|0:0,0:0:0:0:
47,141,69421,2,0,P|23:221|59:284,2,140,2|2|2,0:0|0:0|0:0,0:0:0:0:
104,204,70303,1,2,0:0:0:0:
184,228,70480,2,0,L|232:234,3,35,2|0|8|0,0:0|0:0|0:0|0:0,0:0:0:0:
247,263,70833,2,0,L|281:258,3,35,2|0|2|0,0:0|0:0|0:0|0:0,0:0:0:0:
318,237,71186,2,0,L|366:243,3,35,2|0|2|0,0:0|0:0|0:0|0:0,0:0:0:0:
386,266,71539,6,0,L|461:256,2,70,0|8|2,0:0|0:0|0:0,0:0:0:0:
341,337,72068,1,2,0:0:0:0:
261,321,72244,2,0,B|197:308|197:359|111:336,1,140,2|2,0:0|0:0,0:0:0:0:
55,185,72950,1,2,0:0:0:0:
128,226,73127,1,0,0:0:0:0:
186,165,73303,2,0,L|194:90,1,70,2|2,0:0|0:0,0:0:0:0:
207,12,73656,5,2,0:0:0:0:
280,53,73833,2,0,P|324:50|365:45,2,70,0|2|8,0:0|0:0|0:0,0:0:0:0:
261,135,74362,2,0,P|331:135|419:118,1,140,2|2,0:0|0:0,0:0:0:0:
450,191,74892,1,0,0:0:0:0:
450,191,75068,2,0,L|492:198,2,35,2|0|0,0:0|0:0|0:0,0:0:0:0:
366,183,75421,5,2,0:0:0:0:
366,183,75597,1,8,0:0:0:0:
319,254,75774,1,2,0:0:0:0:
319,254,75950,1,8,0:0:0:0:
252,211,76127,1,2,0:0:0:0:
252,211,76303,1,8,0:0:0:0:
214,286,76480,2,0,L|141:293,2,70,2|0|2,0:0|0:0|0:0,0:0:0:0:
282,335,77009,2,0,L|321:341,4,35,10|0|2|0|2,0:0|0:0|0:0|0:0|0:0,0:0:0:0:
213,285,77539,5,6,0:0:0:0:
213,285,77715,1,0,0:0:0:0:
213,285,77892,1,2,0:0:0:0:
284,240,78068,1,2,0:0:0:0:
284,240,78244,1,0,0:0:0:0:
284,240,78421,1,2,0:0:0:0:
211,198,78597,1,2,0:0:0:0:
211,198,78774,1,0,0:0:0:0:
211,198,78950,1,2,0:0:0:0:
282,154,79127,6,0,P|323:150|365:151,2,70,2|0|2,0:0|0:0|0:0,0:0:0:0:
211,198,79656,2,0,P|162:207|89:139,1,140,6|2,0:0|0:0,0:0:0:0:
44,223,80186,1,0,0:0:0:0:
44,223,80362,2,0,P|51:265|54:306,1,70,2|2,0:0|0:0,0:0:0:0:
119,352,80715,1,2,0:0:0:0:
119,352,80892,2,0,P|126:310|129:269,1,70,0|2,0:0|0:0,0:0:0:0:
208,307,81244,1,2,0:0:0:0:
208,307,81421,2,0,L|288:319,1,70,0|2,0:0|0:0,0:0:0:0:
349,359,81774,1,2,0:0:0:0:
349,359,81950,2,0,L|431:349,1,70,0|2,0:0|0:0,0:0:0:0:
455,275,82303,6,0,L|495:269,2,35,2|0|0,0:0|0:0|0:0,0:0:0:0:
382,231,82656,1,2,0:0:0:0:
309,188,82833,2,0,L|269:182,2,35,2|0|0,0:0|0:0|0:0,0:0:0:0:
382,144,83186,1,2,0:0:0:0:
346,68,83362,1,2,0:0:0:0:
430,79,83539,2,0,P|460:75|483:73,2,35,0|0|2,0:0|0:0|0:0,0:0:0:0:
382,144,83892,6,0,L|236:155,1,140,4|0,0:0|0:0,0:0:0:0:
200,227,84421,2,0,P|173:187|201:80,1,140,4|0,0:0|0:0,0:0:0:0:
226,27,84950,2,0,P|253:67|225:174,1,140,4|0,0:0|0:0,0:0:0:0:
200,227,85480,2,0,L|54:238,1,140,4|0,0:0|0:0,0:0:0:0:
65,328,86009,6,0,L|211:340,1,140,6|0,0:0|0:0,0:0:0:0:
276,294,86892,5,0,0:0:0:0:
276,294,87068,1,2,0:0:0:0:
344,342,87244,2,0,L|425:351,2,70,0|2|2,0:0|0:0|0:0,0:0:0:0:
276,294,87774,2,0,L|240:287,2,35,0|0|2,0:0|0:0|0:0,0:0:0:0:
347,249,88127,6,0,P|362:193|329:91,1,140,2|2,0:0|0:0,0:0:0:0:
282,57,88656,1,2,0:0:0:0:
282,57,88833,1,0,0:0:0:0:
282,57,89009,1,2,0:0:0:0:
228,123,89186,1,2,0:0:0:0:
228,123,89362,1,0,0:0:0:0:
228,123,89539,1,2,0:0:0:0:
152,85,89715,1,2,0:0:0:0:
152,85,89892,1,0,0:0:0:0:
152,85,90068,1,2,0:0:0:0:
120,162,90244,6,0,P|79:153|43:142,2,70,2|0|2,0:0|0:0|0:0,0:0:0:0:
166,232,90774,2,0,P|207:223|243:212,2,70,2|0|2,0:0|0:0|0:0,0:0:0:0:
153,315,91303,2,0,L|312:331,1,140,2|2,0:0|0:0,0:0:0:0:
368,292,91833,1,2,0:0:0:0:
368,292,92009,2,0,L|410:286,4,35,0|0|0|0|0,3:0|3:0|3:0|3:0|3:0,0:0:0:0:
313,234,92539,1,2,0:0:0:0:
313,234,92715,1,6,0:0:0:0:
256,192,92803,12,4,94480,0:0:0:0:
