osu file format v14

[General]
AudioFilename: audio.mp3
AudioLeadIn: 0
PreviewTime: 12091
Countdown: 0
SampleSet: Soft
StackLeniency: 0.6
Mode: 0
LetterboxInBreaks: 0
WidescreenStoryboard: 1

[Editor]
DistanceSpacing: 0.8
BeatDivisor: 4
GridSize: 32
TimelineZoom: 2.5

[Metadata]
Title:Border of Life
TitleUnicode:ボーダーオブライフ
Artist:ZUN
ArtistUnicode:ZUN
Creator:Shurelia
Version:Normal
Source:東方妖々夢 ~ Perfect Cherry Blossom.
Tags:東方Project 西行寺幽々子 final stage boss Yuyuko Saigyouji th7 touhou pcb Last Spell Video Game Instrumental Team Shanghai Alice nik nikolomara aeril
BeatmapID:4060217
BeatmapSetID:1953606

[Difficulty]
HPDrainRate:5
CircleSize:3.5
OverallDifficulty:4
ApproachRate:5
SliderMultiplier:1.2
SliderTickRate:1

[Events]
//Background and Video events
0,0,"yuyukobg.jpg",0,0
//Break Periods
//Storyboard Layer 0 (Background)
//Storyboard Layer 1 (Fail)
//Storyboard Layer 2 (Pass)
//Storyboard Layer 3 (Foreground)
//Storyboard Layer 4 (Overlay)
//Storyboard Sound Samples

[TimingPoints]
52,394.736842105263,4,2,1,50,1,0
12683,-100,4,2,1,60,0,0
24525,-100,4,2,1,70,0,0
25315,-100,4,2,1,70,0,0
37946,-100,4,2,1,75,0,0
53736,-100,4,2,1,70,0,0
54130,-100,4,2,1,70,0,0
54525,-100,4,2,1,70,0,0
55315,-100,4,2,1,80,0,0
56894,-100,4,2,1,70,0,0
60051,-100,4,2,1,75,0,0
60446,-100,4,2,1,75,0,0
60841,-100,4,2,1,75,0,0
61236,-100,4,2,1,80,0,0
61630,-100,4,2,1,90,0,0
63209,-100,4,2,1,80,0,0
66367,-100,4,2,1,80,0,0
74262,-100,4,2,1,80,0,0
75841,-100,4,2,1,80,0,0
78999,-100,4,2,1,80,0,0
86894,-100,4,2,1,80,0,0

[Colours]
Combo1 : 255,128,192
Combo2 : 255,128,255

[HitObjects]
19,27,52,6,0,P|107:42|197:37,1,180,2|2,0:0|0:0,0:0:0:0:
374,13,1236,1,0,0:0:0:0:
374,13,1433,2,0,P|389:101|396:191,1,180,2|2,0:0|0:0,0:0:0:0:
402,251,2223,2,0,P|312:259|224:279,1,180,2|0,0:0|0:0,0:0:0:0:
182,321,3012,1,2,0:0:0:0:
6,363,3604,1,0,0:0:0:0:
6,363,3801,2,0,P|8:334|14:304,1,60,2|0,0:0|0:0,0:0:0:0:
61,266,4196,2,0,P|59:237|53:207,1,60
37,149,4591,6,0,P|126:145|216:134,1,180,2|2,0:0|0:0,0:0:0:0:
276,132,5380,2,0,P|277:221|287:311,1,180,2|0,0:0|0:0,0:0:0:0:
402,341,6367,6,0,P|432:342|461:334,1,60,2|2,0:0|0:0,0:0:0:0:
507,294,6762,1,2,0:0:0:0:
507,294,6959,2,0,P|497:234|493:174,1,120,2|2,0:0|0:0,0:0:0:0:
497,53,7749,2,0,P|437:54|377:47,1,120,2|2,0:0|0:0,0:0:0:0:
319,30,8341,1,2,0:0:0:0:
319,30,8538,2,0,P|260:29|200:39,1,120,2|0,0:0|0:0,0:0:0:0:
149,73,9130,1,2,0:0:0:0:
28,74,9525,6,0,P|20:45|11:16,2,60,2|2|2,0:0|0:0|0:0,0:0:0:0:
67,119,10117,2,0,P|93:133|120:146,2,60,2|2|2,0:0|0:0|0:0,0:0:0:0:
10,224,10907,2,0,P|14:284|20:344,1,120,2|2,0:0|0:0,0:0:0:0:
75,369,11499,1,2,0:0:0:0:
132,350,11696,1,2,0:0:0:0:
272,237,12288,2,0,P|300:228|329:221,1,60,2|2,0:0|0:0,0:0:0:0:
383,194,12683,6,0,P|385:104|393:14,2,180,2|2|2,0:0|0:0|0:0,0:0:0:0:
493,241,14262,2,0,P|498:151|504:61,2,180,2|2|2,0:0|0:0|0:0,0:0:0:0:
390,303,15841,6,0,P|391:332|393:362,2,60,2|0|2,0:0|0:0|0:0,0:0:0:0:
289,237,16630,2,0,P|286:207|285:177,2,60,2|0|2,0:0|0:0|0:0,0:0:0:0:
199,317,17420,2,0,P|139:323|79:325,1,120,2|0,0:0|0:0,0:0:0:0:
9,228,18209,1,0,0:0:0:0:
36,111,18604,1,0,0:0:0:0:
138,47,18999,6,0,P|143:136|148:226,2,180,2|2|2,0:0|0:0|0:0,0:0:0:0:
249,3,20578,2,0,P|338:12|428:18,2,180,2|2|2,0:0|0:0|0:0,0:0:0:0:
258,122,22157,6,0,P|260:151|261:181,1,60,2|0,0:0|0:0,0:0:0:0:
266,241,22552,1,2,0:0:0:0:
376,287,22946,2,0,P|378:257|379:227,1,60,2|0,0:0|0:0,0:0:0:0:
384,168,23341,1,2,0:0:0:0:
486,104,23736,6,0,P|487:194|491:284,1,180,2|0,0:0|0:0,0:0:0:0:
492,344,24525,1,12,0:0:0:0:
374,370,24920,1,8,3:2:0:0:
314,369,25117,1,10,3:2:0:0:
252,365,25315,6,0,P|240:306|226:247,1,120,14|0,3:2|3:3,0:0:0:0:
207,190,25907,1,10,0:1:0:0:
194,75,26301,1,8,0:1:0:0:
194,75,26499,1,2,0:1:0:0:
84,13,26894,2,0,P|31:36|7:89,1,120,2|0,3:1|3:3,0:0:0:0:
24,147,27486,1,10,0:1:0:0:
60,266,27880,1,8,0:1:0:0:
60,266,28078,1,2,0:1:0:0:
153,341,28473,6,0,P|181:331|210:325,1,60,2|8,0:1|3:1,0:0:0:0:
266,345,28867,1,2,0:1:0:0:
385,350,29262,2,0,P|414:351|444:344,1,60,2|8,3:1|0:1,0:0:0:0:
484,299,29657,1,2,0:1:0:0:
499,178,30051,2,0,P|496:120|456:77,1,120,2|0,3:1|3:3,0:0:0:0:
338,51,30841,1,8,3:3:0:0:
219,90,31236,1,0,0:1:0:0:
162,110,31433,1,8,0:1:0:0:
108,136,31630,6,0,P|96:195|87:255,1,120,6|0,3:1|3:3,0:0:0:0:
81,315,32223,1,10,0:1:0:0:
190,374,32617,1,8,0:1:0:0:
190,374,32815,1,2,0:1:0:0:
309,366,33209,6,0,P|324:277|329:193,1,120,6|0,3:1|3:3,0:0:0:0:
334,187,33801,1,10,0:1:0:0:
324,71,34196,1,8,0:1:0:0:
324,71,34394,1,2,0:1:0:0:
206,46,34788,5,2,0:1:0:0:
149,26,34986,1,8,3:1:0:0:
89,22,35183,1,2,0:1:0:0:
70,140,35578,1,2,3:1:0:0:
127,156,35775,1,8,0:1:0:0:
187,158,35973,1,2,0:1:0:0:
305,140,36367,6,0,P|364:133|424:125,2,120,12|12|8,3:2|3:2|3:3,0:0:0:0:
244,243,37551,1,0,0:1:0:0:
184,250,37749,1,8,0:1:0:0:
160,305,37946,6,0,P|218:318|276:333,1,120,14|0,3:2|3:3,0:0:0:0:
336,333,38538,1,10,0:1:0:0:
450,291,38933,1,8,0:1:0:0:
450,291,39130,2,0,P|456:262|455:232,1,60,2|8,0:1|0:1,0:0:0:0:
461,172,39525,2,0,P|402:165|350:137,1,120,2|0,3:1|3:3,0:0:0:0:
305,96,40117,1,10,0:1:0:0:
202,44,40512,1,8,0:1:0:0:
202,44,40709,2,0,P|176:59|156:81,1,60,2|8,0:1|0:1,0:0:0:0:
109,120,41104,6,0,P|80:114|50:112,1,60,2|8,0:1|3:1,0:0:0:0:
7,154,41499,1,2,0:1:0:0:
13,276,41894,2,0,P|14:306|20:336,1,60,2|8,3:1|0:1,0:0:0:0:
71,368,42289,1,2,0:1:0:0:
190,380,42683,2,0,P|249:373|309:369,2,120,2|0|8,3:1|3:3|3:3,0:0:0:0:
144,268,43867,1,0,0:1:0:0:
198,161,44262,6,0,P|256:173|315:163,1,120,6|0,3:1|3:3,0:0:0:0:
375,170,44854,1,10,0:1:0:0:
475,244,45249,1,8,0:1:0:0:
475,244,45446,2,0,P|461:271|452:304,1,60,2|8,0:1|0:1,0:0:0:0:
437,357,45841,2,0,P|380:338|320:333,1,120,6|0,3:1|3:3,0:0:0:0:
263,351,46433,1,10,0:1:0:0:
146,356,46828,1,8,0:1:0:0:
146,356,47025,2,0,P|120:339|93:328,1,60,2|8,0:1|0:1,0:0:0:0:
43,292,47420,6,0,P|58:235|61:175,1,120,2|2,0:1|0:1,0:0:0:0:
16,60,48209,2,0,P|75:52|131:32,1,120,2|2,3:1|0:1,0:0:0:0:
249,5,48999,1,12,3:2:0:0:
362,43,49394,1,12,3:2:0:0:
418,148,49788,1,8,3:3:0:0:
381,265,50183,1,0,0:1:0:0:
381,265,50380,1,8,0:1:0:0:
381,265,50578,6,0,P|321:268|261:274,1,120,14|0,3:2|3:3,0:0:0:0:
206,299,51170,1,10,0:1:0:0:
114,230,51565,1,8,0:1:0:0:
114,230,51762,1,2,0:1:0:0:
87,112,52157,2,0,P|145:122|205:122,1,120,2|0,3:1|3:3,0:0:0:0:
265,117,52749,1,10,0:1:0:0:
388,129,53144,1,8,0:1:0:0:
388,129,53341,1,2,0:1:0:0:
468,219,53736,5,2,0:1:0:0:
504,266,53933,1,8,3:1:0:0:
496,325,54130,1,2,0:1:0:0:
376,340,54525,1,2,3:1:0:0:
345,287,54723,1,8,0:1:0:0:
362,229,54920,1,2,0:1:0:0:
410,119,55315,5,2,3:1:0:0:
403,59,55512,1,8,3:1:0:0:
398,0,55709,1,0,3:3:0:0:
277,2,56104,2,0,P|218:13|158:21,1,120,8|0,3:3|0:1,0:0:0:0:
38,23,56894,6,0,P|29:82|27:142,1,120,6|0,3:1|3:3,0:0:0:0:
38,206,57486,1,10,0:1:0:0:
38,206,57683,1,8,3:3:0:0:
54,324,58078,1,2,0:1:0:0:
101,363,58275,1,8,0:1:0:0:
158,347,58473,2,0,P|217:355|277:362,1,120,6|0,3:1|3:3,0:0:0:0:
340,361,59065,1,10,0:1:0:0:
340,361,59262,1,8,3:3:0:0:
457,334,59657,1,2,0:1:0:0:
504,224,60051,5,2,0:1:0:0:
455,188,60249,1,8,3:1:0:0:
395,184,60446,1,2,0:1:0:0:
275,188,60841,1,2,3:1:0:0:
218,169,61038,1,8,0:1:0:0:
184,118,61236,1,2,0:1:0:0:
91,42,61630,5,12,3:2:0:0:
30,145,62025,1,12,3:2:0:0:
124,218,62420,2,0,P|130:247|132:277,1,60,8|8,3:3|0:1,0:0:0:0:
159,330,62815,2,0,P|189:322|218:318,1,60,0|8,0:1|0:1,0:0:0:0:
265,355,63209,6,1,P|321:339|352:289,1,120,14|0,3:2|3:3,0:0:0:0:
350,229,63801,1,10,0:1:0:0:
350,229,63999,1,8,3:3:0:0:
259,149,64394,1,2,0:1:0:0:
259,149,64591,1,8,0:1:0:0:
208,115,64788,2,1,P|149:120|89:113,1,120,2|0,3:1|3:3,0:0:0:0:
52,74,65380,1,10,0:1:0:0:
52,74,65578,1,8,3:3:0:0:
153,9,65973,1,2,0:1:0:0:
212,4,66170,1,8,0:1:0:0:
270,13,66367,6,0,P|300:12|330:10,2,60,2|8|2,0:1|3:1|0:1,0:0:0:0:
323,119,67157,2,0,P|351:132|380:141,2,60,2|8|2,3:1|0:1|0:1,0:0:0:0:
259,221,67946,1,2,3:1:0:0:
286,337,68341,1,0,3:3:0:0:
402,365,68736,1,8,3:3:0:0:
496,290,69130,1,0,0:1:0:0:
478,232,69328,1,8,0:1:0:0:
456,174,69525,6,0,P|471:117|482:58,1,120,6|0,3:1|3:3,0:0:0:0:
433,23,70117,1,10,0:1:0:0:
433,23,70315,1,8,3:3:0:0:
319,65,70709,2,0,P|290:60|261:52,1,60,2|8,0:1|0:1,0:0:0:0:
213,15,71104,2,0,P|153:18|105:52,1,120,6|0,3:1|3:3,0:0:0:0:
103,116,71696,1,10,0:1:0:0:
103,116,71894,1,8,3:3:0:0:
190,197,72288,2,0,P|190:226|181:255,1,60,2|8,0:1|0:1,0:0:0:0:
166,313,72683,5,2,0:1:0:0:
209,354,72880,1,8,3:1:0:0:
269,352,73078,1,2,0:1:0:0:
384,383,73473,1,2,3:1:0:0:
441,366,73670,1,8,0:1:0:0:
476,317,73867,1,2,0:1:0:0:
415,213,74262,6,0,P|420:153|428:93,1,120,12|12,3:2|3:2,0:0:0:0:
311,68,75051,2,0,P|301:127|290:186,1,120,8|8,3:3|0:0,0:0:0:0:
252,233,75644,1,8,0:1:0:0:
252,233,75841,6,1,P|193:219|134:210,1,120,14|0,3:2|3:3,0:0:0:0:
79,227,76433,1,10,0:1:0:0:
79,227,76631,1,8,3:3:0:0:
3,133,77026,1,2,0:1:0:0:
3,73,77223,1,8,0:1:0:0:
17,14,77420,2,1,P|76:13|136:4,1,120,2|0,3:1|3:3,0:0:0:0:
200,13,78012,1,10,0:1:0:0:
200,13,78210,1,8,3:3:0:0:
294,86,78605,1,2,0:1:0:0:
346,56,78802,1,8,0:1:0:0:
398,27,78999,6,0,P|427:27|457:24,2,60,2|8|2,0:1|3:1|0:1,0:0:0:0:
430,142,79789,2,0,P|464:152|502:163,2,60,2|8|2,3:1|0:1|0:1,0:0:0:0:
377,249,80578,1,2,3:1:0:0:
351,366,80973,1,0,3:3:0:0:
231,360,81368,1,8,3:3:0:0:
119,371,81762,1,0,0:1:0:0:
119,371,81960,1,8,0:1:0:0:
119,371,82157,6,0,P|110:311|95:253,1,120,6|0,3:1|3:3,0:0:0:0:
39,230,82749,1,10,0:1:0:0:
39,230,82947,1,8,3:3:0:0:
6,114,83341,2,0,P|29:94|54:77,1,60,2|8,0:1|0:1,0:0:0:0:
112,94,83736,2,0,P|160:129|212:158,1,120,6|0,3:1|3:3,0:0:0:0:
266,186,84328,1,10,0:1:0:0:
302,234,84526,1,8,3:3:0:0:
408,288,84920,2,0,P|426:264|440:237,1,60,2|8,0:1|0:1,0:0:0:0:
462,182,85315,5,2,0:1:0:0:
472,123,85512,1,8,3:1:0:0:
469,62,85710,1,2,0:1:0:0:
359,13,86105,1,2,3:1:0:0:
305,39,86302,1,8,0:1:0:0:
245,34,86499,1,2,0:1:0:0:
124,22,86894,6,0,P|66:9|6:2,1,120,12|12,3:2|3:2,0:0:0:0:
20,120,87683,2,0,P|26:180|35:239,1,120,8|0,3:3|0:1,0:0:0:0:
57,296,88276,1,8,0:1:0:0:
114,311,88473,5,12,3:1:0:0:
256,192,88670,12,4,93209,0:0:0:0:
