osu file format v14

[General]
AudioFilename: audio.mp3
AudioLeadIn: 0
PreviewTime: 12091
Countdown: 0
SampleSet: Soft
StackLeniency: 0.5
Mode: 0
LetterboxInBreaks: 0
WidescreenStoryboard: 1

[Editor]
DistanceSpacing: 0.1
BeatDivisor: 4
GridSize: 32
TimelineZoom: 2.5

[Metadata]
Title:Border of Life
TitleUnicode:ボーダーオブライフ
Artist:ZUN
ArtistUnicode:ZUN
Creator:Shurelia
Version:Aeril's Lunatic
Source:東方妖々夢 ~ Perfect Cherry Blossom.
Tags:東方Project 西行寺幽々子 final stage boss Yuyuko Saigyouji th7 touhou pcb Last Spell Video Game Instrumental Team Shanghai Alice nik nikolomara aeril
BeatmapID:4064605
BeatmapSetID:1953606

[Difficulty]
HPDrainRate:8
CircleSize:4
OverallDifficulty:8
ApproachRate:8
SliderMultiplier:2
SliderTickRate:1

[Events]
//Background and Video events
0,0,"yuyukobg.jpg",0,0
//Break Periods
//Storyboard Layer 0 (Background)
//Storyboard Layer 1 (Fail)
//Storyboard Layer 2 (Pass)
//Storyboard Layer 3 (Foreground)
//Storyboard Layer 4 (Overlay)
//Storyboard Sound Samples

[TimingPoints]
52,394.736842105263,4,2,1,50,1,0
12683,-100,4,2,1,60,0,0
24525,-76.9230769230769,4,2,1,70,0,0
25315,-100,4,2,1,70,0,0
37946,-76.9230769230769,4,2,1,75,0,1
50183,-76.9230769230769,4,2,1,75,0,0
50578,-76.9230769230769,4,2,1,75,0,1
53736,-76.9230769230769,4,2,1,70,0,1
55315,-76.9230769230769,4,2,1,80,0,1
56894,-76.9230769230769,4,2,1,70,0,1
60051,-76.9230769230769,4,2,1,75,0,1
61236,-76.9230769230769,4,2,1,80,0,1
61630,-76.9230769230769,4,2,1,90,0,1
63209,-66.6666666666667,4,2,1,80,0,0
66367,-76.9230769230769,4,2,1,80,0,0
75841,-66.6666666666667,4,2,1,80,0,0
78999,-76.9230769230769,4,2,1,80,0,0

[Colours]
Combo1 : 255,128,192
Combo2 : 255,128,255

[HitObjects]
164,354,52,5,2,0:0:0:0:
172,320,150,1,0,0:0:0:0:
164,286,249,1,0,0:0:0:0:
140,261,348,1,0,0:0:0:0:
107,251,446,2,0,P|87:258|54:285,1,50
5,216,644,1,2,0:0:0:0:
47,190,742,1,0,0:0:0:0:
94,172,841,1,0,0:0:0:0:
143,164,940,1,0,0:0:0:0:
193,166,1038,2,0,P|218:170|257:188,3,50
258,266,1433,5,2,0:0:0:0:
259,300,1532,1,0,0:0:0:0:
275,331,1630,1,0,0:0:0:0:
302,352,1729,1,0,0:0:0:0:
336,360,1828,2,0,P|366:353|387:342,3,50,2|0|2|0,0:0|0:0|0:0|0:0,0:0:0:0:
343,270,2223,1,2,0:0:0:0:
345,220,2321,1,0,0:0:0:0:
355,171,2420,1,0,0:0:0:0:
373,124,2519,1,0,0:0:0:0:
398,81,2617,2,0,P|410:62|434:39,3,50
477,118,3012,5,2,0:0:0:0:
492,148,3111,1,0,0:0:0:0:
491,183,3209,1,0,0:0:0:0:
472,212,3308,1,0,0:0:0:0:
442,229,3407,2,0,P|410:239|385:257,3,50
347,164,3801,1,2,0:0:0:0:
326,149,3900,1,0,0:0:0:0:
311,129,3999,1,0,0:0:0:0:
302,106,4098,1,0,0:0:0:0:
300,81,4196,2,0,P|299:57|291:24,3,50
212,67,4591,5,2,0:0:0:0:
186,43,4690,1,0,0:0:0:0:
155,27,4788,1,0,0:0:0:0:
120,20,4887,1,0,0:0:0:0:
86,23,4986,2,0,P|48:34|25:51,3,50,2|0|2|0,0:0|0:0|0:0|0:0,0:0:0:0:
19,120,5380,1,2,0:0:0:0:
29,131,5479,1,0,0:0:0:0:
38,143,5578,2,0,P|42:172|40:210,3,50
142,168,5973,2,0,P|130:195|110:227,3,50,0|0|2|0,0:0|0:0|0:0|0:0,0:0:0:0:
224,136,6367,5,2,0:0:0:0:
255,150,6466,1,0,0:0:0:0:
290,153,6565,1,2,0:0:0:0:
323,143,6663,1,0,0:0:0:0:
350,121,6762,2,0,P|359:90|358:67,1,50,2|0,0:0|0:0,0:0:0:0:
440,18,6959,1,2,0:0:0:0:
447,67,7058,1,0,0:0:0:0:
445,117,7157,1,2,0:0:0:0:
432,165,7255,1,0,0:0:0:0:
409,209,7354,2,0,P|388:228|354:243,3,50,2|0|0|0,0:0|0:0|0:0|0:0,0:0:0:0:
469,271,7749,5,2,0:0:0:0:
444,295,7848,1,0,0:0:0:0:
437,329,7946,1,0,0:0:0:0:
448,362,8045,1,0,0:0:0:0:
475,383,8144,2,0,P|500:360|509:320,3,50,2|0|2|0,0:0|0:0|0:0|0:0,0:0:0:0:
411,319,8538,2,0,L|337:311,1,50,2|0,0:0|0:0,0:0:0:0:
283,357,8736,1,0,0:0:0:0:
233,362,8834,1,0,0:0:0:0:
183,367,8933,2,0,L|101:374,3,50,0|0|2|0,0:0|0:0|0:0|0:0,0:0:0:0:
53,325,9328,5,0,0:0:0:0:
62,291,9426,1,0,0:0:0:0:
86,266,9525,1,2,0:0:0:0:
119,256,9624,1,0,0:0:0:0:
153,262,9723,2,0,P|185:280|203:311,3,50,2|0|2|0,0:0|0:0|0:0|0:0,0:0:0:0:
278,275,10117,1,2,0:0:0:0:
291,254,10216,1,0,0:0:0:0:
300,230,10315,1,2,0:0:0:0:
304,206,10413,1,0,0:0:0:0:
304,181,10512,2,0,P|301:158|307:119,3,50,2|0|0|0,0:0|0:0|0:0|0:0,0:0:0:0:
335,54,10907,5,2,0:0:0:0:
301,46,11005,1,0,0:0:0:0:
267,53,11104,1,0,0:0:0:0:
238,73,11203,1,0,0:0:0:0:
221,103,11301,2,0,P|205:133|184:148,3,50,2|0|2|0,0:0|0:0|0:0|0:0,0:0:0:0:
174,230,11696,1,2,0:0:0:0:
124,234,11795,1,0,0:0:0:0:
79,215,11894,1,0,0:0:0:0:
47,176,11992,1,0,0:0:0:0:
38,128,12091,2,0,P|36:99|44:55,1,50
93,4,12288,6,0,P|127:56|123:104,1,100,2|2,0:0|0:0,0:0:0:0:
34,270,12683,2,0,P|22:316|118:292,1,200,2|0,0:0|0:0,0:0:0:0:
239,167,13275,2,0,P|229:120|153:184,1,200,2|0,0:0|0:0,0:0:0:0:
209,261,13867,2,0,P|253:273|301:313,1,100,2|0,0:0|0:0,0:0:0:0:
506,332,14262,6,0,P|476:356|420:247,1,200,2|0,0:0|0:0,0:0:0:0:
475,15,14854,2,0,P|500:62|388:75,1,200,2|0,0:0|0:0,0:0:0:0:
332,32,15446,2,0,P|271:43|233:75,1,100,2|0,0:0|0:0,0:0:0:0:
160,111,15841,6,0,P|126:71|74:61,1,100,2|0,0:0|0:0,0:0:0:0:
243,154,16236,2,0,P|289:146|351:174,1,100,2|0,0:0|0:0,0:0:0:0:
99,179,16630,6,0,P|52:193|10:241,1,100,2|0,0:0|0:0,0:0:0:0:
263,240,17025,2,0,P|286:285|281:345,1,100,2|0,0:0|0:0,0:0:0:0:
41,357,17420,6,0,P|75:302|205:315,1,200,2|0,0:0|0:0,0:0:0:0:
373,262,18012,1,0,0:0:0:0:
505,384,18209,1,0,0:0:0:0:
278,261,18407,5,0,0:0:0:0:
352,350,18604,1,0,0:0:0:0:
459,305,18801,1,0,0:0:0:0:
373,262,18999,6,0,P|373:212|231:164,1,200,2|0,0:0|0:0,0:0:0:0:
473,28,19591,2,0,P|451:95|322:99,1,200,2|0,0:0|0:0,0:0:0:0:
382,30,20183,2,0,P|431:42|470:102,1,100,2|0,0:0|0:0,0:0:0:0:
456,295,20578,6,0,P|363:297|270:400,1,200,2|0,0:0|0:0,0:0:0:0:
97,189,21170,2,0,P|165:229|195:351,1,200,2|0,0:0|0:0,0:0:0:0:
275,248,21762,2,0,P|283:207|333:148,1,100,2|0,0:0|0:0,0:0:0:0:
496,154,22157,6,0,P|430:166|395:198,1,100,2|0,0:0|0:0,0:0:0:0:
507,67,22551,2,0,P|451:43|425:1,1,100,2|0,0:0|0:0,0:0:0:0:
316,160,22946,6,0,P|254:149|222:90,1,100,2|0,0:0|0:0,0:0:0:0:
337,25,23341,2,0,P|275:21|233:54,1,100,2|0,0:0|0:0,0:0:0:0:
29,27,23736,6,0,P|87:42|172:316,1,350,2|0,0:0|0:0,0:0:0:0:
101,273,24525,1,12,0:0:0:0:
97,241,24624,1,0,0:0:0:0:
93,209,24723,1,0,0:0:0:0:
89,177,24821,1,0,0:0:0:0:
46,150,24920,2,0,L|51:113,6,32.4999985122681,8|8|8|8|10|8|8,3:2|3:2|3:2|3:2|3:2|3:2|3:2,0:0:0:0:
12,231,25315,6,0,L|17:291,1,50,14|0,3:2|3:3,0:0:0:0:
136,105,25512,1,8,3:1:0:0:
185,178,25709,1,0,3:3:0:0:
303,80,25907,1,10,0:1:0:0:
303,80,26005,1,8,3:3:0:0:
303,80,26104,2,0,L|361:71,1,50,8|8,3:3|3:3,0:0:0:0:
288,162,26301,1,8,0:1:0:0:
288,162,26400,1,4,3:3:0:0:
288,162,26499,2,0,L|387:146,1,100,2|8,0:1|0:1,0:0:0:0:
486,23,26894,6,0,L|475:103,1,50,2|0,3:1|3:0,0:0:0:0:
459,203,27091,1,8,3:1:0:0:
387,146,27288,1,0,3:3:0:0:
423,311,27486,1,10,0:1:0:0:
423,311,27584,1,8,3:3:0:0:
423,311,27683,2,0,L|434:375,1,50,8|8,3:3|3:3,0:0:0:0:
352,348,27880,1,8,0:1:0:0:
352,348,27979,1,4,3:3:0:0:
352,348,28078,2,0,L|254:331,1,100,2|8,0:1|0:1,0:0:0:0:
29,305,28473,5,2,0:1:0:0:
32,318,28571,1,0,3:3:0:0:
35,331,28670,1,8,3:1:0:0:
178,278,28867,2,0,L|161:376,1,100,2|8,0:1|0:1,0:0:0:0:
246,380,29163,1,8,3:3:0:0:
246,380,29262,2,0,L|254:327,1,50,2|8,3:1|3:3,0:0:0:0:
247,228,29459,5,8,0:1:0:0:
253,202,29557,1,4,3:3:0:0:
259,176,29656,1,2,0:1:0:0:
95,245,29854,1,8,0:1:0:0:
37,44,30051,5,2,3:1:0:0:
37,44,30150,1,0,3:3:0:0:
37,44,30249,2,0,P|116:38|177:145,1,200,8|8,3:1|0:1,0:0:0:0:
282,45,30841,1,8,3:3:0:0:
276,71,30940,1,8,3:3:0:0:
270,97,31038,2,0,L|280:169,1,50,8|4,0:1|3:3,0:0:0:0:
217,217,31236,1,0,0:1:0:0:
320,345,31433,5,8,0:1:0:0:
320,345,31532,1,0,0:0:0:0:
320,345,31630,2,0,L|253:357,2,50,6|0|8,3:1|3:3|3:1,0:0:0:0:
198,301,32025,1,0,3:3:0:0:
367,189,32223,1,10,0:1:0:0:
406,188,32321,1,8,3:3:0:0:
444,201,32420,1,8,3:3:0:0:
476,224,32519,1,8,3:3:0:0:
500,256,32617,2,0,P|503:293|497:319,1,50,8|4,0:1|3:3,0:0:0:0:
411,384,32815,2,0,L|399:272,1,100,2|8,0:1|0:1,0:0:0:0:
266,146,33209,6,0,L|254:258,2,100,6|8|0,3:1|3:1|3:3,0:0:0:0:
510,46,33801,1,10,0:1:0:0:
486,76,33899,1,8,3:3:0:0:
452,98,33998,1,8,3:3:0:0:
414,108,34097,1,8,3:3:0:0:
374,107,34195,2,0,P|343:86|326:65,1,50,8|4,0:1|3:3,0:0:0:0:
261,20,34394,6,0,P|202:20|158:140,1,200,2|2,0:1|0:1,0:0:0:0:
155,135,34887,1,0,3:3:0:0:
155,135,34986,1,8,3:1:0:0:
68,54,35183,1,2,0:1:0:0:
232,102,35380,1,8,0:1:0:0:
109,225,35578,1,2,3:1:0:0:
109,225,35676,1,8,3:3:0:0:
109,225,35775,2,0,P|120:283|114:326,2,100,8|2|8,0:1|0:1|0:1,0:0:0:0:
169,20,36367,5,12,3:2:0:0:
256,192,36466,12,8,37848,0:0:0:0:
474,41,37946,5,14,3:2:0:0:
474,41,38045,1,0,3:3:0:0:
474,41,38144,2,0,P|403:44|357:109,1,129.999994049073,8|0,3:1|3:3,0:0:0:0:
421,265,38538,2,0,L|484:277,1,64.9999970245363,10|8,0:1|3:3,0:0:0:0:
436,166,38736,1,8,3:3:0:0:
391,174,38834,1,8,3:3:0:0:
346,183,38933,1,8,0:1:0:0:
301,191,39032,1,4,3:3:0:0:
257,200,39130,1,2,0:1:0:0:
129,363,39328,5,8,0:1:0:0:
129,363,39426,1,0,0:0:0:0:
129,363,39525,2,0,P|86:361|55:335,1,64.9999970245363,2|0,3:1|3:0,0:0:0:0:
9,290,39723,2,0,P|49:242|111:252,1,129.999994049073,8|0,3:1|3:3,0:0:0:0:
223,384,40117,2,0,L|211:321,1,64.9999970245363,10|8,0:1|3:3,0:0:0:0:
197,232,40315,1,8,3:3:0:0:
205,187,40413,1,8,3:3:0:0:
214,142,40512,1,8,0:1:0:0:
222,97,40611,1,4,3:3:0:0:
231,53,40709,1,2,0:1:0:0:
22,103,40907,6,0,L|34:188,1,64.9999970245363,8|0,0:1|0:0,0:0:0:0:
114,43,41104,1,2,0:1:0:0:
118,22,41203,1,0,3:3:0:0:
123,1,41301,1,8,3:1:0:0:
287,77,41499,2,0,P|218:81|181:136,1,129.999994049073,2|8,0:1|0:1,0:0:0:0:
144,206,41795,1,8,3:3:0:0:
144,206,41894,6,0,L|156:291,1,64.9999970245363,2|8,3:1|3:3,0:0:0:0:
255,183,42091,1,8,0:1:0:0:
258,169,42190,1,4,3:3:0:0:
261,155,42288,1,2,0:1:0:0:
341,355,42486,1,8,0:1:0:0:
475,194,42683,5,2,3:1:0:0:
475,194,42782,1,0,0:0:0:0:
475,194,42880,2,0,P|501:268|391:228,1,259.999988098145,8|8,3:1|0:1,0:0:0:0:
258,311,43473,1,8,3:3:0:0:
213,304,43571,1,8,3:3:0:0:
168,311,43670,1,8,0:1:0:0:
128,332,43769,1,0,0:0:0:0:
94,369,43867,2,0,L|-3:351,1,64.9999970245363,0|0,0:1|0:0,0:0:0:0:
0,273,44065,1,8,0:1:0:0:
206,212,44262,5,6,3:1:0:0:
206,212,44361,1,0,3:3:0:0:
206,212,44459,2,0,L|339:236,1,129.999994049073,8|0,3:1|3:3,0:0:0:0:
421,61,44854,2,0,L|483:47,1,64.9999970245363,10|8,0:1|3:3,0:0:0:0:
437,159,45052,1,8,3:3:0:0:
392,152,45150,1,8,3:3:0:0:
347,144,45249,1,8,0:1:0:0:
302,137,45348,1,4,3:3:0:0:
258,128,45446,1,2,0:1:0:0:
38,34,45644,5,8,0:1:0:0:
38,34,45742,1,0,0:0:0:0:
38,34,45841,2,0,P|76:45|96:84,1,64.9999970245363,6|0,3:1|3:3,0:0:0:0:
201,66,46038,2,0,P|139:92|116:173,1,129.999994049073,8|0,3:1|3:3,0:0:0:0:
283,241,46433,2,0,L|295:304,1,64.9999970245363,10|8,0:1|3:3,0:0:0:0:
174,335,46631,1,8,3:3:0:0:
182,290,46729,1,8,3:3:0:0:
191,245,46828,1,8,0:1:0:0:
199,200,46927,1,4,3:3:0:0:
208,156,47025,1,2,0:1:0:0:
359,40,47223,6,0,L|274:52,1,64.9999970245363,8|0,0:1|0:0,0:0:0:0:
208,156,47420,1,2,0:1:0:0:
187,151,47519,1,0,3:3:0:0:
166,147,47617,1,8,3:1:0:0:
403,137,47815,2,0,P|334:141|297:196,1,129.999994049073,2|8,0:1|0:1,0:0:0:0:
229,250,48111,1,8,3:3:0:0:
229,250,48210,6,0,L|144:262,1,64.9999970245363,2|8,3:1|3:3,0:0:0:0:
71,193,48407,1,8,0:1:0:0:
57,190,48506,1,4,3:3:0:0:
43,187,48604,1,2,0:1:0:0:
206,351,48802,1,8,0:1:0:0:
0,272,48999,5,12,3:2:0:0:
0,272,49394,1,12,3:2:0:0:
0,272,49788,1,8,3:3:0:0:
31,277,49887,1,8,3:3:0:0:
63,283,49986,1,8,0:1:0:0:
95,289,50084,1,4,3:3:0:0:
119,333,50183,2,0,L|156:329,6,32.4999985122681,0|8|8|0|8|8|8,0:1|0:0|0:0|0:0|0:1|0:0|0:0,0:0:0:0:
174,244,50578,5,14,3:2:0:0:
174,244,50676,1,0,3:3:0:0:
174,244,50775,2,0,P|235:246|284:309,1,129.999994049073,8|0,3:1|3:3,0:0:0:0:
444,358,51170,2,0,L|507:370,1,64.9999970245363,10|8,0:1|3:3,0:0:0:0:
459,259,51368,1,8,3:3:0:0:
414,267,51466,1,8,3:3:0:0:
369,276,51565,1,8,0:1:0:0:
324,284,51664,1,4,3:3:0:0:
280,293,51762,1,2,0:1:0:0:
382,162,51959,5,8,0:1:0:0:
382,162,52057,1,0,0:0:0:0:
382,162,52156,2,0,P|425:164|456:190,1,64.9999970245363,2|0,3:1|3:0,0:0:0:0:
487,107,52354,2,0,P|449:73|459:-5,1,129.999994049073,8|0,3:1|3:3,0:0:0:0:
316,35,52749,2,0,L|304:98,1,64.9999970245363,10|8,0:1|3:3,0:0:0:0:
290,195,52947,1,8,3:3:0:0:
298,240,53045,1,8,3:3:0:0:
307,285,53144,1,8,0:1:0:0:
315,330,53243,1,4,3:3:0:0:
324,374,53341,1,2,0:1:0:0:
405,290,53538,6,0,L|417:227,1,64.9999970245363,8|0,0:1|0:0,0:0:0:0:
471,346,53736,1,2,0:1:0:0:
475,365,53835,1,0,3:3:0:0:
479,384,53933,1,8,3:1:0:0:
324,374,54130,2,0,P|296:334|313:260,1,129.999994049073,2|8,0:1|0:1,0:0:0:0:
262,183,54426,1,8,3:3:0:0:
262,183,54525,6,0,L|274:120,1,64.9999970245363,2|8,3:1|3:3,0:0:0:0:
403,37,54723,1,8,0:1:0:0:
409,68,54822,1,4,3:3:0:0:
416,100,54920,1,2,0:1:0:0:
262,183,55117,1,8,0:1:0:0:
93,125,55315,5,2,3:1:0:0:
93,125,55413,1,0,0:0:0:0:
93,125,55512,2,0,P|164:112|185:268,1,259.999988098145,8|8,3:1|0:1,0:0:0:0:
319,384,56104,1,8,3:3:0:0:
312,339,56202,1,8,3:3:0:0:
319,294,56301,1,8,0:1:0:0:
340,254,56400,1,0,0:0:0:0:
377,220,56498,2,0,L|359:123,1,64.9999970245363,0|0,0:1|0:0,0:0:0:0:
291,104,56696,1,8,0:1:0:0:
509,9,56894,5,6,3:1:0:0:
509,9,56993,1,0,3:3:0:0:
509,9,57091,2,0,L|376:33,1,129.999994049073,8|0,3:1|3:3,0:0:0:0:
261,195,57486,2,0,L|198:207,1,64.9999970245363,10|8,0:1|3:3,0:0:0:0:
246,96,57684,1,8,3:3:0:0:
291,104,57782,1,8,3:3:0:0:
336,113,57881,1,8,0:1:0:0:
381,121,57980,1,4,3:3:0:0:
425,130,58078,1,2,0:1:0:0:
331,271,58275,5,8,0:1:0:0:
331,271,58374,1,0,0:0:0:0:
331,271,58473,2,0,P|301:288|276:334,1,64.9999970245363,6|0,3:1|3:3,0:0:0:0:
217,368,58670,2,0,P|172:309|106:303,1,129.999994049073,8|0,3:1|3:3,0:0:0:0:
3,208,59065,2,0,L|66:220,1,64.9999970245363,10|8,0:1|3:3,0:0:0:0:
152,201,59263,1,8,3:3:0:0:
197,193,59361,1,8,3:3:0:0:
242,184,59460,1,8,0:1:0:0:
287,176,59559,1,4,3:3:0:0:
331,167,59657,1,2,0:1:0:0:
250,266,59854,6,0,L|335:278,1,64.9999970245363,8|0,0:1|0:0,0:0:0:0:
465,189,60051,1,2,0:1:0:0:
486,193,60150,1,0,3:3:0:0:
507,198,60248,1,8,3:1:0:0:
379,339,60446,2,0,P|402:278|365:201,1,129.999994049073,2|8,0:1|0:1,0:0:0:0:
333,126,60742,1,8,3:3:0:0:
333,126,60841,6,0,L|418:138,1,64.9999970245363,2|8,3:1|3:3,0:0:0:0:
512,15,61038,1,8,0:1:0:0:
480,21,61137,1,4,3:3:0:0:
449,28,61236,1,2,0:1:0:0:
293,50,61433,1,8,0:1:0:0:
441,213,61630,5,12,3:2:0:0:
441,213,62025,1,12,3:2:0:0:
441,213,62420,1,8,3:3:0:0:
446,182,62519,1,8,3:3:0:0:
452,150,62618,1,8,0:1:0:0:
458,118,62716,1,4,3:3:0:0:
502,94,62815,2,0,L|498:56,6,32.4999985122681,0|8|8|8|8|8|8,0:1|0:0|0:0|0:0|0:1|0:0|0:0,0:0:0:0:
416,9,63209,6,1,P|423:31|409:9,1,75.0000028610231,14|0,3:2|3:3,0:0:0:0:
330,86,63407,2,1,P|347:101|324:89,1,75.0000028610231,8|0,3:1|0:0,0:0:0:0:
294,196,63604,2,1,P|317:200|290:204,1,75.0000028610231,0|0,3:3|0:0,0:0:0:0:
318,309,63801,2,1,P|340:301|318:315,1,75.0000028610231,10|8,0:1|3:3,0:0:0:0:
434,365,63999,6,1,P|410:362|435:371,1,75.0000028610231,8|8,3:3|3:3,0:0:0:0:
436,250,64196,2,1,P|413:259|439:254,1,75.0000028610231,8|4,0:1|3:3,0:0:0:0:
380,149,64394,2,1,P|365:168|385:151,1,75.0000028610231,2|0,0:1|0:0,0:0:0:0:
281,89,64591,2,1,P|278:113|287:88,1,75.0000028610231,8|0,0:1|0:0,0:0:0:0:
345,9,64788,6,1,P|321:0|347:4,1,75.0000028610231,2|0,3:1|3:0,0:0:0:0:
293,112,64985,2,1,P|276:93|296:109,1,75.0000028610231,8|0,3:1|0:0,0:0:0:0:
197,176,65183,2,1,P|191:151|202:175,1,75.0000028610231,0|0,3:3|0:0,0:0:0:0:
82,185,65380,2,1,P|89:161|86:187,1,75.0000028610231,8|8,0:1|3:3,0:0:0:0:
28,78,65578,6,1,P|32:101|21:77,1,75.0000028610231,8|8,3:3|3:3,0:0:0:0:
139,66,65775,2,1,P|130:89|134:62,1,75.0000028610231,8|4,0:1|3:3,0:0:0:0:
244,116,65973,2,1,P|225:132|240:110,1,75.0000028610231,2|0,0:1|0:0,0:0:0:0:
310,209,66170,2,1,P|285:213|309:202,1,75.0000028610231,8|0,0:1|0:0,0:0:0:0:
321,308,66367,6,0,P|383:329|432:394,1,129.999994049073,2|8,0:1|3:1,0:0:0:0:
424,376,66663,1,0,0:0:0:0:
424,376,66762,2,0,L|453:249,1,129.999994049073,2|8,0:1|0:1,0:0:0:0:
508,112,67157,2,0,P|469:156|396:151,1,129.999994049073,2|8,3:1|0:1,0:0:0:0:
401,154,67453,1,4,3:3:0:0:
401,154,67551,2,0,P|376:95|417:25,1,129.999994049073,2|8,0:1|0:1,0:0:0:0:
304,4,67946,5,0,3:3:0:0:
284,45,68045,1,0,3:3:0:0:
277,89,68144,1,8,3:1:0:0:
281,134,68242,1,0,0:0:0:0:
297,177,68341,2,0,P|315:211|318:262,3,64.9999970245363,0|0|8|8,3:3|0:0|0:1|3:3,0:0:0:0:
373,310,68736,2,0,P|339:319|298:354,3,64.9999970245363,8|8|8|4,3:3|3:3|0:1|3:3,0:0:0:0:
235,295,69130,2,0,P|225:328|235:381,3,64.9999970245363,0|0|8|0,0:1|0:0|0:1|0:0,0:0:0:0:
150,376,69525,6,0,L|7:359,1,129.999994049073,6|8,3:1|3:1,0:0:0:0:
20,360,69821,1,0,0:0:0:0:
20,360,69920,2,0,P|34:303|106:276,1,129.999994049073,0|10,3:3|0:1,0:0:0:0:
200,217,70315,2,0,P|234:171|213:77,1,129.999994049073,8|8,3:3|0:1,0:0:0:0:
229,101,70611,1,4,3:3:0:0:
229,101,70709,2,0,P|141:122|117:182,1,129.999994049073,2|8,0:1|0:1,0:0:0:0:
197,304,71104,6,0,L|336:326,1,129.999994049073,6|8,3:1|3:1,0:0:0:0:
325,324,71400,1,0,0:0:0:0:
325,324,71499,2,0,P|348:283|324:206,1,129.999994049073,0|10,3:3|0:1,0:0:0:0:
402,120,71894,2,0,P|455:117|507:42,1,129.999994049073,8|8,3:3|0:1,0:0:0:0:
503,62,72190,1,4,3:3:0:0:
503,62,72288,2,0,P|448:19|380:40,1,129.999994049073,2|8,0:1|0:1,0:0:0:0:
241,3,72683,5,2,0:1:0:0:
255,14,72782,1,0,3:3:0:0:
269,24,72880,2,0,L|286:110,1,64.9999970245363,8|0,3:1|0:0,0:0:0:0:
164,201,73078,2,0,L|186:66,1,129.999994049073,2|8,0:1|0:1,0:0:0:0:
279,183,73473,5,2,3:1:0:0:
270,192,73572,1,8,3:3:0:0:
261,201,73670,2,0,L|244:287,1,64.9999970245363,8|4,0:1|3:3,0:0:0:0:
371,379,73868,2,0,L|349:244,1,129.999994049073,2|8,0:1|0:1,0:0:0:0:
175,316,74262,5,12,3:2:0:0:
175,316,74657,1,12,3:2:0:0:
175,316,75051,1,8,3:3:0:0:
144,321,75150,1,8,3:3:0:0:
112,327,75249,1,8,0:1:0:0:
80,333,75347,1,4,3:3:0:0:
56,377,75446,2,0,L|19:373,6,32.4999985122681,8|8|8|8|8|8|8,0:0|0:0|0:0|0:0|0:1|0:0|0:0,0:0:0:0:
0,293,75841,6,1,P|0:269|6:294,1,75.0000028610231,14|0,3:2|3:3,0:0:0:0:
103,242,76039,2,1,P|90:222|109:240,1,75.0000028610231,8|0,3:1|0:0,0:0:0:0:
168,146,76236,2,1,P|146:135|172:143,1,75.0000028610231,0|0,3:3|0:0,0:0:0:0:
176,31,76433,2,1,P|152:32|177:25,1,75.0000028610231,10|8,0:1|3:3,0:0:0:0:
57,65,76630,6,1,P|56:88|63:63,1,75.0000028610231,8|8,3:3|3:3,0:0:0:0:
159,115,76828,2,1,P|146:134|165:116,1,75.0000028610231,8|4,0:1|3:3,0:0:0:0:
224,211,77025,2,1,P|202:221|228:213,1,75.0000028610231,2|0,0:1|0:0,0:0:0:0:
233,326,77222,2,1,P|209:324|234:331,1,75.0000028610231,8|0,0:1|0:0,0:0:0:0:
317,384,77420,6,1,P|309:362|323:383,1,75.0000028610231,2|0,3:1|3:0,0:0:0:0:
398,304,77618,2,1,P|380:289|403:300,1,75.0000028610231,8|0,3:1|0:0,0:0:0:0:
430,193,77815,2,1,P|406:189|433:188,1,75.0000028610231,0|0,3:3|0:0,0:0:0:0:
403,81,78012,2,1,P|381:89|402:75,1,75.0000028610231,8|8,0:1|3:3,0:0:0:0:
500,29,78209,6,1,P|497:51|493:26,1,75.0000028610231,8|8,3:3|3:3,0:0:0:0:
392,65,78407,2,1,P|401:85|385:65,1,75.0000028610231,8|4,0:1|3:3,0:0:0:0:
314,151,78604,2,1,P|333:164|308:153,1,75.0000028610231,2|0,0:1|0:0,0:0:0:0:
289,263,78801,2,1,P|312:264|286:268,1,75.0000028610231,8|0,0:1|0:0,0:0:0:0:
215,264,78999,6,0,P|162:298|148:372,1,129.999994049073,2|8,0:1|3:1,0:0:0:0:
145,359,79295,1,0,0:0:0:0:
145,359,79394,2,0,L|-8:327,1,129.999994049073,2|8,0:1|0:1,0:0:0:0:
18,185,79788,2,0,P|51:158|152:173,1,129.999994049073,2|8,3:1|0:1,0:0:0:0:
134,160,80084,1,4,3:3:0:0:
134,160,80183,2,0,P|115:95|144:26,1,129.999994049073,2|8,0:1|0:1,0:0:0:0:
281,13,80578,1,0,3:3:0:0:
297,55,80676,1,0,3:3:0:0:
300,100,80775,1,8,3:1:0:0:
290,144,80874,1,0,0:0:0:0:
267,184,80973,2,0,P|308:207|328:247,3,64.9999970245363,0|0|8|8,3:3|0:0|0:1|3:3,0:0:0:0:
377,154,81367,2,0,P|402:134|452:125,3,64.9999970245363,8|8|8|4,3:3|3:3|0:1|3:3,0:0:0:0:
446,213,81762,2,0,P|475:224|508:263,3,64.9999970245363,0|0|8|0,0:1|0:0|0:1|0:0,0:0:0:0:
495,336,82157,6,0,L|345:354,1,129.999994049073,6|8,3:1|3:1,0:0:0:0:
365,351,82453,1,0,0:0:0:0:
365,351,82551,2,0,P|363:292|304:244,1,129.999994049073,0|10,3:3|0:1,0:0:0:0:
178,157,82946,2,0,P|235:133|308:151,1,129.999994049073,8|8,3:3|0:1,0:0:0:0:
299,146,83242,1,4,3:3:0:0:
299,146,83341,2,0,P|300:71|333:18,1,129.999994049073,2|8,0:1|0:1,0:0:0:0:
162,17,83736,6,0,L|20:48,1,129.999994049073,6|8,3:1|3:1,0:0:0:0:
34,44,84032,1,0,0:0:0:0:
34,44,84130,2,0,P|61:102|41:175,1,129.999994049073,0|10,3:3|0:1,0:0:0:0:
117,278,84525,2,0,P|52:295|20:369,1,129.999994049073,8|8,3:3|0:1,0:0:0:0:
21,346,84821,1,4,3:3:0:0:
21,346,84920,2,0,P|91:373|145:339,1,129.999994049073,2|8,0:1|0:1,0:0:0:0:
269,384,85315,5,2,0:1:0:0:
256,372,85414,1,0,3:3:0:0:
243,360,85512,2,0,L|226:274,1,64.9999970245363,8|0,3:1|0:0,0:0:0:0:
348,183,85710,2,0,L|326:318,1,129.999994049073,2|8,0:1|0:1,0:0:0:0:
233,201,86105,5,2,3:1:0:0:
242,192,86204,1,8,3:3:0:0:
251,183,86302,2,0,L|268:97,1,64.9999970245363,8|4,0:1|3:3,0:0:0:0:
141,5,86500,2,0,L|163:140,1,129.999994049073,2|8,0:1|0:1,0:0:0:0:
337,68,86894,5,12,3:2:0:0:
337,68,87289,1,12,3:2:0:0:
337,68,87683,1,8,3:3:0:0:
368,63,87782,1,8,3:3:0:0:
400,57,87881,1,8,0:1:0:0:
432,51,87979,1,4,3:3:0:0:
456,7,88078,2,0,L|493:11,6,32.4999985122681,0|8|8|8|8|8|8,0:1|0:0|0:0|0:0|0:1|0:0|0:0,0:0:0:0:
512,98,88473,5,12,3:1:0:0:
256,192,88571,12,4,94788,0:0:0:0:
